<?xml version="1.0" standalone="no"?>
<!DOCTYPE svg PUBLIC "-//W3C//DTD SVG 1.1//EN" "http://www.w3.org/Graphics/SVG/1.1/DTD/svg11.dtd" >
<svg xmlns="http://www.w3.org/2000/svg" xmlns:xlink="http://www.w3.org/1999/xlink" version="1.1">
<metadata>
Created by FontForge 20170731 at Fri Dec 25 15:30:54 2020
 By Aleksey,,,
Copyright (c) 2018 by Adrien Midzic. All rights reserved.
</metadata>
<defs>
<font id="Lack-Italic" horiz-adv-x="0" >
  <font-face 
    font-family="Lack"
    font-weight="400"
    font-style="italic"
    font-stretch="normal"
    units-per-em="2048"
    panose-1="0 0 5 0 0 0 0 0 0 0"
    ascent="1638"
    descent="-410"
    x-height="1059"
    cap-height="1391"
    bbox="-1651 -512 2535 1944"
    underline-thickness="114"
    underline-position="-380"
    slope="-13"
    unicode-range="U+000D-FB02"
  />
<missing-glyph horiz-adv-x="614" 
 />
    <glyph glyph-name="fi" unicode="fi" horiz-adv-x="1607" 
d="M86 -512l295 1270h-225l41 180h225q28 123 96.5 224.5t159.5 167.5t199 102t219 36q61 0 111.5 -9.5t83.5 -24t58.5 -32.5t38.5 -36t21.5 -32.5t10.5 -23.5l3 -10l-51 -221q-2 8 -7.5 21t-29 46t-55 58.5t-89 46.5t-126.5 21q-154 0 -269.5 -87t-152.5 -247h711
l-180 -778h245l-37 -160h-712l37 160h245l140 598h-490l-295 -1270h-221z" />
    <glyph glyph-name="fl" unicode="fl" horiz-adv-x="1435" 
d="M86 -512l295 1270h-225l41 180h225q57 245 227.5 387.5t376.5 142.5q74 0 137 -14.5t103 -37.5t72 -50.5t48.5 -55t27 -50.5t13.5 -38l3 -14l-7 -2l4 -2l-278 -1204h-221l266 1153q-1 5 -3 13t-15 28.5t-33 36t-60 28.5t-92 13q-130 0 -218.5 -78t-129.5 -256h334
l-41 -180h-334l-295 -1270h-221z" />
    <glyph glyph-name="f_f" unicode="ff" horiz-adv-x="1845" 
d="M86 -512l295 1270h-225l41 180h225q49 211 203.5 340t353.5 129q210 0 283 -162q82 107 194.5 165t239.5 58q63 0 114 -11.5t79.5 -27.5t47.5 -32t25 -27l6 -12l-45 -197q-3 5 -9.5 12t-28.5 26.5t-48 34t-68 26.5t-88 12q-129 0 -213 -77.5t-125 -256.5h478l-41 -180
h-477l-295 -1270h-222l295 1270h-479l-295 -1270h-221zM643 938h479l25 92q-5 21 -17 46.5t-35 58t-63.5 54t-91.5 21.5q-233 0 -297 -272z" />
    <glyph glyph-name="f_f_i" unicode="ffi" horiz-adv-x="2308" 
d="M2054 938l-180 -778h246l-37 -160h-713l37 160h246l139 598h-489l-295 -1270h-222l295 1270h-479l-295 -1270h-221l295 1270h-225l41 180h225q49 211 203.5 340t353.5 129q64 0 117.5 -17t88.5 -45t56 -54t35 -54q98 112 235 171.5t285 59.5q83 0 147.5 -17.5t97 -42
t53 -49t25.5 -41.5l5 -18l-51 -221q-2 8 -7.5 21t-29.5 46t-55 58.5t-89 46.5t-127 21q-154 0 -269.5 -87t-152.5 -247h711zM1122 938l25 92q-5 21 -17 46.5t-35 58t-63.5 54t-91.5 21.5q-233 0 -297 -272h479z" />
    <glyph glyph-name="f_f_l" unicode="ffl" horiz-adv-x="2136" 
d="M86 -512l295 1270h-225l41 180h225q49 211 203.5 340t353.5 129q59 0 107.5 -13.5t78 -32.5t52 -44.5t32 -43.5t15.5 -36q90 111 211 171t251 60q74 0 137 -14.5t103 -37.5t72 -50.5t48.5 -55t27 -50.5t13.5 -38l3 -14l-6 -2l4 -2l-279 -1204h-221l266 1153q-1 5 -3 13
t-15 28.5t-32.5 36t-59.5 28.5t-92 13q-131 0 -219.5 -78t-129.5 -256h334l-41 -180h-333l-295 -1270h-222l295 1270h-479l-295 -1270h-221zM643 938h479q18 70 25 90q-4 16 -11.5 35t-24.5 46.5t-38.5 48.5t-56.5 36.5t-76 15.5q-233 0 -297 -272z" />
    <glyph glyph-name=".notdef" horiz-adv-x="614" 
 />
    <glyph glyph-name=".null" 
 />
    <glyph glyph-name="nonmarkingreturn" horiz-adv-x="682" 
 />
    <glyph glyph-name="CR" unicode="&#xd;" horiz-adv-x="532" 
 />
    <glyph glyph-name="space" unicode=" " horiz-adv-x="532" 
 />
    <glyph glyph-name="exclam" unicode="!" horiz-adv-x="696" 
d="M231 535l207 897h240l-207 -897h-240zM223 -14q-70 0 -106 46.5t-21 117.5q15 68 74 115.5t129 47.5q67 0 103.5 -47.5t21.5 -115.5q-15 -70 -74 -117t-127 -47z" />
    <glyph glyph-name="quotedbl" unicode="&#x22;" horiz-adv-x="747" 
d="M207 926l82 504h223l-147 -504h-158zM567 926l82 504h223l-147 -504h-158z" />
    <glyph glyph-name="numbersign" unicode="#" horiz-adv-x="1441" 
d="M-8 -4l246 389h-222l47 209h297l107 170h-277l50 209h356l219 356h240l-219 -356h206l220 356h239l-219 -356h221l-49 -209h-301l-106 -170h280l-47 -209h-362l-240 -389h-240l240 389h-207l-240 -389h-239zM600 594h207l106 170h-206z" />
    <glyph glyph-name="dollar" unicode="$" horiz-adv-x="1191" 
d="M975 1415q125 -25 209 -90l-56 -240q-52 60 -139.5 97t-195.5 37q-118 -2 -195 -43.5t-94 -116.5q-5 -23 -6 -42t5.5 -36.5t13 -30.5t25 -28t32.5 -25t43.5 -25t50.5 -25t61 -28q58 -26 100 -48.5t81.5 -48.5t65 -52.5t45.5 -58.5t27.5 -68t6.5 -80t-13 -96
q-36 -155 -156 -260.5t-306 -131.5l-33 -145h-223l32 143q-123 13 -220 52.5t-140 85.5l53 229q78 -75 190.5 -118.5t235.5 -43.5q292 0 338 191q9 39 -0.5 69.5t-44.5 59t-76 51t-114 55.5q-66 31 -113 57t-88.5 57.5t-65.5 65t-38.5 74.5t-13.5 90.5t15 110.5
q34 154 162 254t318 117l24 106h223z" />
    <glyph glyph-name="percent" unicode="%" horiz-adv-x="1476" 
d="M489 834q-123 0 -189.5 86.5t-37.5 209.5q28 124 136 213t231 89q124 0 191.5 -88.5t39.5 -213.5q-29 -123 -137.5 -209.5t-233.5 -86.5zM117 -33l1118 1460h197l-1119 -1460h-196zM522 977q65 0 122.5 45t72.5 108q14 65 -21.5 111.5t-99.5 46.5q-63 0 -120 -47
t-70 -111q-15 -63 19 -108t97 -45zM924 -33q-123 0 -190.5 87t-39.5 210q29 125 136.5 213t230.5 88q125 0 192.5 -88.5t38.5 -212.5q-28 -123 -135.5 -210t-232.5 -87zM956 111q65 0 122.5 45t70.5 108q15 65 -21 111.5t-100 46.5q-63 0 -119 -46.5t-71 -111.5
q-14 -63 20.5 -108t97.5 -45z" />
    <glyph glyph-name="ampersand" unicode="&#x26;" horiz-adv-x="1452" 
d="M422 -31q-208 0 -318 101q-106 103 -63 282q27 120 122 211t271 172q-53 95 -69 169t2 155q40 173 163 268.5t304 95.5q175 0 250.5 -87.5t41.5 -241.5q-23 -97 -126 -201.5t-261 -190.5l217 -311l293 240l-53 -236l-147 -127l198 -268h-278q-6 8 -38 55t-54 72
q-205 -158 -455 -158zM659 823q222 121 252 252q15 71 -16 112.5t-107 41.5t-125 -42t-65 -112q-17 -61 -3.5 -120t64.5 -132zM496 164q142 0 280 94l-264 346q-93 -40 -158.5 -106t-83.5 -148q-21 -91 41 -138.5t185 -47.5z" />
    <glyph glyph-name="quotesingle" unicode="'" horiz-adv-x="456" 
d="M129 823l209 607h264l-295 -607h-178z" />
    <glyph glyph-name="parenleft" unicode="(" horiz-adv-x="753" 
d="M184 -254q-5 19 -12 53t-21 139t-19 209t4 247.5t38 269.5q29 127 83 263.5t111 240.5t109 190t85 132l34 46h240q-13 -17 -35.5 -48t-84 -127.5t-114 -194.5t-109 -236.5t-85.5 -265.5q-29 -126 -37.5 -267t-0.5 -252t21 -204t25 -144l12 -51h-244z" />
    <glyph glyph-name="parenright" unicode=")" horiz-adv-x="733" 
d="M-35 -254q14 19 37.5 53t87.5 139t118.5 209t112.5 247.5t87 269.5q29 127 37 263.5t-1.5 240.5t-23 190t-26.5 132l-13 46h219q5 -17 13 -48t24 -127.5t22.5 -194.5t-1.5 -236.5t-37 -265.5q-29 -126 -84.5 -267t-113.5 -252t-112 -204t-89 -144l-34 -51h-223z" />
    <glyph glyph-name="asterisk" unicode="*" horiz-adv-x="874" 
d="M397 700l74 252l-244 -139l-47 139l252 113l-201 113l113 139l178 -139l43 252h158l-72 -254l244 141l47 -139l-254 -113l203 -113l-113 -137l-178 139l-45 -254h-158z" />
    <glyph glyph-name="plus" unicode="+" horiz-adv-x="1386" 
d="M498 205l96 416h-426l49 210h426l96 416h240l-96 -416h426l-49 -210h-426l-97 -416h-239z" />
    <glyph glyph-name="comma" unicode="," horiz-adv-x="681" 
d="M-154 -309l308 524h272l-371 -524h-209z" />
    <glyph glyph-name="hyphen" unicode="-" horiz-adv-x="1052" 
d="M139 500l47 209h762l-47 -209h-762z" />
    <glyph glyph-name="period" unicode="." horiz-adv-x="655" 
d="M203 -14q-70 0 -106 46.5t-21 117.5q15 68 74 115.5t129 47.5q67 0 103 -47.5t21 -115.5q-15 -70 -73.5 -117t-126.5 -47z" />
    <glyph glyph-name="slash" unicode="/" horiz-adv-x="931" 
d="M-150 -117l1031 1551h260l-1030 -1551h-261z" />
    <glyph glyph-name="zero" unicode="0" horiz-adv-x="1228" 
d="M487 -31q-104 -2 -181 35t-122 104t-65 159t-14 200.5t36 228.5q33 151 94 280.5t146 229t199 157.5t243 60q103 -2 179.5 -40t121 -104t64 -157t13.5 -198.5t-36 -227.5q-33 -151 -94 -282t-145.5 -232t-198 -158t-240.5 -55zM537 180q280 0 399 516q17 74 26.5 139
t8 137.5t-19.5 123.5t-62.5 84.5t-114.5 33.5t-130 -33.5t-101.5 -84.5t-77 -123.5t-56.5 -137.5t-38 -139t-26 -139.5t-7 -137t20.5 -122.5t63.5 -84t115 -33z" />
    <glyph glyph-name="one" unicode="1" horiz-adv-x="1087" 
d="M20 0l46 197h327l232 999h-328l45 195h551l-277 -1194h291l-45 -197h-842z" />
    <glyph glyph-name="two" unicode="2" horiz-adv-x="1226" 
d="M121 0l4 2h-123l592 559q-170 17 -258.5 141t-48.5 293q41 180 203.5 308.5t349.5 128.5t290 -128.5t62 -308.5q-40 -167 -182 -290l-545 -508h534l-45 -197h-833zM686 770q96 0 176 65t103 160q22 94 -28 160t-146 66t-175.5 -65.5t-101.5 -160.5q-23 -94 26.5 -159.5
t145.5 -65.5z" />
    <glyph glyph-name="three" unicode="3" horiz-adv-x="1200" 
d="M881 852q119 -53 172.5 -168t21.5 -256q-29 -125 -117 -230.5t-212 -167t-254 -61.5q-198 0 -306.5 134.5t-64.5 324.5h231q-25 -102 29.5 -173t159.5 -71t191.5 71t111.5 173q23 103 -31.5 174.5t-159.5 71.5q-57 0 -121 -19l304 541h-484l45 195h791l-309 -539h2z" />
    <glyph glyph-name="four" unicode="4" horiz-adv-x="1175" 
d="M1079 1391l-573 -734h534l-149 -655h-240l107 463h-670l731 926h260z" />
    <glyph glyph-name="five" unicode="5" horiz-adv-x="1159" 
d="M451 -31q-198 0 -306.5 134.5t-64.5 324.5h231q-25 -102 29.5 -173t159.5 -71t191.5 71t111.5 173q23 103 -31.5 174.5t-159.5 71.5q-63 0 -123 -29l-96 43l162 703h686l-45 -195h-463l-69 -307q101 0 176 -37q119 -53 172.5 -168t21.5 -256q-29 -125 -117 -230.5
t-212 -167t-254 -61.5z" />
    <glyph glyph-name="six" unicode="6" horiz-adv-x="1241" 
d="M492 -29q-198 0 -306.5 134.5t-64.5 324.5q20 86 70 159.5t135 158.5l659 643h275l-508 -502q117 -11 200.5 -74.5t116.5 -165t6 -219.5q-29 -125 -117 -230.5t-212 -167t-254 -61.5zM541 186q105 0 192.5 71t110.5 173q23 104 -30.5 175t-158.5 71t-192.5 -71.5
t-110.5 -174.5q-23 -102 30.5 -173t158.5 -71z" />
    <glyph glyph-name="seven" unicode="7" horiz-adv-x="1085" 
d="M342 1391h819l-833 -1391h-262l725 1196h-494z" />
    <glyph glyph-name="eight" unicode="8" horiz-adv-x="1159" 
d="M451 -29q-133 0 -231 59.5t-139 161.5t-13 222q24 107 99 200t181 154q-89 113 -51 272q37 160 179.5 273.5t309.5 113.5t259 -113.5t55 -273.5q-38 -161 -178 -272q78 -61 109 -154t7 -200q-28 -120 -116 -222t-213 -161.5t-258 -59.5zM655 854q81 0 148 53.5t86 132.5
q19 80 -23.5 134.5t-124.5 54.5q-81 0 -147.5 -54.5t-85.5 -134.5q-19 -78 23.5 -132t123.5 -54zM496 166q111 0 201.5 71t115.5 175q23 102 -35 171.5t-170 69.5t-202 -69.5t-113 -171.5q-25 -103 33 -174.5t170 -71.5z" />
    <glyph glyph-name="nine" unicode="9" horiz-adv-x="1159" 
d="M786 1423q198 0 306.5 -134t64.5 -324q-30 -137 -135 -252h2l-733 -713h-289l514 506q-173 22 -263 152.5t-50 306.5q44 190 214.5 324t368.5 134zM926 965q23 102 -30.5 172.5t-158.5 70.5t-192.5 -70.5t-110.5 -172.5q-23 -104 30.5 -175t158.5 -71t192.5 71.5
t110.5 174.5z" />
    <glyph glyph-name="colon" unicode=":" horiz-adv-x="913" 
d="M485 653q-70 0 -106 46.5t-21 117.5q18 69 75.5 116.5t127.5 47.5q68 0 105 -48.5t20 -115.5q-15 -70 -74 -117t-127 -47zM332 -14q-70 0 -106 46.5t-21 117.5q15 68 74 115.5t129 47.5q67 0 103 -47.5t21 -115.5q-15 -70 -73.5 -117t-126.5 -47z" />
    <glyph glyph-name="semicolon" unicode=";" horiz-adv-x="856" 
d="M485 653q-70 0 -106 46.5t-21 117.5q18 69 75.5 116.5t127.5 47.5q68 0 105 -48.5t20 -115.5q-15 -70 -74 -117t-127 -47zM-84 -309l307 524h273l-371 -524h-209z" />
    <glyph glyph-name="less" unicode="&#x3c;" horiz-adv-x="1103" 
d="M879 0l-781 512l31 133l995 414l-47 -205l-717 -272l566 -377z" />
    <glyph glyph-name="equal" unicode="=" horiz-adv-x="1290" 
d="M250 805l49 209h920l-50 -209h-919zM154 385l47 209h919l-47 -209h-919z" />
    <glyph glyph-name="greater" unicode="&#x3e;" horiz-adv-x="1103" 
d="M-20 0l47 205l741 377l-590 272l47 205l803 -414l-31 -133z" />
    <glyph glyph-name="question" unicode="?" horiz-adv-x="727" 
d="M164 453l74 317q96 0 175.5 65t102.5 160q22 94 -28 160t-146 66l49 211q187 0 290 -128.5t62 -308.5q-29 -121 -115.5 -223t-203.5 -158l-39 -161h-221zM162 -14q-70 0 -106 46.5t-21 117.5q15 68 74 115.5t129 47.5q67 0 103 -47.5t21 -115.5q-15 -70 -73.5 -117
t-126.5 -47z" />
    <glyph glyph-name="at" unicode="@" horiz-adv-x="1742" 
d="M682 -348q-108 0 -205.5 27.5t-173.5 78t-135 121.5t-90 157.5t-38.5 186t19.5 207.5q48 211 196 390.5t354 283.5t419 104q165 0 298 -53t215.5 -150t113.5 -232.5t-8 -301.5q-24 -106 -74 -189t-112 -131.5t-128.5 -73t-132.5 -24.5q-91 0 -129.5 37t-40.5 84
q-56 -56 -137 -89.5t-143 -33.5q-171 0 -260.5 115t-51.5 280q37 165 179.5 279.5t312.5 114.5q61 0 115.5 -22t82.5 -62l15 63h176l-119 -512q-21 -94 47 -94q67 0 126 79t77 157q31 146 10 253.5t-89 178t-166.5 105t-221.5 34.5q-158 0 -311 -80t-262.5 -215.5
t-145.5 -294.5q-37 -159 11.5 -295t168 -215.5t281.5 -79.5zM786 223q94 0 170 59.5t101 163.5q24 103 -24 163.5t-142 60.5q-90 0 -168 -65.5t-100 -158.5t25.5 -158t137.5 -65z" />
    <glyph glyph-name="A" unicode="A" horiz-adv-x="1536" 
d="M1073 1391l297 -1391h-260l-57 330h-656l-215 -330h-262l938 1391h215zM532 539h486l-109 569z" />
    <glyph glyph-name="B" unicode="B" horiz-adv-x="1363" 
d="M1323 1032q-27 -115 -107 -186.5t-188 -89.5q137 -12 198.5 -104t30.5 -230q-48 -209 -204 -315.5t-385 -106.5h-607l322 1391h569q228 0 320.5 -87.5t50.5 -271.5zM1100 1016q4 23 4.5 42.5t-3 34.5t-9 27.5t-16 21.5t-21.5 15.5t-27 11t-31 7t-36.5 4t-40 2t-43.5 0.5
h-320l-80 -346h307q142 0 217 39t99 141zM1022 426q25 106 -30.5 158.5t-192.5 52.5h-367l-98 -428h366q273 0 322 217z" />
    <glyph glyph-name="C" unicode="C" horiz-adv-x="1441" 
d="M731 -31q-113 -1 -211 24.5t-170.5 73t-127.5 114.5t-81 148.5t-31.5 174.5t21.5 192q32 148 119 282t209.5 233t281.5 156.5t326 55.5q269 0 422 -123l-55 -235q-2 7 -21.5 23t-58 38t-86 41.5t-114.5 33t-136 13.5q-247 0 -425 -146.5t-231 -371.5q-34 -147 2 -263.5
t143.5 -184.5t272.5 -68q140 0 280.5 40.5t244.5 113.5l-56 -240q-1 0 -23 -12t-42 -21t-55.5 -23.5t-75 -25t-88.5 -21.5t-109.5 -16.5t-124.5 -5.5z" />
    <glyph glyph-name="D" unicode="D" horiz-adv-x="1556" 
d="M887 1391q234 0 386 -89.5t204.5 -245.5t5.5 -360q-47 -201 -175.5 -358.5t-322.5 -247.5t-420 -90h-504l322 1391h504zM1251 696q54 230 -54.5 358t-375.5 128h-264l-223 -971h264q249 0 419 120.5t234 364.5z" />
    <glyph glyph-name="E" unicode="E" horiz-adv-x="1314" 
d="M1352 1182h-795l-78 -336h633l-49 -209h-631l-98 -428h805l-49 -209h-1029l322 1391h1016z" />
    <glyph glyph-name="F" unicode="F" horiz-adv-x="1277" 
d="M1352 1182h-795l-78 -336h633l-49 -209h-631l-147 -637h-224l322 1391h1016z" />
    <glyph glyph-name="G" unicode="G" horiz-adv-x="1589" 
d="M705 -31q-106 0 -198 26.5t-161 74t-121 114t-77 147.5t-29 173.5t22 191.5q32 148 119 282t209.5 233t281.5 156.5t326 55.5q178 0 291 -45q121 -45 170 -80l-55 -237q-47 47 -158 98q-113 55 -297 55q-247 0 -424.5 -146.5t-230.5 -371.5q-34 -143 1.5 -261.5
t134.5 -187.5t243 -69q112 0 218 36t187 89l70 301h-416l49 209h639l-188 -813h-224l17 72q-186 -103 -399 -103z" />
    <glyph glyph-name="H" unicode="H" horiz-adv-x="1544" 
d="M1335 1391h224l-322 -1391h-223l147 637h-729l-147 -637h-224l322 1391h223l-127 -545h729z" />
    <glyph glyph-name="I" unicode="I" horiz-adv-x="591" 
d="M61 0l322 1391h223l-321 -1391h-224z" />
    <glyph glyph-name="J" unicode="J" horiz-adv-x="1110" 
d="M340 -31q-87 0 -176.5 25.5t-137 51t-46.5 32.5l49 213q20 -14 61.5 -36t121.5 -48.5t146 -26.5q169 0 257.5 66.5t123.5 218.5l213 926h224l-213 -922q-55 -238 -222.5 -369t-400.5 -131z" />
    <glyph glyph-name="K" unicode="K" horiz-adv-x="1404" 
d="M1567 1391l-738 -576l416 -815h-248l-344 676l-262 -203l-108 -473h-222l322 1391h221l-145 -629l796 629h312z" />
    <glyph glyph-name="L" unicode="L" horiz-adv-x="1327" 
d="M61 0l322 1391h221l-272 -1182h844l-50 -209h-1065z" />
    <glyph glyph-name="M" unicode="M" horiz-adv-x="1693" 
d="M61 0l322 1391h260l258 -619v-2l547 621h260l-322 -1391h-221l244 1055l-459 -516h-202l-222 516l-243 -1055h-222z" />
    <glyph glyph-name="N" unicode="N" horiz-adv-x="1579" 
d="M1372 1391h221l-321 -1391h-248l-496 1061l-245 -1061h-222l322 1391h256l491 -1043z" />
    <glyph glyph-name="O" unicode="O" horiz-adv-x="1644" 
d="M692 -31q-105 -1 -196.5 24.5t-160 73t-120.5 114.5t-77 148.5t-29 174.5t22 192q32 147 117.5 281.5t204 233.5t269.5 156.5t306 55.5q104 1 195.5 -24.5t160.5 -73t121 -114.5t77.5 -148.5t30 -174.5t-21.5 -192q-32 -147 -118 -281.5t-205 -233.5t-270 -156.5
t-306 -55.5zM741 180q226 0 396.5 146t222.5 370q34 146 0.5 263t-132.5 186t-249 69q-223 0 -395 -147.5t-224 -370.5q-34 -146 0 -263t133.5 -185t247.5 -68z" />
    <glyph glyph-name="P" unicode="P" horiz-adv-x="1429" 
d="M1036 1391q104 0 187 -33t134.5 -93t70.5 -144t-5 -187q-47 -203 -218 -330t-386 -127h-424l-110 -477h-224l322 1391h653zM1192 930q26 112 -38 182t-181 70h-416l-115 -500h414q117 0 213.5 69t122.5 179z" />
    <glyph glyph-name="Q" unicode="Q" horiz-adv-x="1644" 
d="M1591 696q-32 -149 -117.5 -283t-209.5 -235h258l-47 -209h-760h-23q-105 -1 -196.5 24.5t-160 73t-120.5 114.5t-77 148.5t-29 174.5t22 192q32 147 117.5 281.5t204 233.5t269.5 156.5t306 55.5q104 1 195.5 -24.5t160.5 -73t121 -114.5t77.5 -148.5t30 -174.5
t-21.5 -192zM360 696q-34 -146 0 -263t133.5 -185t247.5 -68q226 0 396.5 146t222.5 370q34 146 0.5 263t-132.5 186t-249 69q-223 0 -395 -147.5t-224 -370.5z" />
    <glyph glyph-name="R" unicode="R" horiz-adv-x="1411" 
d="M995 1391q216 0 328 -113t66 -313q-36 -159 -150.5 -264.5t-277.5 -143.5l284 -557h-278l-273 539h-284l-125 -539h-224l322 1391h612zM1159 961q25 109 -40.5 165t-186.5 56h-375l-100 -439h372q122 0 213.5 55.5t116.5 162.5z" />
    <glyph glyph-name="S" unicode="S" horiz-adv-x="1191" 
d="M469 -33q-161 0 -291 43.5t-182 100.5l53 229q78 -75 190.5 -118.5t235.5 -43.5q292 0 338 191q9 39 -0.5 69.5t-44.5 59t-76 51t-114 55.5q-66 31 -113 57t-88.5 57.5t-65.5 65t-38.5 74.5t-13.5 90.5t15 110.5q37 167 184 270t363 103q98 2 198.5 -27.5t164.5 -79.5
l-56 -240q-52 60 -139.5 97t-195.5 37q-118 -2 -195 -43.5t-94 -116.5q-5 -23 -6 -42t5.5 -36.5t13 -30.5t25 -28t32.5 -25t43.5 -25t50.5 -25t61 -28q58 -26 100 -48.5t81.5 -48.5t65 -52.5t45.5 -58.5t27.5 -68t6.5 -80t-13 -96q-41 -178 -192.5 -289t-380.5 -111z" />
    <glyph glyph-name="T" unicode="T" horiz-adv-x="1359" 
d="M446 0l275 1182h-488l48 209h1196l-47 -209h-488l-274 -1182h-222z" />
    <glyph glyph-name="U" unicode="U" horiz-adv-x="1445" 
d="M594 -31q-127 0 -221 32t-157 100t-78.5 174t16.5 255l198 861h223l-196 -856q-19 -93 -9 -159.5t49 -109t95.5 -62.5t128.5 -20q172 0 279 84.5t149 266.5l197 856h223l-199 -861q-34 -145 -101 -254.5t-159.5 -175.5t-201.5 -98.5t-236 -32.5z" />
    <glyph glyph-name="V" unicode="V" horiz-adv-x="1437" 
d="M1298 1391h275l-852 -1391h-250l-209 1391h248l147 -1072z" />
    <glyph glyph-name="W" unicode="W" horiz-adv-x="2117" 
d="M1999 1391h254l-754 -1391h-258l-57 1071l-543 -1071h-268l-111 1391h244l67 -1069l535 1069h274l56 -1072z" />
    <glyph glyph-name="X" unicode="X" horiz-adv-x="1456" 
d="M1554 1391l-653 -662l369 -729h-271l-262 526l-489 -526h-307l696 733l-344 658h270l230 -471l454 471h307z" />
    <glyph glyph-name="Y" unicode="Y" horiz-adv-x="1384" 
d="M1255 1391h287l-721 -795l-139 -596h-225l139 596l-356 795h252l249 -576z" />
    <glyph glyph-name="Z" unicode="Z" horiz-adv-x="1400" 
d="M31 0l49 209l1030 973h-766l47 209h1069l-47 -209l-1024 -973h825l-49 -209h-1134z" />
    <glyph glyph-name="bracketleft" unicode="[" horiz-adv-x="768" 
d="M-39 -256l414 1790h481l-47 -209h-242l-317 -1374h242l-50 -207h-481z" />
    <glyph glyph-name="backslash" unicode="\" horiz-adv-x="931" 
d="M543 -117l-334 1551h240l333 -1551h-239z" />
    <glyph glyph-name="bracketright" unicode="]" horiz-adv-x="768" 
d="M-39 -256l49 207h242l317 1374h-241l47 209h481l-414 -1790h-481z" />
    <glyph glyph-name="asciicircum" unicode="^" horiz-adv-x="1263" 
d="M131 655l635 777h133l291 -777h-205l-205 551l-444 -551h-205z" />
    <glyph glyph-name="underscore" unicode="_" horiz-adv-x="1525" 
d="M-6 -127l29 127h1234l-28 -127h-1235z" />
    <glyph glyph-name="grave" unicode="`" horiz-adv-x="538" 
d="M446 1200l-170 350h273l104 -350h-207z" />
    <glyph glyph-name="a" unicode="a" horiz-adv-x="1376" 
d="M506 -31q-159 0 -269 75t-150.5 203t-4.5 281q36 154 135 282t244 204t303 76q110 0 195.5 -37.5t130.5 -96.5l24 103h221l-250 -1059h-221l29 109q-171 -140 -387 -140zM567 166q153 0 275.5 98t161.5 266q39 167 -39 265t-230 98q-148 0 -272 -105.5t-160 -257.5
t40 -258t224 -106z" />
    <glyph glyph-name="b" unicode="b" horiz-adv-x="1376" 
d="M612 -31q-222 0 -321 140l-25 -109h-223l322 1391l227 36l-109 -471q72 59 174.5 96.5t212.5 37.5q158 0 268.5 -76t151 -204t4.5 -282q-27 -115 -92 -217.5t-154 -178t-203 -119.5t-233 -44zM641 166q149 0 276 106.5t162 257.5t-43 257t-227 106q-152 0 -274.5 -98
t-161.5 -265q-39 -169 38 -266.5t230 -97.5z" />
    <glyph glyph-name="c" unicode="c" horiz-adv-x="1132" 
d="M553 -31q-116 0 -207.5 28.5t-149.5 80t-93 121.5t-37.5 154t16.5 177q36 154 137.5 281.5t252.5 203t319 75.5q105 0 201 -32t149 -95l-54 -228q-4 7 -11 17.5t-36 38t-64.5 48.5t-97.5 38.5t-133 17.5q-155 0 -283.5 -106.5t-164.5 -258.5q-38 -165 43.5 -265.5
t257.5 -100.5q69 0 136.5 11.5t113.5 27.5t82 32t54 27l17 12l-47 -204q-77 -52 -190 -76.5t-211 -24.5z" />
    <glyph glyph-name="d" unicode="d" horiz-adv-x="1376" 
d="M506 -31q-159 0 -269 75t-150.5 203t-4.5 281q36 154 135 282t244 204t303 76q110 0 195.5 -37.5t130.5 -96.5l100 435l229 36l-329 -1427h-226l29 109q-171 -140 -387 -140zM567 166q153 0 275.5 98t161.5 266q39 167 -39 265t-230 98q-149 0 -276 -106t-162 -257
t43 -257.5t227 -106.5z" />
    <glyph glyph-name="e" unicode="e" horiz-adv-x="1220" 
d="M539 -31q-91 0 -168 20.5t-132 57.5t-95 88.5t-57.5 113.5t-20.5 133.5t16 147.5q56 239 255.5 399.5t444.5 160.5q90 0 162 -28.5t117.5 -77.5t73.5 -114t29.5 -138.5t-13.5 -151.5l-25 -103h-845q-5 -64 9.5 -118t49 -98.5t98 -69.5t150.5 -25q42 0 83.5 4t77 10
t69.5 14.5t61.5 17.5t52 18t42.5 17.5t31 14.5t20 10l7 4l-45 -198q-6 -4 -17 -11.5t-51.5 -26.5t-88 -33t-126 -26t-165.5 -12zM332 649h614q5 21 2.5 48t-7 56t-21.5 57t-41.5 50t-67.5 35.5t-98 13.5q-66 0 -125 -19.5t-100 -48t-74.5 -65.5t-52 -68t-29.5 -59z" />
    <glyph glyph-name="f" unicode="f" horiz-adv-x="1067" 
d="M45 -512l295 1270h-225l41 180h225q57 249 214 389.5t359 140.5q63 0 114.5 -11.5t79.5 -27.5t47 -32t25 -27l7 -12l-45 -197q-3 5 -9.5 12t-28.5 26.5t-48 34t-68 26.5t-88 12q-129 0 -213 -77.5t-125 -256.5h477l-41 -180h-477l-295 -1270h-221z" />
    <glyph glyph-name="g" unicode="g" horiz-adv-x="1320" 
d="M375 -461q-87 0 -159.5 11t-114.5 27.5t-72 32.5t-41 27l-11 11l46 198q5 -4 15.5 -11.5t47 -26.5t78.5 -33.5t109.5 -26.5t140.5 -12q391 0 471 346l4 24q-164 -137 -383 -137q-159 0 -269 75t-150.5 203t-4.5 281q36 154 135 282t244 204t303 76q110 0 195.5 -37.5
t130.5 -96.5l24 103h221l-223 -948q-22 -95 -62 -178t-103 -156.5t-144 -125.5t-190.5 -82t-237.5 -30zM567 166q153 0 275.5 98t161.5 266q39 167 -39 265t-230 98q-148 0 -272 -105.5t-160 -257.5t40 -258t224 -106z" />
    <glyph glyph-name="h" unicode="h" horiz-adv-x="1282" 
d="M842 1092q187 0 280.5 -115.5t44.5 -325.5l-151 -651h-221l145 629q29 126 -18.5 196t-157.5 70q-76 0 -147 -30.5t-128.5 -95.5t-82.5 -153l-144 -616h-221l321 1391l230 36l-115 -497q11 16 32.5 36.5t65 52t114.5 52.5t153 21z" />
    <glyph glyph-name="i" unicode="i" horiz-adv-x="579" 
d="M446 1210q-52 0 -80 36t-16 89q12 54 56.5 90.5t97.5 36.5q54 0 82 -36.5t16 -90.5q-12 -53 -57 -89t-99 -36zM66 0l245 1061h221l-245 -1061h-221z" />
    <glyph glyph-name="j" unicode="j" horiz-adv-x="548" 
d="M434 1210q-52 0 -80 36t-16 89q12 54 56.5 90.5t97.5 36.5q54 0 82 -36.5t16 -90.5q-12 -53 -57 -89t-99 -36zM-152 -459q-46 0 -85.5 7t-66.5 18.5t-48.5 25.5t-34 27.5t-21 25t-11.5 18.5l-3 7l53 230q3 -7 8.5 -17.5t26 -38.5t45 -49.5t65.5 -39t87 -17.5
q51 0 90 28.5t58.5 66.5t29.5 85l264 1143h221l-260 -1124q-12 -53 -31 -102.5t-53.5 -104.5t-78.5 -95.5t-110 -67t-145 -26.5z" />
    <glyph glyph-name="k" unicode="k" horiz-adv-x="1179" 
d="M1241 1059l-563 -395l399 -664h-270l-313 535l-129 -91l-103 -444h-221l321 1391l230 36l-166 -716l498 348h317z" />
    <glyph glyph-name="l" unicode="l" horiz-adv-x="548" 
d="M41 0l321 1391l230 36l-330 -1427h-221z" />
    <glyph glyph-name="m" unicode="m" horiz-adv-x="1927" 
d="M1518 1092q183 0 263.5 -114t30.5 -327l-151 -651h-221l145 629q61 266 -145 266q-108 0 -205 -79t-129 -220l-139 -596h-222l146 629q61 266 -146 266q-100 0 -193 -70t-132 -196l-146 -629h-221l246 1059h221l-28 -125q10 17 31 38t60.5 51t103 49.5t136.5 19.5
q113 0 188.5 -44t106.5 -130q58 77 158.5 125.5t241.5 48.5z" />
    <glyph glyph-name="n" unicode="n" horiz-adv-x="1296" 
d="M856 1092q187 0 281 -115.5t45 -325.5l-152 -651h-221l145 629q29 126 -18.5 196t-157.5 70q-79 0 -152.5 -32.5t-131.5 -101.5t-80 -165l57 252l-197 -848h-221l246 1059h221l-31 -131q6 9 17.5 22.5t44 40t71.5 47.5t101.5 37.5t132.5 16.5z" />
    <glyph glyph-name="o" unicode="o" horiz-adv-x="1323" 
d="M532 -31q-158 0 -274.5 75t-163.5 203.5t-12 280.5t142 281.5t258 205t309 75.5t274.5 -75.5t163.5 -205t12 -281.5t-142 -280.5t-258 -203.5t-309 -75zM578 168q155 0 284.5 104.5t165.5 255.5q35 152 -46 257.5t-237 105.5t-285 -105.5t-165 -257.5q-35 -150 46 -255
t237 -105z" />
    <glyph glyph-name="p" unicode="p" horiz-adv-x="1376" 
d="M-59 -434l346 1493h221l-25 -103q72 59 174.5 96.5t212.5 37.5q158 0 268.5 -76t151 -204t4.5 -282q-27 -115 -92 -217.5t-154 -178t-203 -119.5t-233 -44q-226 0 -323 144l-127 -547h-221zM662 166q147 0 264 104t153 258q19 75 8.5 141.5t-41.5 116t-87.5 78.5
t-129.5 29q-101 0 -194.5 -42t-164.5 -126.5t-97 -196.5q-38 -166 47.5 -264t241.5 -98z" />
    <glyph glyph-name="q" unicode="q" horiz-adv-x="1370" 
d="M768 -434l127 547q-167 -144 -389 -144q-159 0 -269 75t-150.5 203t-4.5 281q36 154 135 282t244 204t303 76q110 0 195.5 -37.5t130.5 -96.5l24 103h221l-346 -1493h-221zM547 166q101 0 194.5 42t165 125.5t97.5 194.5q38 167 -47.5 266t-241.5 99
q-147 0 -264.5 -105.5t-153.5 -259.5q-36 -153 33.5 -257.5t216.5 -104.5z" />
    <glyph glyph-name="r" unicode="r" horiz-adv-x="839" 
d="M41 0l246 1061h221l-47 -205q61 101 193 168.5t294 67.5l-41 -183q-198 0 -338.5 -104t-183.5 -275l-123 -530h-221z" />
    <glyph glyph-name="s" unicode="s" horiz-adv-x="894" 
d="M287 -31q-50 0 -101 10.5t-87 25t-65.5 29.5t-43.5 26l-15 10l52 217q4 -5 12.5 -13t37 -29t59 -37t78 -29t95.5 -13q104 0 166 30t74 83q11 54 -24.5 94.5t-127.5 99.5q-36 23 -52.5 33.5t-46 33t-42.5 38t-30.5 41t-22.5 50t-6 57t8 69.5q30 134 140.5 214.5
t256.5 80.5q89 0 165.5 -21.5t113.5 -48.5l-50 -217q-30 37 -91 63.5t-136 26.5q-166 0 -190 -94q-9 -42 18 -70t125 -93l51 -34q33 -22 56.5 -40.5t45 -41t33.5 -45t19.5 -50.5t6 -61t-10.5 -73q-15 -64 -48.5 -119t-88.5 -102t-141 -74t-193 -27z" />
    <glyph glyph-name="t" unicode="t" horiz-adv-x="1028" 
d="M295 0l211 907h-408l748 518l-78 -338h362l-40 -180h-363l-211 -907h-221z" />
    <glyph glyph-name="u" unicode="u" horiz-adv-x="1249" 
d="M496 -33q-29 0 -51.5 1t-61 5.5t-67.5 12.5t-65 24.5t-61 39.5t-47.5 58.5t-32 79.5t-8 105.5t18.5 134.5l145 631h221l-147 -637q-1 -5 -3 -14.5t-4 -36.5t0.5 -51.5t14.5 -54.5t34 -51.5t62.5 -36.5t96.5 -15q76 0 137 27t93.5 65t54 76t28.5 65l6 27l148 637h221
l-146 -631q-21 -93 -59 -167.5t-79 -121.5t-95.5 -81.5t-98.5 -51.5t-99.5 -26.5t-86 -11t-69.5 -1.5z" />
    <glyph glyph-name="v" unicode="v" horiz-adv-x="1126" 
d="M422 -84l-289 1143h232l163 -692l480 692h231z" />
    <glyph glyph-name="w" unicode="w" horiz-adv-x="1529" 
d="M330 -84l-146 1143h232l69 -610l410 653l129 -656l336 613h231l-673 -1143l-136 707z" />
    <glyph glyph-name="x" unicode="x" horiz-adv-x="1275" 
d="M1307 1059l-529 -508l324 -551h-266l-213 389l-398 -389h-297l588 569l-301 490h266l193 -326l350 326h283z" />
    <glyph glyph-name="y" unicode="y" horiz-adv-x="1200" 
d="M1026 1059h256l-1059 -1485h-260l422 573l-221 912h231l158 -676z" />
    <glyph glyph-name="z" unicode="z" horiz-adv-x="1179" 
d="M-20 0l34 152l805 716h-598l45 193h914l-39 -172l-783 -696h641l-45 -193h-974z" />
    <glyph glyph-name="braceleft" unicode="{" horiz-adv-x="749" 
d="M424 -256q-190 3 -254.5 78.5t-28.5 232.5q70 308 77 352q16 98 -10 123q-17 15 -61 15l43 190q77 0 108 67.5t89 322.5q5 21 7.5 33t7 31t8.5 36q36 156 136 232t292 79l-43 -188q-93 0 -134.5 -44.5t-68.5 -160.5q-8 -34 -19.5 -87t-18 -82t-17 -71.5t-19.5 -66.5
t-22 -55.5t-27.5 -50t-33.5 -38t-42.5 -31.5t-52.5 -20q25 -8 43 -20.5t28 -32t15.5 -39t4.5 -50t-4 -56t-11.5 -66.5t-15.5 -71.5t-19.5 -81.5t-20.5 -87q-29 -113 -6.5 -159t115.5 -46z" />
    <glyph glyph-name="bar" unicode="|" horiz-adv-x="503" 
d="M6 -102l373 1615h199l-373 -1615h-199z" />
    <glyph glyph-name="braceright" unicode="}" horiz-adv-x="749" 
d="M-39 -256l45 188q93 0 134.5 44.5t68.5 160.5q7 32 18.5 86.5t18 82t17.5 71.5t19.5 67t22 55.5t28 50.5t34 38t43.5 32.5t53 20.5q-25 8 -43.5 20t-28.5 31.5t-16.5 38t-5 50t3.5 55.5t11 66.5t15.5 71.5t19.5 82t21 87q29 113 7 159t-115 46l43 188q192 -3 256 -78.5
t28 -232.5q-69 -299 -76 -347q-17 -102 13 -128q19 -15 57 -15l-43 -190q-78 0 -107 -62t-88 -323q-5 -22 -8 -34.5t-7.5 -32.5t-8.5 -38q-36 -157 -136.5 -232.5t-293.5 -78.5z" />
    <glyph glyph-name="asciitilde" unicode="~" horiz-adv-x="1120" 
d="M737 418q-41 0 -81 12.5t-111 42.5q-14 6 -43 20.5t-51.5 22.5t-40.5 8q-12 0 -22 -2.5t-17.5 -5.5t-15 -11t-11.5 -11.5t-11 -15t-8.5 -14.5t-8 -16.5t-7.5 -15.5l-215 62q43 97 121 158t184 61q86 0 193 -56q4 -2 19 -10t20.5 -10.5t19 -9t21 -9t18.5 -6t19.5 -5
t17.5 -1.5q13 0 24 2.5t20.5 9.5t15 11t13 16.5t9.5 16t9.5 19.5t8.5 17l215 -61q-45 -98 -122 -158.5t-183 -60.5z" />
    <glyph glyph-name="exclamdown" unicode="&#xa1;" horiz-adv-x="704" 
d="M406 760q-70 0 -106 48t-21 116q17 71 74.5 117t127.5 46q68 0 105 -46.5t20 -116.5q-15 -68 -74 -116t-126 -48zM29 -358l207 897h239l-207 -897h-239z" />
    <glyph glyph-name="cent" unicode="&#xa2;" horiz-adv-x="1024" 
d="M928 903q-82 0 -164 -21t-158.5 -62.5t-133.5 -114.5t-79 -168q-20 -79 -5.5 -139t48 -101.5t87.5 -68t113 -38.5t124 -12l-47 -211q-66 0 -144 10l-55 -233h-217l70 297q-128 66 -183.5 189.5t-13.5 306.5q41 182 153.5 306t272.5 191l78 340h215l-64 -276q77 12 150 12
z" />
    <glyph glyph-name="sterling" unicode="&#xa3;" horiz-adv-x="1314" 
d="M162 0l147 635h-215l49 211h215l37 164q20 86 74.5 168.5t129 145t169.5 100.5t190 38q115 0 201.5 -56.5t123.5 -154t11 -211.5h-221q19 79 -28 136t-130 57t-153.5 -56.5t-89.5 -136.5h2l-45 -194h385l-49 -211h-387l-99 -424h645l-51 -211h-911z" />
    <glyph glyph-name="currency" unicode="&#xa4;" horiz-adv-x="1290" 
d="M254 186l-115 150l109 88q-42 102 -15 223q30 123 117 223l-67 88l184 150l72 -92q111 57 231 57q122 0 207 -57l113 92l114 -150l-108 -88q44 -102 14 -223q-25 -112 -117 -223l68 -88l-184 -150l-70 93q-118 -56 -234 -56q-113 0 -204 56zM621 424q96 0 177 65t103 158
q22 94 -29 159.5t-147 65.5q-97 0 -179 -65.5t-104 -159.5q-22 -92 30 -157.5t149 -65.5z" />
    <glyph glyph-name="yen" unicode="&#xa5;" horiz-adv-x="1337" 
d="M1741 1391l-785 -689h172l-49 -208h-291l-47 -101h316l-49 -209h-363l-86 -184h-225l86 184h-248l49 209h295l47 101h-319l49 208h295l-150 689h252l117 -576l647 576h287z" />
    <glyph glyph-name="brokenbar" unicode="&#xa6;" horiz-adv-x="481" 
d="M211 784l168 729h178l-168 -729h-178zM-31 -256l170 729h178l-170 -729h-178z" />
    <glyph glyph-name="section" unicode="&#xa7;" horiz-adv-x="997" 
d="M229 -190q-50 0 -98.5 10.5t-81.5 25t-59 29t-38 25.5l-13 10l51 217q4 -5 12.5 -13t37 -29t59 -37t78 -29t95.5 -13q104 0 166 30t74 83q5 22 -1.5 43.5t-25 43.5t-33 36.5t-43 38t-38.5 32.5q-78 69 -100 94q-91 102 -64 222q25 105 114.5 176t223.5 84
q-75 65 -105 119.5t-14 121.5q30 134 149 218t271 84q57 0 111.5 -17.5t80.5 -34.5l25 -18l-41 -176q-12 8 -32 19.5t-76 30.5t-103 19q-66 0 -110 -27.5t-54 -76.5q-5 -21 1.5 -41.5t26.5 -42.5t35 -36t47 -39.5t44 -35.5q71 -62 95 -92q75 -94 46 -219
q-22 -96 -117 -175.5t-190 -76.5q126 -97 88 -250q-33 -147 -158 -240t-336 -93zM729 621q13 57 -27.5 95t-109.5 38q-66 0 -108.5 -27.5t-53.5 -77.5q-18 -78 50 -115t150 -11.5t99 98.5z" />
    <glyph glyph-name="dieresis" unicode="&#xa8;" horiz-adv-x="770" 
d="M350 1225q-47 0 -73.5 33t-16.5 79q10 47 52 81t89 34q46 0 71 -34t15 -81q-11 -46 -51 -79t-86 -33zM743 1225q-47 0 -73.5 33t-16.5 79q10 47 52.5 81t89.5 34q46 0 71 -34t15 -81q-10 -46 -51 -79t-87 -33z" />
    <glyph glyph-name="copyright" unicode="&#xa9;" horiz-adv-x="1738" 
d="M715 -137q-119 0 -222 37t-176 103.5t-121.5 158t-57.5 200t16 230.5q35 149 123.5 284t208.5 233t268.5 156t296.5 58q119 0 222.5 -37.5t177 -104t122 -158t57.5 -200.5t-16 -231q-45 -198 -182 -366t-328 -265.5t-389 -97.5zM748 2q161 0 315 78.5t264.5 214.5
t147.5 297t-10.5 297.5t-165.5 215.5t-279 79t-315.5 -79t-264.5 -215.5t-147 -297.5t10.5 -297t165.5 -214.5t279 -78.5zM821 150q-91 0 -163 22.5t-117.5 63t-72.5 95.5t-29.5 121t12.5 140q43 188 200.5 315t358.5 127q84 0 159 -25t117 -75l-41 -172q-3 5 -8.5 13.5
t-28 30.5t-50 39t-76.5 30.5t-105 13.5q-124 0 -231.5 -88t-135.5 -209q-29 -130 39 -213.5t207 -83.5q55 0 107.5 9t89 22t65 26t42.5 22l14 9l-35 -154q-62 -40 -151.5 -59.5t-166.5 -19.5z" />
    <glyph glyph-name="ordfeminine" unicode="&#xaa;" horiz-adv-x="792" 
d="M385 504q-123 0 -203 83.5t-80 203.5q0 122 80 205t203 83q52 0 94 -19t56 -48v51h155l-2 -543h-156l3 55q-13 -32 -55 -51.5t-95 -19.5zM393 651q59 0 98 38t39 104q0 64 -39 101.5t-98 37.5q-57 0 -95 -40t-38 -99t38.5 -100.5t94.5 -41.5z" />
    <glyph glyph-name="guillemotleft" unicode="&#xab;" horiz-adv-x="1032" 
d="M246 123l-170 418l358 397h242l-359 -397l170 -418h-241zM635 123l-170 418l358 397h242l-358 -397l170 -418h-242z" />
    <glyph glyph-name="logicalnot" unicode="&#xac;" horiz-adv-x="1110" 
d="M692 203l70 299h-666l47 209h906l-117 -508h-240z" />
    <glyph glyph-name="uni00AD" unicode="&#xad;" horiz-adv-x="1228" 
d="M139 500l47 209h762l-47 -209h-762z" />
    <glyph glyph-name="registered" unicode="&#xae;" horiz-adv-x="1738" 
d="M715 -137q-119 0 -222 37t-176 103.5t-121.5 158t-57.5 200t16 230.5q35 149 123.5 284t208.5 233t268.5 156t296.5 58q119 0 222.5 -37.5t177 -104t122 -158t57.5 -200.5t-16 -231q-45 -198 -182 -366t-328 -265.5t-389 -97.5zM748 2q161 0 315 78.5t264.5 214.5
t147.5 297t-10.5 297.5t-165.5 215.5t-279 79t-315.5 -79t-264.5 -215.5t-147 -297.5t10.5 -297t165.5 -214.5t279 -78.5zM432 176l191 825h389q177 0 236.5 -70.5t29.5 -201.5q-20 -86 -79 -145t-138 -92l119 -316h-172l-95 281h-258l-65 -281h-158zM686 592h227
q91 0 138 35t63 102q18 76 -18 104.5t-119 28.5h-227z" />
    <glyph glyph-name="macron" unicode="&#xaf;" horiz-adv-x="608" 
d="M182 1231l43 184h568l-43 -184h-568z" />
    <glyph glyph-name="degree" unicode="&#xb0;" horiz-adv-x="651" 
d="M420 936q-111 0 -172 79t-35 189q26 112 124 192.5t208 80.5q112 0 173.5 -80t35.5 -193q-26 -111 -124 -189.5t-210 -78.5zM449 1065q59 0 111.5 41t64.5 98q13 58 -19.5 101t-91.5 43q-57 0 -107.5 -42.5t-64.5 -101.5q-12 -57 19 -98t88 -41z" />
    <glyph glyph-name="plusminus" unicode="&#xb1;" horiz-adv-x="1110" 
d="M406 408l49 213h-332l49 210h332l53 228h240l-54 -228h334l-49 -210h-334l-49 -213h-239zM-20 0l49 209h905l-49 -209h-905z" />
    <glyph glyph-name="uni00B2" unicode="&#xb2;" horiz-adv-x="653" 
d="M133 750l273 258q-70 17 -105 76t-18 133q22 88 102 151.5t172 63.5t143 -63.5t29 -151.5q-15 -78 -82 -138l-213 -194h215l-31 -135h-485zM487 1137q34 0 63 23t36 57q8 32 -10 55.5t-52 23.5q-35 0 -62.5 -23t-35.5 -56q-8 -34 9 -57t52 -23z" />
    <glyph glyph-name="uni00B3" unicode="&#xb3;" horiz-adv-x="610" 
d="M352 733q-92 0 -143 63t-31 154h144q-8 -36 9 -59t52 -23q34 0 62.5 23t35.5 57q8 33 -10 56.5t-51 23.5h-55l147 229h-233l30 136h414l-178 -275q110 -39 80 -170q-20 -89 -100.5 -152t-172.5 -63z" />
    <glyph glyph-name="acute" unicode="&#xb4;" horiz-adv-x="538" 
d="M350 1200l346 350h273l-412 -350h-207z" />
    <glyph glyph-name="uni00B5" unicode="&#xb5;" horiz-adv-x="1386" 
d="M-102 -442l348 1501h221l-158 -684q-5 -19 -3.5 -42t5.5 -47t19.5 -46t37.5 -39.5t61.5 -28t90.5 -10.5q64 0 116.5 17t85 41t57 57t35.5 58.5t17 51.5l9 35l147 637h221l-147 -637q-23 -97 -20 -135q7 -98 134 -119q39 -6 87 -6l-45 -195q-55 0 -90.5 1.5t-86 9.5
t-84.5 23t-66 44.5t-50 71.5q-140 -150 -365 -150q-157 0 -246 64l-110 -473h-221z" />
    <glyph glyph-name="paragraph" unicode="&#xb6;" horiz-adv-x="1353" 
d="M432 0l127 551q-218 0 -314.5 109.5t-54.5 293.5q47 206 199 321.5t365 115.5h614l-321 -1391h-222l275 1182h-172l-275 -1182h-221z" />
    <glyph glyph-name="periodcentered" unicode="&#xb7;" horiz-adv-x="655" 
d="M332 545q-70 0 -106 46.5t-21 117.5q15 68 74 115.5t129 47.5q67 0 103 -47.5t21 -115.5q-15 -70 -73.5 -117t-126.5 -47z" />
    <glyph glyph-name="cedilla" unicode="&#xb8;" horiz-adv-x="288" 
d="M-225 -442l28 118q46 0 89 19t51 55q7 31 -17.5 50.5t-53.5 23.5l-28 4l72 143h145l-61 -114q5 -1 13.5 -3.5t29 -12t35 -23t23.5 -37.5t3 -53q-11 -47 -45.5 -81.5t-83 -53t-98.5 -27t-102 -8.5z" />
    <glyph glyph-name="uni00B9" unicode="&#xb9;" horiz-adv-x="616" 
d="M133 748l31 133h153l89 381h-154l29 131h317l-117 -512h135l-30 -133h-453z" />
    <glyph glyph-name="ordmasculine" unicode="&#xba;" horiz-adv-x="798" 
d="M399 508q-124 0 -210.5 84t-86.5 203q0 120 86.5 204t210.5 84q123 0 210 -84t87 -204q0 -119 -87 -203t-210 -84zM399 657q60 0 101 40.5t41 97.5q0 59 -41 100t-101 41q-61 0 -101 -41t-40 -100q0 -58 40 -98t101 -40z" />
    <glyph glyph-name="guillemotright" unicode="&#xbb;" horiz-adv-x="847" 
d="M-33 123l363 418l-174 397h241l174 -397l-362 -418h-242zM356 123l363 418l-174 397h241l175 -397l-363 -418h-242z" />
    <glyph glyph-name="onequarter" unicode="&#xbc;" horiz-adv-x="1304" 
d="M-20 -117l1273 1551h199l-1274 -1551h-198zM133 748l31 133h153l89 381h-154l29 131h317l-117 -512h135l-30 -133h-453zM887 0l51 223h-322l355 445h166l-240 -312h246l-82 -356h-174z" />
    <glyph glyph-name="onehalf" unicode="&#xbd;" horiz-adv-x="1402" 
d="M2 -117l1274 1551h199l-1274 -1551h-199zM133 748l31 133h153l89 381h-154l29 131h317l-117 -512h135l-30 -133h-453zM883 2l272 258q-70 17 -105 76t-18 133q22 88 102.5 151.5t172.5 63.5t143 -63.5t29 -151.5q-15 -77 -82 -137l-213 -195h215l-31 -135h-485zM1237 389
q34 0 62.5 23t35.5 57q8 33 -10 56.5t-51 23.5q-35 0 -62.5 -23.5t-35.5 -56.5q-8 -34 9 -57t52 -23z" />
    <glyph glyph-name="threequarters" unicode="&#xbe;" horiz-adv-x="1337" 
d="M12 -117l1274 1551h199l-1274 -1551h-199zM395 694q-123 0 -184.5 62t-38.5 162h174q-9 -40 13.5 -64.5t66.5 -24.5t77 24.5t42 64.5q14 66 -19 95.5t-125 16.5l162 223h-266l31 138h460l-194 -273q66 -16 105 -72t22 -128q-23 -100 -113 -162t-213 -62zM915 2l52 223
h-322l352 445h166l-237 -312h245l-81 -356h-175z" />
    <glyph glyph-name="questiondown" unicode="&#xbf;" horiz-adv-x="1083" 
d="M655 760q-67 0 -104.5 48t-22.5 116q17 70 76 116.5t127 46.5q71 0 106.5 -46.5t18.5 -116.5q-15 -68 -73 -116t-128 -48zM502 -358q-187 0 -290 128t-62 308q29 121 115.5 223t203.5 158l37 162h221l-74 -318q-96 0 -175 -65t-101 -160q-22 -94 28 -159.5t146 -65.5z
" />
    <glyph glyph-name="Agrave" unicode="&#xc0;" horiz-adv-x="1536" 
d="M1092 1532h-207l-170 350h272zM1073 1391l297 -1391h-260l-57 330h-656l-215 -330h-262l938 1391h215zM532 539h486l-109 569z" />
    <glyph glyph-name="Aacute" unicode="&#xc1;" horiz-adv-x="1536" 
d="M1430 1882l-330 -350h-207l264 350h273zM858 1391h215l297 -1391h-260l-57 330h-656l-215 -330h-262zM532 539h486l-109 569z" />
    <glyph glyph-name="Acircumflex" unicode="&#xc2;" horiz-adv-x="1536" 
d="M1030 1702l-164 -170h-207l295 350h232l135 -350h-207zM1073 1391l297 -1391h-260l-57 330h-656l-215 -330h-262l938 1391h215zM532 539h486l-109 569z" />
    <glyph glyph-name="Atilde" unicode="&#xc3;" horiz-adv-x="1536" 
d="M901 1632q-10 0 -18.5 -3t-15.5 -9.5t-12 -12t-11 -17t-9 -17t-8.5 -19.5t-7.5 -18l-155 61q38 97 99.5 158.5t139.5 61.5q70 0 137 -54h2l-2 -2h2q63 -55 97 -55q10 0 18.5 3t15.5 9.5t12 12t11 17t9 17t8.5 19.5t7.5 18l155 -61q-38 -97 -99.5 -158t-139.5 -61
q-72 0 -138 53h-2l2 2h-2q-63 55 -96 55zM858 1391h215l297 -1391h-260l-57 330h-656l-215 -330h-262zM532 539h486l-109 569z" />
    <glyph glyph-name="Adieresis" unicode="&#xc4;" horiz-adv-x="1536" 
d="M788 1556q-47 0 -74 33.5t-16 79.5q10 47 52.5 81t89.5 34q46 0 71 -34t15 -81q-11 -46 -51.5 -79.5t-86.5 -33.5zM1182 1556q-47 0 -74 33.5t-16 79.5q10 47 52 81t89 34q46 0 71 -34t15 -81q-11 -46 -51 -79.5t-86 -33.5zM1073 1391l297 -1391h-260l-57 330h-656
l-215 -330h-262l938 1391h215zM532 539h486l-109 569z" />
    <glyph glyph-name="Aring" unicode="&#xc5;" horiz-adv-x="1536" 
d="M985 1522q-89 0 -134.5 60.5t-25.5 148.5q20 90 94.5 151.5t163.5 61.5q88 0 135 -62t27 -151q-20 -87 -96 -148t-164 -61zM973 1731q-6 -26 7.5 -44t39.5 -18t49 18t29 44q6 28 -8.5 46.5t-40.5 18.5t-48 -18.5t-28 -46.5zM1073 1391l297 -1391h-260l-57 330h-656
l-215 -330h-262l938 1391h215zM532 539h486l-109 569z" />
    <glyph glyph-name="AE" unicode="&#xc6;" horiz-adv-x="2136" 
d="M2173 1182h-795l-78 -336h633l-49 -209h-631l-98 -428h805l-49 -209h-1028l75 330h-495l-307 -330h-279l1303 1391h1040zM659 539h349l114 495z" />
    <glyph glyph-name="Ccedilla" unicode="&#xc7;" horiz-adv-x="1441" 
d="M1067 1423q269 0 422 -123l-55 -235q-2 7 -21.5 23t-58 38t-86 41.5t-114.5 33t-136 13.5q-247 0 -425 -146.5t-231 -371.5q-34 -147 2 -263.5t143.5 -184.5t272.5 -68q140 0 280.5 40.5t244.5 113.5l-56 -240q-3 -1 -26.5 -13.5t-46 -23t-64.5 -25.5t-84.5 -26.5
t-103.5 -21.5t-125 -13l-56 -104q5 -1 13.5 -3.5t29.5 -12t35.5 -23t23.5 -37.5t3 -53q-11 -47 -45.5 -81.5t-83.5 -53t-99 -27t-102 -8.5l29 119q46 0 88.5 18.5t50.5 54.5q7 31 -17.5 50.5t-52.5 23.5l-28 4l67 133q-201 15 -337 117t-184.5 261.5t-2.5 346.5
q32 148 119 282t209.5 233t281.5 156.5t326 55.5z" />
    <glyph glyph-name="Egrave" unicode="&#xc8;" horiz-adv-x="1314" 
d="M989 1532h-207l-170 350h273zM1352 1182h-795l-78 -336h633l-49 -209h-631l-98 -428h805l-49 -209h-1029l322 1391h1016z" />
    <glyph glyph-name="Eacute" unicode="&#xc9;" horiz-adv-x="1314" 
d="M1327 1882l-330 -350h-206l264 350h272zM1352 1182h-795l-78 -336h633l-49 -209h-631l-98 -428h805l-49 -209h-1029l322 1391h1016z" />
    <glyph glyph-name="Ecircumflex" unicode="&#xca;" horiz-adv-x="1314" 
d="M928 1702l-164 -170h-207l295 350h231l136 -350h-207zM1352 1182h-795l-78 -336h633l-49 -209h-631l-98 -428h805l-49 -209h-1029l322 1391h1016z" />
    <glyph glyph-name="Edieresis" unicode="&#xcb;" horiz-adv-x="1314" 
d="M686 1556q-47 0 -74 33.5t-16 79.5q10 47 52 81t89 34q46 0 71 -34t15 -81q-11 -46 -51 -79.5t-86 -33.5zM1079 1556q-47 0 -74 33.5t-16 79.5q10 47 52 81t89 34q46 0 71.5 -34t15.5 -81q-11 -46 -51.5 -79.5t-86.5 -33.5zM1352 1182h-795l-78 -336h633l-49 -209h-631
l-98 -428h805l-49 -209h-1029l322 1391h1016z" />
    <glyph glyph-name="Igrave" unicode="&#xcc;" horiz-adv-x="591" 
d="M422 1532l-170 350h272l105 -350h-207zM61 0l322 1391h223l-321 -1391h-224z" />
    <glyph glyph-name="Iacute" unicode="&#xcd;" horiz-adv-x="591" 
d="M430 1532l264 350h273l-330 -350h-207zM61 0l322 1391h223l-321 -1391h-224z" />
    <glyph glyph-name="Icircumflex" unicode="&#xce;" horiz-adv-x="591" 
d="M197 1532l295 350h231l135 -350h-207l-84 170l-164 -170h-206zM61 0l322 1391h223l-321 -1391h-224z" />
    <glyph glyph-name="Idieresis" unicode="&#xcf;" horiz-adv-x="591" 
d="M326 1556q-47 0 -74 33.5t-16 79.5q10 47 52 81t89 34q46 0 71 -34t15 -81q-11 -46 -51 -79.5t-86 -33.5zM719 1556q-47 0 -74 33.5t-16 79.5q10 47 52 81t89 34q46 0 71 -34t15 -81q-11 -46 -51 -79.5t-86 -33.5zM61 0l322 1391h223l-321 -1391h-224z" />
    <glyph glyph-name="Eth" unicode="&#xd0;" horiz-adv-x="1617" 
d="M948 1391q234 0 386 -89.5t204.5 -245.5t5.5 -360q-47 -201 -175.5 -358.5t-322 -247.5t-419.5 -90h-504l141 608h-264l43 185h262l139 598h504zM1313 696q54 230 -54.5 358t-375.5 128h-265l-90 -389h226l-43 -185h-224l-92 -397h264q249 0 419.5 120.5t234.5 364.5z
" />
    <glyph glyph-name="Ntilde" unicode="&#xd1;" horiz-adv-x="1579" 
d="M932 1632q-10 0 -18.5 -3t-15.5 -9.5t-12 -12t-11 -17t-9 -17t-8.5 -19.5t-7.5 -18l-156 61q38 97 100 158.5t140 61.5q70 0 137 -54h2l-2 -2h2q63 -55 96 -55q10 0 18.5 3t15.5 9.5t12 12t11 17t9 17t8.5 19.5t7.5 18l156 -61q-38 -97 -99.5 -158t-140.5 -61
q-71 0 -137 53h-2l2 2h-2q-63 55 -96 55zM1372 1391h221l-321 -1391h-248l-496 1061l-245 -1061h-222l322 1391h256l491 -1043z" />
    <glyph glyph-name="Ograve" unicode="&#xd2;" horiz-adv-x="1644" 
d="M948 1532l-170 350h273l104 -350h-207zM692 -31q-105 -1 -196.5 24.5t-160 73t-120.5 114.5t-77 148.5t-29 174.5t22 192q32 147 117.5 281.5t204 233.5t269.5 156.5t306 55.5q104 1 195.5 -24.5t160.5 -73t121 -114.5t77.5 -148.5t30 -174.5t-21.5 -192
q-32 -147 -118 -281.5t-205 -233.5t-270 -156.5t-306 -55.5zM741 180q226 0 396.5 146t222.5 370q34 146 0.5 263t-132.5 186t-249 69q-223 0 -395 -147.5t-224 -370.5q-34 -146 0 -263t133.5 -185t247.5 -68z" />
    <glyph glyph-name="Oacute" unicode="&#xd3;" horiz-adv-x="1644" 
d="M956 1532l265 350h272l-330 -350h-207zM692 -31q-105 -1 -196.5 24.5t-160 73t-120.5 114.5t-77 148.5t-29 174.5t22 192q32 147 117.5 281.5t204 233.5t269.5 156.5t306 55.5q104 1 195.5 -24.5t160.5 -73t121 -114.5t77.5 -148.5t30 -174.5t-21.5 -192
q-32 -147 -118 -281.5t-205 -233.5t-270 -156.5t-306 -55.5zM741 180q226 0 396.5 146t222.5 370q34 146 0.5 263t-132.5 186t-249 69q-223 0 -395 -147.5t-224 -370.5q-34 -146 0 -263t133.5 -185t247.5 -68z" />
    <glyph glyph-name="Ocircumflex" unicode="&#xd4;" horiz-adv-x="1644" 
d="M723 1532l295 350h231l135 -350h-206l-84 170l-164 -170h-207zM692 -31q-105 -1 -196.5 24.5t-160 73t-120.5 114.5t-77 148.5t-29 174.5t22 192q32 147 117.5 281.5t204 233.5t269.5 156.5t306 55.5q104 1 195.5 -24.5t160.5 -73t121 -114.5t77.5 -148.5t30 -174.5
t-21.5 -192q-32 -147 -118 -281.5t-205 -233.5t-270 -156.5t-306 -55.5zM741 180q226 0 396.5 146t222.5 370q34 146 0.5 263t-132.5 186t-249 69q-223 0 -395 -147.5t-224 -370.5q-34 -146 0 -263t133.5 -185t247.5 -68z" />
    <glyph glyph-name="Otilde" unicode="&#xd5;" horiz-adv-x="1644" 
d="M1200 1522q-71 0 -137 53h-2l2 2h-2q-63 55 -96 55q-10 0 -18.5 -3t-15.5 -9.5t-12 -12t-11 -17t-9 -17t-8.5 -19.5t-7.5 -18l-156 61q38 97 100 158.5t140 61.5q70 0 137 -54h2l-2 -2h2q63 -55 96 -55q10 0 18.5 3t15.5 9.5t12 12t11 17t9 17t8.5 19.5t7.5 18l156 -61
q-38 -97 -99.5 -158t-140.5 -61zM692 -31q-105 -1 -196.5 24.5t-160 73t-120.5 114.5t-77 148.5t-29 174.5t22 192q32 147 117.5 281.5t204 233.5t269.5 156.5t306 55.5q104 1 195.5 -24.5t160.5 -73t121 -114.5t77.5 -148.5t30 -174.5t-21.5 -192q-32 -147 -118 -281.5
t-205 -233.5t-270 -156.5t-306 -55.5zM741 180q226 0 396.5 146t222.5 370q34 146 0.5 263t-132.5 186t-249 69q-223 0 -395 -147.5t-224 -370.5q-34 -146 0 -263t133.5 -185t247.5 -68z" />
    <glyph glyph-name="Odieresis" unicode="&#xd6;" horiz-adv-x="1644" 
d="M852 1556q-47 0 -74 33.5t-16 79.5q10 47 52 81t89 34q46 0 71 -34t15 -81q-11 -46 -51 -79.5t-86 -33.5zM1245 1556q-47 0 -74 33.5t-16 79.5q10 47 52 81t89 34q46 0 71 -34t15 -81q-11 -46 -51 -79.5t-86 -33.5zM692 -31q-105 -1 -196.5 24.5t-160 73t-120.5 114.5
t-77 148.5t-29 174.5t22 192q32 147 117.5 281.5t204 233.5t269.5 156.5t306 55.5q104 1 195.5 -24.5t160.5 -73t121 -114.5t77.5 -148.5t30 -174.5t-21.5 -192q-32 -147 -118 -281.5t-205 -233.5t-270 -156.5t-306 -55.5zM741 180q226 0 396.5 146t222.5 370
q34 146 0.5 263t-132.5 186t-249 69q-223 0 -395 -147.5t-224 -370.5q-34 -146 0 -263t133.5 -185t247.5 -68z" />
    <glyph glyph-name="multiply" unicode="&#xd7;" horiz-adv-x="1386" 
d="M324 227l-115 150l383 311l-240 311l185 150l239 -311l383 311l115 -150l-383 -311l239 -311l-184 -150l-239 312z" />
    <glyph glyph-name="Oslash" unicode="&#xd8;" horiz-adv-x="1644" 
d="M1774 1276l-211 -162q86 -187 28 -418q-32 -147 -118 -281.5t-205 -233.5t-270 -156.5t-306 -55.5q-264 -3 -424 154l-194 -150l-123 160l203 156q-78 185 -23 407q32 147 117.5 281.5t204 233.5t269.5 156.5t306 55.5q254 3 418 -145l205 158zM360 696q-30 -137 -2 -252
l891 684q-103 86 -270 86q-223 0 -395 -147.5t-224 -370.5zM1360 696q35 146 0 262l-897 -686q106 -92 278 -92q226 0 396.5 146t222.5 370z" />
    <glyph glyph-name="Ugrave" unicode="&#xd9;" horiz-adv-x="1445" 
d="M848 1532l-170 350h272l105 -350h-207zM594 -31q-127 0 -221 32t-157 100t-78.5 174t16.5 255l198 861h223l-196 -856q-19 -93 -9 -159.5t49 -109t95.5 -62.5t128.5 -20q172 0 279 84.5t149 266.5l197 856h223l-199 -861q-34 -145 -101 -254.5t-159.5 -175.5
t-201.5 -98.5t-236 -32.5z" />
    <glyph glyph-name="Uacute" unicode="&#xda;" horiz-adv-x="1445" 
d="M856 1532l264 350h273l-330 -350h-207zM594 -31q-127 0 -221 32t-157 100t-78.5 174t16.5 255l198 861h223l-196 -856q-19 -93 -9 -159.5t49 -109t95.5 -62.5t128.5 -20q172 0 279 84.5t149 266.5l197 856h223l-199 -861q-34 -145 -101 -254.5t-159.5 -175.5
t-201.5 -98.5t-236 -32.5z" />
    <glyph glyph-name="Ucircumflex" unicode="&#xdb;" horiz-adv-x="1445" 
d="M623 1532l295 350h231l135 -350h-207l-84 170l-164 -170h-206zM594 -31q-127 0 -221 32t-157 100t-78.5 174t16.5 255l198 861h223l-196 -856q-19 -93 -9 -159.5t49 -109t95.5 -62.5t128.5 -20q172 0 279 84.5t149 266.5l197 856h223l-199 -861q-34 -145 -101 -254.5
t-159.5 -175.5t-201.5 -98.5t-236 -32.5z" />
    <glyph glyph-name="Udieresis" unicode="&#xdc;" horiz-adv-x="1445" 
d="M752 1556q-47 0 -74 33.5t-16 79.5q10 47 52 81t89 34q46 0 71 -34t15 -81q-11 -46 -51 -79.5t-86 -33.5zM1145 1556q-47 0 -74 33.5t-16 79.5q10 47 52 81t89 34q46 0 71 -34t15 -81q-11 -46 -51 -79.5t-86 -33.5zM594 -31q-127 0 -221 32t-157 100t-78.5 174t16.5 255
l198 861h223l-196 -856q-19 -93 -9 -159.5t49 -109t95.5 -62.5t128.5 -20q172 0 279 84.5t149 266.5l197 856h223l-199 -861q-34 -145 -101 -254.5t-159.5 -175.5t-201.5 -98.5t-236 -32.5z" />
    <glyph glyph-name="Yacute" unicode="&#xdd;" horiz-adv-x="1384" 
d="M1362 1882l-330 -350h-207l265 350h272zM1255 1391h287l-721 -795l-139 -596h-225l139 596l-356 795h252l249 -576z" />
    <glyph glyph-name="Thorn" unicode="&#xde;" horiz-adv-x="1429" 
d="M952 1206q252 0 362 -135t54 -373q-54 -232 -233 -370t-422 -138h-383l-45 -190h-224l322 1391h223l-43 -185h389zM1139 694q67 303 -250 303h-373l-139 -602h373q318 0 389 299z" />
    <glyph glyph-name="germandbls" unicode="&#xdf;" horiz-adv-x="1243" 
d="M559 -27q-39 0 -86 7l45 192q50 -8 86 -8q42 0 84 10.5t86.5 33.5t78.5 68t48 107q19 79 -12.5 139.5t-91.5 89.5t-135 29h-35l43 186q46 0 92 11.5t91.5 36.5t79.5 71t48 107q23 99 -21.5 147.5t-146.5 48.5q-99 0 -188.5 -75t-120.5 -207l-223 -967h-220l152 649h-164
l39 176h164l29 121q52 220 205.5 352t367.5 132q205 0 291 -97t45 -278q-26 -116 -111 -196.5t-200 -102.5q151 -26 216.5 -127.5t32.5 -239.5q-31 -132 -117.5 -227.5t-203 -142t-248.5 -46.5z" />
    <glyph glyph-name="agrave" unicode="&#xe0;" horiz-adv-x="1376" 
d="M725 1198l-170 350h272l105 -350h-207zM506 -31q-159 0 -269 75t-150.5 203t-4.5 281q36 154 135 282t244 204t303 76q110 0 195.5 -37.5t130.5 -96.5l24 103h221l-250 -1059h-221l29 109q-171 -140 -387 -140zM567 166q153 0 275.5 98t161.5 266q39 167 -39 265t-230 98
q-148 0 -272 -105.5t-160 -257.5t40 -258t224 -106z" />
    <glyph glyph-name="aacute" unicode="&#xe1;" horiz-adv-x="1376" 
d="M733 1198l264 350h273l-330 -350h-207zM506 -31q-159 0 -269 75t-150.5 203t-4.5 281q36 154 135 282t244 204t303 76q110 0 195.5 -37.5t130.5 -96.5l24 103h221l-250 -1059h-221l29 109q-171 -140 -387 -140zM567 166q153 0 275.5 98t161.5 266q39 167 -39 265t-230 98
q-148 0 -272 -105.5t-160 -257.5t40 -258t224 -106z" />
    <glyph glyph-name="acircumflex" unicode="&#xe2;" horiz-adv-x="1376" 
d="M500 1198l295 350h231l135 -350h-207l-84 170l-163 -170h-207zM506 -31q-159 0 -269 75t-150.5 203t-4.5 281q36 154 135 282t244 204t303 76q110 0 195.5 -37.5t130.5 -96.5l24 103h221l-250 -1059h-221l29 109q-171 -140 -387 -140zM567 166q153 0 275.5 98t161.5 266
q39 167 -39 265t-230 98q-148 0 -272 -105.5t-160 -257.5t40 -258t224 -106z" />
    <glyph glyph-name="atilde" unicode="&#xe3;" horiz-adv-x="1376" 
d="M977 1188q-71 0 -137 53h-2l2 2h-2q-63 55 -97 55q-10 0 -18.5 -3t-15.5 -9.5t-12 -12t-11 -17t-9 -17t-8.5 -19.5t-7.5 -18l-155 62q38 97 99.5 158t139.5 61q72 0 138 -53h2l-2 -3h2q63 -55 96 -55q10 0 18.5 3t15.5 9.5t12 12t11 17t9 17t8.5 19.5t7.5 18l156 -61
q-38 -97 -99.5 -158t-140.5 -61zM506 -31q-159 0 -269 75t-150.5 203t-4.5 281q36 154 135 282t244 204t303 76q110 0 195.5 -37.5t130.5 -96.5l24 103h221l-250 -1059h-221l29 109q-171 -140 -387 -140zM567 166q153 0 275.5 98t161.5 266q39 167 -39 265t-230 98
q-148 0 -272 -105.5t-160 -257.5t40 -258t224 -106z" />
    <glyph glyph-name="adieresis" unicode="&#xe4;" horiz-adv-x="1376" 
d="M629 1223q-47 0 -73.5 33t-16.5 79q10 47 52 81t89 34q46 0 71 -34t15 -81q-11 -46 -51 -79t-86 -33zM1022 1223q-47 0 -73.5 33t-16.5 79q10 47 52 81t89 34q46 0 71 -34t15 -81q-11 -46 -51 -79t-86 -33zM506 -31q-159 0 -269 75t-150.5 203t-4.5 281q36 154 135 282
t244 204t303 76q110 0 195.5 -37.5t130.5 -96.5l24 103h221l-250 -1059h-221l29 109q-171 -140 -387 -140zM567 166q153 0 275.5 98t161.5 266q39 167 -39 265t-230 98q-148 0 -272 -105.5t-160 -257.5t40 -258t224 -106z" />
    <glyph glyph-name="aring" unicode="&#xe5;" horiz-adv-x="1376" 
d="M825 1188q-89 0 -134 60.5t-25 148.5q20 90 94.5 151.5t163.5 61.5q88 0 134.5 -62t26.5 -151q-20 -87 -96 -148t-164 -61zM860 1335q26 0 49 18t29 44q6 28 -8.5 46.5t-40.5 18.5t-48 -18.5t-28 -46.5q-6 -26 7.5 -44t39.5 -18zM506 -31q-159 0 -269 75t-150.5 203
t-4.5 281q36 154 135 282t244 204t303 76q110 0 195.5 -37.5t130.5 -96.5l24 103h221l-250 -1059h-221l29 109q-171 -140 -387 -140zM567 166q153 0 275.5 98t161.5 266q39 167 -39 265t-230 98q-148 0 -272 -105.5t-160 -257.5t40 -258t224 -106z" />
    <glyph glyph-name="ae" unicode="&#xe6;" horiz-adv-x="1992" 
d="M1554 1090q90 0 162 -28.5t117.5 -77.5t73.5 -114t29.5 -138.5t-13.5 -151.5l-25 -103h-835l-10 -49q5 -117 80 -189.5t227 -72.5q42 0 83.5 4t77 10t69.5 14.5t61.5 17.5t52 18t42.5 17.5t31 14.5t20 10l7 4l-45 -198q-6 -4 -17 -11.5t-51.5 -26.5t-88 -33t-126 -26
t-165.5 -12q-152 0 -258 54t-162 151q-88 -103 -218 -154t-282 -51q-192 0 -292.5 99t-63.5 258q38 161 184 260.5t338 99.5q195 0 317 -70l7 27q29 129 -40 190.5t-214 61.5q-179 0 -359 -78l47 203q157 72 381 72q310 0 394 -179q99 84 218.5 130.5t245.5 46.5zM1718 649
q5 21 2.5 48t-7 56t-21.5 57t-41.5 50t-67.5 35.5t-98 13.5q-66 0 -125 -19.5t-100 -48t-74.5 -65.5t-52 -68t-29.5 -59h614zM807 326q21 90 -47 135t-205 45q-118 0 -202.5 -47.5t-104.5 -132.5q-20 -88 48 -132t177 -44q145 0 230 47t104 129z" />
    <glyph glyph-name="ccedilla" unicode="&#xe7;" horiz-adv-x="1132" 
d="M791 1090q105 0 201 -32t149 -95l-54 -228q-4 7 -11 17.5t-36 38t-64.5 48.5t-97.5 38.5t-133 17.5q-155 0 -283.5 -106.5t-164.5 -258.5q-38 -165 43.5 -265.5t257.5 -100.5q69 0 136.5 11.5t113.5 27.5t82 32t54 27l17 12l-47 -204q-125 -83 -331 -99l-58 -104
q5 -1 13.5 -3.5t29.5 -12t35.5 -23t23.5 -37.5t3 -53q-11 -47 -45.5 -81.5t-83.5 -53t-99 -27t-102 -8.5l29 119q46 0 88.5 18.5t50.5 54.5q7 31 -17.5 50.5t-52.5 23.5l-28 4l67 135q-245 23 -346.5 177.5t-48.5 379.5q36 154 137.5 281.5t252.5 203t319 75.5z" />
    <glyph glyph-name="egrave" unicode="&#xe8;" horiz-adv-x="1220" 
d="M700 1198l-170 350h273l104 -350h-207zM539 -31q-91 0 -168 20.5t-132 57.5t-95 88.5t-57.5 113.5t-20.5 133.5t16 147.5q56 239 255.5 399.5t444.5 160.5q90 0 162 -28.5t117.5 -77.5t73.5 -114t29.5 -138.5t-13.5 -151.5l-25 -103h-845q-5 -64 9.5 -118t49 -98.5
t98 -69.5t150.5 -25q42 0 83.5 4t77 10t69.5 14.5t61.5 17.5t52 18t42.5 17.5t31 14.5t20 10l7 4l-45 -198q-6 -4 -17 -11.5t-51.5 -26.5t-88 -33t-126 -26t-165.5 -12zM332 649h614q5 21 2.5 48t-7 56t-21.5 57t-41.5 50t-67.5 35.5t-98 13.5q-66 0 -125 -19.5t-100 -48
t-74.5 -65.5t-52 -68t-29.5 -59z" />
    <glyph glyph-name="eacute" unicode="&#xe9;" horiz-adv-x="1220" 
d="M709 1198l264 350h272l-330 -350h-206zM539 -31q-91 0 -168 20.5t-132 57.5t-95 88.5t-57.5 113.5t-20.5 133.5t16 147.5q56 239 255.5 399.5t444.5 160.5q90 0 162 -28.5t117.5 -77.5t73.5 -114t29.5 -138.5t-13.5 -151.5l-25 -103h-845q-5 -64 9.5 -118t49 -98.5
t98 -69.5t150.5 -25q42 0 83.5 4t77 10t69.5 14.5t61.5 17.5t52 18t42.5 17.5t31 14.5t20 10l7 4l-45 -198q-6 -4 -17 -11.5t-51.5 -26.5t-88 -33t-126 -26t-165.5 -12zM332 649h614q5 21 2.5 48t-7 56t-21.5 57t-41.5 50t-67.5 35.5t-98 13.5q-66 0 -125 -19.5t-100 -48
t-74.5 -65.5t-52 -68t-29.5 -59z" />
    <glyph glyph-name="ecircumflex" unicode="&#xea;" horiz-adv-x="1220" 
d="M475 1198l295 350h231l136 -350h-207l-84 170l-164 -170h-207zM539 -31q-91 0 -168 20.5t-132 57.5t-95 88.5t-57.5 113.5t-20.5 133.5t16 147.5q56 239 255.5 399.5t444.5 160.5q90 0 162 -28.5t117.5 -77.5t73.5 -114t29.5 -138.5t-13.5 -151.5l-25 -103h-845
q-5 -64 9.5 -118t49 -98.5t98 -69.5t150.5 -25q42 0 83.5 4t77 10t69.5 14.5t61.5 17.5t52 18t42.5 17.5t31 14.5t20 10l7 4l-45 -198q-6 -4 -17 -11.5t-51.5 -26.5t-88 -33t-126 -26t-165.5 -12zM332 649h614q5 21 2.5 48t-7 56t-21.5 57t-41.5 50t-67.5 35.5t-98 13.5
q-66 0 -125 -19.5t-100 -48t-74.5 -65.5t-52 -68t-29.5 -59z" />
    <glyph glyph-name="edieresis" unicode="&#xeb;" horiz-adv-x="1220" 
d="M604 1223q-47 0 -73.5 33t-16.5 79q10 47 52 81t89 34q46 0 71 -34t15 -81q-11 -46 -51 -79t-86 -33zM997 1223q-47 0 -73.5 33t-16.5 79q10 47 52.5 81t89.5 34q46 0 71 -34t15 -81q-10 -46 -51 -79t-87 -33zM539 -31q-91 0 -168 20.5t-132 57.5t-95 88.5t-57.5 113.5
t-20.5 133.5t16 147.5q56 239 255.5 399.5t444.5 160.5q90 0 162 -28.5t117.5 -77.5t73.5 -114t29.5 -138.5t-13.5 -151.5l-25 -103h-845q-5 -64 9.5 -118t49 -98.5t98 -69.5t150.5 -25q42 0 83.5 4t77 10t69.5 14.5t61.5 17.5t52 18t42.5 17.5t31 14.5t20 10l7 4l-45 -198
q-6 -4 -17 -11.5t-51.5 -26.5t-88 -33t-126 -26t-165.5 -12zM332 649h614q5 21 2.5 48t-7 56t-21.5 57t-41.5 50t-67.5 35.5t-98 13.5q-66 0 -125 -19.5t-100 -48t-74.5 -65.5t-52 -68t-29.5 -59z" />
    <glyph glyph-name="igrave" unicode="&#xec;" horiz-adv-x="561" 
d="M336 1198l-170 350h272l105 -350h-207zM53 0l246 1059h221l-246 -1059h-221z" />
    <glyph glyph-name="iacute" unicode="&#xed;" horiz-adv-x="561" 
d="M344 1198l264 350h273l-330 -350h-207zM53 0l246 1059h221l-246 -1059h-221z" />
    <glyph glyph-name="icircumflex" unicode="&#xee;" horiz-adv-x="561" 
d="M111 1198l295 350h231l135 -350h-207l-84 170l-164 -170h-206zM53 0l246 1059h221l-246 -1059h-221z" />
    <glyph glyph-name="idieresis" unicode="&#xef;" horiz-adv-x="561" 
d="M240 1223q-47 0 -73.5 33t-16.5 79q10 47 52 81t89 34q46 0 71 -34t15 -81q-11 -46 -51 -79t-86 -33zM633 1223q-47 0 -73.5 33t-16.5 79q10 47 52 81t89 34q46 0 71 -34t15 -81q-11 -46 -51 -79t-86 -33zM53 0l246 1059h221l-246 -1059h-221z" />
    <glyph glyph-name="eth" unicode="&#xf0;" horiz-adv-x="1206" 
d="M475 -31q-235 0 -349 130.5t-65 344.5q51 215 219 346.5t392 131.5q113 0 195 -47t118 -119q-9 236 -149 338l-78 -115l-148 80l70 102q-119 31 -320 31l43 192q237 0 392 -55l65 96l146 -82l-60 -86q301 -204 184 -698q-44 -192 -143.5 -327t-230 -199t-281.5 -64z
M520 166q133 0 236.5 85t130.5 200q28 122 -41 198t-219 76q-126 0 -219.5 -75.5t-122.5 -198.5q-29 -128 35.5 -206.5t199.5 -78.5z" />
    <glyph glyph-name="ntilde" unicode="&#xf1;" horiz-adv-x="1296" 
d="M778 1298q-10 0 -18.5 -3t-15.5 -9.5t-12 -12t-11 -17t-9 -17t-8.5 -19.5t-7.5 -18l-155 62q38 97 99.5 158t139.5 61q72 0 138 -53h2l-2 -3h2q63 -55 96 -55q10 0 18.5 3t15.5 9.5t12 12t11 17t9 17t8.5 19.5t7.5 18l155 -61q-38 -97 -99.5 -158t-139.5 -61
q-71 0 -137 53h-3l3 2h-3q-63 55 -96 55zM856 1092q187 0 281 -115.5t45 -325.5l-152 -651h-221l145 629q29 126 -18.5 196t-157.5 70q-79 0 -152.5 -32.5t-131.5 -101.5t-80 -165l57 252l-197 -848h-221l246 1059h221l-31 -131q6 9 17.5 22.5t44 40t71.5 47.5t101.5 37.5
t132.5 16.5z" />
    <glyph glyph-name="ograve" unicode="&#xf2;" horiz-adv-x="1323" 
d="M709 1198l-170 350h272l104 -350h-206zM532 -31q-158 0 -274.5 75t-163.5 203.5t-12 280.5t142 281.5t258 205t309 75.5t274.5 -75.5t163.5 -205t12 -281.5t-142 -280.5t-258 -203.5t-309 -75zM578 168q155 0 284.5 104.5t165.5 255.5q35 152 -46 257.5t-237 105.5
t-285 -105.5t-165 -257.5q-35 -150 46 -255t237 -105z" />
    <glyph glyph-name="oacute" unicode="&#xf3;" horiz-adv-x="1323" 
d="M717 1198l264 350h272l-329 -350h-207zM532 -31q-158 0 -274.5 75t-163.5 203.5t-12 280.5t142 281.5t258 205t309 75.5t274.5 -75.5t163.5 -205t12 -281.5t-142 -280.5t-258 -203.5t-309 -75zM578 168q155 0 284.5 104.5t165.5 255.5q35 152 -46 257.5t-237 105.5
t-285 -105.5t-165 -257.5q-35 -150 46 -255t237 -105z" />
    <glyph glyph-name="ocircumflex" unicode="&#xf4;" horiz-adv-x="1323" 
d="M483 1198l295 350h232l135 -350h-207l-84 170l-164 -170h-207zM532 -31q-158 0 -274.5 75t-163.5 203.5t-12 280.5t142 281.5t258 205t309 75.5t274.5 -75.5t163.5 -205t12 -281.5t-142 -280.5t-258 -203.5t-309 -75zM578 168q155 0 284.5 104.5t165.5 255.5
q35 152 -46 257.5t-237 105.5t-285 -105.5t-165 -257.5q-35 -150 46 -255t237 -105z" />
    <glyph glyph-name="otilde" unicode="&#xf5;" horiz-adv-x="1323" 
d="M961 1188q-72 0 -138 53h-2l2 2h-2q-63 55 -96 55q-10 0 -18.5 -3t-15.5 -9.5t-12 -12t-11 -17t-9 -17t-8.5 -19.5t-7.5 -18l-156 62q38 97 99.5 158t140.5 61q71 0 137 -53h2l-2 -3h2q63 -55 97 -55q11 0 21 5t16.5 10t14 18t10.5 19t10 23t9 21l156 -61
q-38 -97 -99.5 -158t-139.5 -61zM532 -31q-158 0 -274.5 75t-163.5 203.5t-12 280.5t142 281.5t258 205t309 75.5t274.5 -75.5t163.5 -205t12 -281.5t-142 -280.5t-258 -203.5t-309 -75zM578 168q155 0 284.5 104.5t165.5 255.5q35 152 -46 257.5t-237 105.5t-285 -105.5
t-165 -257.5q-35 -150 46 -255t237 -105z" />
    <glyph glyph-name="odieresis" unicode="&#xf6;" horiz-adv-x="1323" 
d="M612 1223q-47 0 -73.5 33t-16.5 79q10 47 52.5 81t89.5 34q46 0 71 -34t15 -81q-10 -46 -51 -79t-87 -33zM1006 1223q-47 0 -74 33t-17 79q10 47 52.5 81t89.5 34q46 0 71 -34t15 -81q-11 -46 -51 -79t-86 -33zM532 -31q-158 0 -274.5 75t-163.5 203.5t-12 280.5
t142 281.5t258 205t309 75.5t274.5 -75.5t163.5 -205t12 -281.5t-142 -280.5t-258 -203.5t-309 -75zM578 168q155 0 284.5 104.5t165.5 255.5q35 152 -46 257.5t-237 105.5t-285 -105.5t-165 -257.5q-35 -150 46 -255t237 -105z" />
    <glyph glyph-name="divide" unicode="&#xf7;" horiz-adv-x="1198" 
d="M647 735q-71 0 -106.5 47t-18.5 117q15 68 73 116t128 48q67 0 104.5 -48t22.5 -116q-17 -70 -76 -117t-127 -47zM121 422l47 209h907l-47 -209h-907zM475 -14q-70 0 -106 46.5t-21 117.5q15 68 74 115.5t129 47.5q67 0 103.5 -47.5t21.5 -115.5q-15 -70 -74 -117
t-127 -47z" />
    <glyph glyph-name="oslash" unicode="&#xf8;" horiz-adv-x="1323" 
d="M1333 930l-116 -92q64 -138 24 -310q-35 -152 -142 -280.5t-258 -203.5t-309 -75q-177 0 -301 94l-118 -94l-123 160l116 92q-64 137 -24 307q35 152 142 281.5t258 205t309 75.5q172 0 301 -95l118 95zM295 528q-19 -79 0 -159l612 481q-68 41 -162 41
q-156 0 -285 -105.5t-165 -257.5zM1028 528q20 81 0 162l-612 -481q68 -41 162 -41q155 0 284.5 104.5t165.5 255.5z" />
    <glyph glyph-name="ugrave" unicode="&#xf9;" horiz-adv-x="1249" 
d="M672 1198l-170 350h272l105 -350h-207zM496 -33q-29 0 -51.5 1t-61 5.5t-67.5 12.5t-65 24.5t-61 39.5t-47.5 58.5t-32 79.5t-8 105.5t18.5 134.5l145 631h221l-147 -637q-1 -5 -3 -14.5t-4 -36.5t0.5 -51.5t14.5 -54.5t34 -51.5t62.5 -36.5t96.5 -15q76 0 137 27
t93.5 65t54 76t28.5 65l6 27l148 637h221l-146 -631q-21 -93 -59 -167.5t-79 -121.5t-95.5 -81.5t-98.5 -51.5t-99.5 -26.5t-86 -11t-69.5 -1.5z" />
    <glyph glyph-name="uacute" unicode="&#xfa;" horiz-adv-x="1249" 
d="M680 1198l264 350h273l-330 -350h-207zM496 -33q-29 0 -51.5 1t-61 5.5t-67.5 12.5t-65 24.5t-61 39.5t-47.5 58.5t-32 79.5t-8 105.5t18.5 134.5l145 631h221l-147 -637q-1 -5 -3 -14.5t-4 -36.5t0.5 -51.5t14.5 -54.5t34 -51.5t62.5 -36.5t96.5 -15q76 0 137 27
t93.5 65t54 76t28.5 65l6 27l148 637h221l-146 -631q-21 -93 -59 -167.5t-79 -121.5t-95.5 -81.5t-98.5 -51.5t-99.5 -26.5t-86 -11t-69.5 -1.5z" />
    <glyph glyph-name="ucircumflex" unicode="&#xfb;" horiz-adv-x="1249" 
d="M446 1198l295 350h232l135 -350h-207l-84 170l-164 -170h-207zM496 -33q-29 0 -51.5 1t-61 5.5t-67.5 12.5t-65 24.5t-61 39.5t-47.5 58.5t-32 79.5t-8 105.5t18.5 134.5l145 631h221l-147 -637q-1 -5 -3 -14.5t-4 -36.5t0.5 -51.5t14.5 -54.5t34 -51.5t62.5 -36.5
t96.5 -15q76 0 137 27t93.5 65t54 76t28.5 65l6 27l148 637h221l-146 -631q-21 -93 -59 -167.5t-79 -121.5t-95.5 -81.5t-98.5 -51.5t-99.5 -26.5t-86 -11t-69.5 -1.5z" />
    <glyph glyph-name="udieresis" unicode="&#xfc;" horiz-adv-x="1249" 
d="M575 1223q-47 0 -73.5 33t-16.5 79q10 47 52.5 81t89.5 34q46 0 71 -34t15 -81q-10 -46 -51 -79t-87 -33zM969 1223q-47 0 -73.5 33t-16.5 79q10 47 52 81t89 34q46 0 71 -34t15 -81q-11 -46 -51 -79t-86 -33zM496 -33q-29 0 -51.5 1t-61 5.5t-67.5 12.5t-65 24.5
t-61 39.5t-47.5 58.5t-32 79.5t-8 105.5t18.5 134.5l145 631h221l-147 -637q-1 -5 -3 -14.5t-4 -36.5t0.5 -51.5t14.5 -54.5t34 -51.5t62.5 -36.5t96.5 -15q76 0 137 27t93.5 65t54 76t28.5 65l6 27l148 637h221l-146 -631q-21 -93 -59 -167.5t-79 -121.5t-95.5 -81.5
t-98.5 -51.5t-99.5 -26.5t-86 -11t-69.5 -1.5z" />
    <glyph glyph-name="yacute" unicode="&#xfd;" horiz-adv-x="1200" 
d="M1192 1548l-330 -350h-207l265 350h272zM1026 1059h256l-1059 -1485h-260l422 573l-221 912h231l158 -676z" />
    <glyph glyph-name="thorn" unicode="&#xfe;" horiz-adv-x="1378" 
d="M-57 -434l422 1825l229 36l-109 -471q72 59 174.5 96.5t212.5 37.5q158 0 268.5 -76t151 -204t4.5 -282q-27 -115 -92 -217.5t-154 -178t-203 -119.5t-233 -44q-226 0 -323 144l-127 -547h-221zM664 166q147 0 264 104t153 258q19 75 8.5 141.5t-41.5 116t-87.5 78.5
t-129.5 29q-101 0 -194.5 -42t-164.5 -126.5t-97 -196.5q-38 -166 47.5 -264t241.5 -98z" />
    <glyph glyph-name="ydieresis" unicode="&#xff;" horiz-adv-x="1200" 
d="M551 1223q-47 0 -73.5 33t-16.5 79q10 47 52 81t89 34q46 0 71 -34t15 -81q-11 -46 -51 -79t-86 -33zM944 1223q-47 0 -73.5 33t-16.5 79q10 47 52 81t89 34q46 0 71 -34t15 -81q-11 -46 -51 -79t-86 -33zM1026 1059h256l-1059 -1485h-260l422 573l-221 912h231l158 -676
z" />
    <glyph glyph-name="Amacron" unicode="&#x100;" horiz-adv-x="1536" 
d="M1323 1747l-43 -184h-567l43 184h567zM1073 1391l297 -1391h-260l-57 330h-656l-215 -330h-262l938 1391h215zM532 539h486l-109 569z" />
    <glyph glyph-name="amacron" unicode="&#x101;" horiz-adv-x="1376" 
d="M553 1229l43 184h567l-43 -184h-567zM506 -31q-159 0 -269 75t-150.5 203t-4.5 281q36 154 135 282t244 204t303 76q110 0 195.5 -37.5t130.5 -96.5l24 103h221l-250 -1059h-221l29 109q-171 -140 -387 -140zM567 166q153 0 275.5 98t161.5 266q39 167 -39 265t-230 98
q-148 0 -272 -105.5t-160 -257.5t40 -258t224 -106z" />
    <glyph glyph-name="Abreve" unicode="&#x102;" horiz-adv-x="1536" 
d="M989 1532q-58 0 -104 15t-75.5 41t-49 59.5t-26.5 73.5t-6 80t11 81h207q-5 -33 -5 -70.5t23 -68.5t66 -31t80 31.5t56.5 68t27.5 70.5h207q-15 -63 -47 -122t-82 -111.5t-123.5 -84.5t-159.5 -32zM858 1391h215l297 -1391h-260l-57 330h-656l-215 -330h-262zM532 539
h486l-109 569z" />
    <glyph glyph-name="abreve" unicode="&#x103;" horiz-adv-x="1376" 
d="M829 1198q-69 0 -121.5 21t-80.5 56.5t-44.5 81t-14 94.5t11.5 97h206q-5 -33 -5 -70.5t23 -68.5t66 -31t80 31.5t56.5 68t27.5 70.5h207q-15 -63 -47 -122t-82 -111.5t-123.5 -84.5t-159.5 -32zM506 -31q-159 0 -269 75t-150.5 203t-4.5 281q36 154 135 282t244 204
t303 76q110 0 195.5 -37.5t130.5 -96.5l24 103h221l-250 -1059h-221l29 109q-171 -140 -387 -140zM567 166q153 0 275.5 98t161.5 266q39 167 -39 265t-230 98q-148 0 -272 -105.5t-160 -257.5t40 -258t224 -106z" />
    <glyph glyph-name="Aogonek" unicode="&#x104;" horiz-adv-x="1536" 
d="M1372 0q-14 -13 -35 -34.5t-59.5 -73t-46.5 -85.5q-9 -47 14 -67.5t90 -20.5l-43 -180q-33 0 -69 7t-75 23.5t-65 44t-39.5 68t0.5 95.5q9 37 30 74t44.5 62.5t46 46t37.5 30.5l15 10h-107l-57 330h-656l-215 -330h-262l938 1391h215l297 -1391h2zM532 539h486l-109 569z
" />
    <glyph glyph-name="aogonek" unicode="&#x105;" horiz-adv-x="1376" 
d="M1335 1059l-250 -1059h2q-14 -13 -35 -34.5t-59.5 -73t-46.5 -85.5q-9 -47 14 -67.5t91 -20.5l-43 -180q-33 0 -69 7t-75 23.5t-65 44t-39.5 68t0.5 95.5q9 37 29.5 74t44.5 62.5t46.5 46t37.5 30.5l14 10h-68l29 109q-171 -140 -387 -140q-159 0 -269 75t-150.5 203
t-4.5 281q36 154 135 282t244 204t303 76q110 0 195.5 -37.5t130.5 -96.5l24 103h221zM567 166q153 0 275.5 98t161.5 266q39 167 -39 265t-230 98q-148 0 -272 -105.5t-160 -257.5t40 -258t224 -106z" />
    <glyph glyph-name="Cacute" unicode="&#x106;" horiz-adv-x="1441" 
d="M991 1532l264 350h273l-330 -350h-207zM731 -31q-113 -1 -211 24.5t-170.5 73t-127.5 114.5t-81 148.5t-31.5 174.5t21.5 192q32 148 119 282t209.5 233t281.5 156.5t326 55.5q269 0 422 -123l-55 -235q-2 7 -21.5 23t-58 38t-86 41.5t-114.5 33t-136 13.5
q-247 0 -425 -146.5t-231 -371.5q-34 -147 2 -263.5t143.5 -184.5t272.5 -68q140 0 280.5 40.5t244.5 113.5l-56 -240q-1 0 -23 -12t-42 -21t-55.5 -23.5t-75 -25t-88.5 -21.5t-109.5 -16.5t-124.5 -5.5z" />
    <glyph glyph-name="cacute" unicode="&#x107;" horiz-adv-x="1132" 
d="M719 1198l264 350h272l-329 -350h-207zM553 -31q-116 0 -207.5 28.5t-149.5 80t-93 121.5t-37.5 154t16.5 177q36 154 137.5 281.5t252.5 203t319 75.5q105 0 201 -32t149 -95l-54 -228q-4 7 -11 17.5t-36 38t-64.5 48.5t-97.5 38.5t-133 17.5q-155 0 -283.5 -106.5
t-164.5 -258.5q-38 -165 43.5 -265.5t257.5 -100.5q69 0 136.5 11.5t113.5 27.5t82 32t54 27l17 12l-47 -204q-77 -52 -190 -76.5t-211 -24.5z" />
    <glyph glyph-name="Cdotaccent" unicode="&#x10a;" horiz-adv-x="1441" 
d="M1090 1542q-53 0 -81 36.5t-16 88.5q12 54 56.5 90.5t97.5 36.5q54 0 82 -36.5t16 -90.5q-12 -53 -56.5 -89t-98.5 -36zM731 -31q-113 -1 -211 24.5t-170.5 73t-127.5 114.5t-81 148.5t-31.5 174.5t21.5 192q32 148 119 282t209.5 233t281.5 156.5t326 55.5
q269 0 422 -123l-55 -235q-2 7 -21.5 23t-58 38t-86 41.5t-114.5 33t-136 13.5q-247 0 -425 -146.5t-231 -371.5q-34 -147 2 -263.5t143.5 -184.5t272.5 -68q140 0 280.5 40.5t244.5 113.5l-56 -240q-1 0 -23 -12t-42 -21t-55.5 -23.5t-75 -25t-88.5 -21.5t-109.5 -16.5
t-124.5 -5.5z" />
    <glyph glyph-name="cdotaccent" unicode="&#x10b;" horiz-adv-x="1132" 
d="M817 1208q-52 0 -80 36t-16 89q12 54 56 90.5t97 36.5q54 0 82.5 -36.5t16.5 -90.5q-12 -53 -57 -89t-99 -36zM553 -31q-116 0 -207.5 28.5t-149.5 80t-93 121.5t-37.5 154t16.5 177q36 154 137.5 281.5t252.5 203t319 75.5q105 0 201 -32t149 -95l-54 -228
q-4 7 -11 17.5t-36 38t-64.5 48.5t-97.5 38.5t-133 17.5q-155 0 -283.5 -106.5t-164.5 -258.5q-38 -165 43.5 -265.5t257.5 -100.5q69 0 136.5 11.5t113.5 27.5t82 32t54 27l17 12l-47 -204q-77 -52 -190 -76.5t-211 -24.5z" />
    <glyph glyph-name="Ccaron" unicode="&#x10c;" horiz-adv-x="1441" 
d="M973 1532l-135 350h206l86 -170l162 170h207l-295 -350h-231zM731 -31q-113 -1 -211 24.5t-170.5 73t-127.5 114.5t-81 148.5t-31.5 174.5t21.5 192q32 148 119 282t209.5 233t281.5 156.5t326 55.5q269 0 422 -123l-55 -235q-2 7 -21.5 23t-58 38t-86 41.5t-114.5 33
t-136 13.5q-247 0 -425 -146.5t-231 -371.5q-34 -147 2 -263.5t143.5 -184.5t272.5 -68q140 0 280.5 40.5t244.5 113.5l-56 -240q-1 0 -23 -12t-42 -21t-55.5 -23.5t-75 -25t-88.5 -21.5t-109.5 -16.5t-124.5 -5.5z" />
    <glyph glyph-name="ccaron" unicode="&#x10d;" horiz-adv-x="1132" 
d="M700 1198l-135 350h207l86 -170l162 170h207l-295 -350h-232zM553 -31q-116 0 -207.5 28.5t-149.5 80t-93 121.5t-37.5 154t16.5 177q36 154 137.5 281.5t252.5 203t319 75.5q105 0 201 -32t149 -95l-54 -228q-4 7 -11 17.5t-36 38t-64.5 48.5t-97.5 38.5t-133 17.5
q-155 0 -283.5 -106.5t-164.5 -258.5q-38 -165 43.5 -265.5t257.5 -100.5q69 0 136.5 11.5t113.5 27.5t82 32t54 27l17 12l-47 -204q-77 -52 -190 -76.5t-211 -24.5z" />
    <glyph glyph-name="Dcaron" unicode="&#x10e;" horiz-adv-x="1556" 
d="M1124 1532h-231l-135 350h207l86 -170l161 170h207zM887 1391q234 0 386 -89.5t204.5 -245.5t5.5 -360q-47 -201 -175.5 -358.5t-322.5 -247.5t-420 -90h-504l322 1391h504zM1251 696q54 230 -54.5 358t-375.5 128h-264l-223 -971h264q249 0 419 120.5t234 364.5z" />
    <glyph glyph-name="dcaron" unicode="&#x10f;" horiz-adv-x="1536" 
d="M506 -31q-159 0 -269 75t-150.5 203t-4.5 281q36 154 135 282t244 204t303 76q110 0 195.5 -37.5t130.5 -96.5l100 435l229 36l-329 -1427h-226l29 109q-171 -140 -387 -140zM1458 1108l123 319h223l-209 -319h-137zM567 166q153 0 275.5 98t161.5 266q39 167 -39 265
t-230 98q-149 0 -276 -106t-162 -257t43 -257.5t227 -106.5z" />
    <glyph glyph-name="Dcroat" unicode="&#x110;" horiz-adv-x="1617" 
d="M948 1391q234 0 386 -89.5t204.5 -245.5t5.5 -360q-47 -201 -175.5 -358.5t-322 -247.5t-419.5 -90h-504l141 608h-264l43 185h262l139 598h504zM1313 696q54 230 -54.5 358t-375.5 128h-265l-90 -389h226l-43 -185h-224l-92 -397h264q249 0 419.5 120.5t234.5 364.5z
" />
    <glyph glyph-name="dcroat" unicode="&#x111;" horiz-adv-x="1359" 
d="M1513 1284l-43 -184h-127l-253 -1100h-226l29 109q-171 -140 -387 -140q-159 0 -269 75t-150.5 203t-4.5 281q36 154 135 282t244 204t303 76q110 0 195.5 -37.5t130.5 -96.5l32 144h-178l43 184h178l25 107l229 36l-33 -143h127zM1004 530q39 167 -39 265t-230 98
q-149 0 -276 -106t-162 -257t43 -257.5t227 -106.5q153 0 275.5 98t161.5 266z" />
    <glyph glyph-name="Emacron" unicode="&#x112;" horiz-adv-x="1314" 
d="M1221 1747l-43 -184h-568l43 184h568zM1352 1182h-795l-78 -336h633l-49 -209h-631l-98 -428h805l-49 -209h-1029l322 1391h1016z" />
    <glyph glyph-name="emacron" unicode="&#x113;" horiz-adv-x="1220" 
d="M528 1229l43 184h568l-43 -184h-568zM539 -31q-91 0 -168 20.5t-132 57.5t-95 88.5t-57.5 113.5t-20.5 133.5t16 147.5q56 239 255.5 399.5t444.5 160.5q90 0 162 -28.5t117.5 -77.5t73.5 -114t29.5 -138.5t-13.5 -151.5l-25 -103h-845q-5 -64 9.5 -118t49 -98.5
t98 -69.5t150.5 -25q42 0 83.5 4t77 10t69.5 14.5t61.5 17.5t52 18t42.5 17.5t31 14.5t20 10l7 4l-45 -198q-6 -4 -17 -11.5t-51.5 -26.5t-88 -33t-126 -26t-165.5 -12zM332 649h614q5 21 2.5 48t-7 56t-21.5 57t-41.5 50t-67.5 35.5t-98 13.5q-66 0 -125 -19.5t-100 -48
t-74.5 -65.5t-52 -68t-29.5 -59z" />
    <glyph glyph-name="Edotaccent" unicode="&#x116;" horiz-adv-x="1314" 
d="M889 1542q-52 0 -80 36t-16 89q12 54 56 90.5t97 36.5q54 0 82 -36.5t16 -90.5q-12 -53 -56.5 -89t-98.5 -36zM1352 1182h-795l-78 -336h633l-49 -209h-631l-98 -428h805l-49 -209h-1029l322 1391h1016z" />
    <glyph glyph-name="edotaccent" unicode="&#x117;" horiz-adv-x="1220" 
d="M807 1208q-52 0 -80 36t-16 89q12 54 56 90.5t97 36.5q54 0 82.5 -36.5t16.5 -90.5q-12 -53 -57 -89t-99 -36zM539 -31q-91 0 -168 20.5t-132 57.5t-95 88.5t-57.5 113.5t-20.5 133.5t16 147.5q56 239 255.5 399.5t444.5 160.5q90 0 162 -28.5t117.5 -77.5t73.5 -114
t29.5 -138.5t-13.5 -151.5l-25 -103h-845q-5 -64 9.5 -118t49 -98.5t98 -69.5t150.5 -25q42 0 83.5 4t77 10t69.5 14.5t61.5 17.5t52 18t42.5 17.5t31 14.5t20 10l7 4l-45 -198q-6 -4 -17 -11.5t-51.5 -26.5t-88 -33t-126 -26t-165.5 -12zM332 649h614q5 21 2.5 48t-7 56
t-21.5 57t-41.5 50t-67.5 35.5t-98 13.5q-66 0 -125 -19.5t-100 -48t-74.5 -65.5t-52 -68t-29.5 -59z" />
    <glyph glyph-name="Eogonek" unicode="&#x118;" horiz-adv-x="1314" 
d="M1352 1182h-795l-78 -336h633l-49 -209h-631l-98 -428h805l-49 -209h2q-14 -13 -35 -34.5t-60 -73t-47 -85.5q-9 -47 14 -67.5t91 -20.5l-43 -180q-33 0 -69 7t-75 23.5t-65 44t-39.5 68t0.5 95.5q9 37 29.5 74t44.5 62.5t46.5 46t37.5 30.5l14 10h-875l322 1391h1016z
" />
    <glyph glyph-name="eogonek" unicode="&#x119;" horiz-adv-x="1220" 
d="M782 1090q90 0 162 -28.5t117.5 -77.5t73.5 -114t29.5 -138.5t-13.5 -151.5l-25 -103h-845q-5 -64 9.5 -118t49 -98.5t98 -69.5t150.5 -25q42 0 83.5 4t77 10t69.5 14.5t61.5 17.5t52 18t42.5 17.5t31 14.5t20 10l7 4l-45 -198l-2 -2h2q-14 -13 -35 -34.5t-59.5 -73
t-46.5 -85.5q-9 -47 14 -67.5t90 -20.5l-43 -180q-33 0 -69 7t-75 23.5t-65 44t-39.5 68t0.5 95.5q15 65 70 131q-99 -15 -190 -15t-168 20.5t-132 57.5t-95 88.5t-57.5 113.5t-20.5 133.5t16 147.5q56 239 255.5 399.5t444.5 160.5zM946 649q5 21 2.5 48t-7 56t-21.5 57
t-41.5 50t-67.5 35.5t-98 13.5q-66 0 -125 -19.5t-100 -48t-74.5 -65.5t-52 -68t-29.5 -59h614z" />
    <glyph glyph-name="Ecaron" unicode="&#x11a;" horiz-adv-x="1314" 
d="M1004 1532h-232l-135 350h207l86 -170l162 170h206zM1352 1182h-795l-78 -336h633l-49 -209h-631l-98 -428h805l-49 -209h-1029l322 1391h1016z" />
    <glyph glyph-name="ecaron" unicode="&#x11b;" horiz-adv-x="1220" 
d="M690 1198l-135 350h207l86 -170l162 170h207l-295 -350h-232zM539 -31q-91 0 -168 20.5t-132 57.5t-95 88.5t-57.5 113.5t-20.5 133.5t16 147.5q56 239 255.5 399.5t444.5 160.5q90 0 162 -28.5t117.5 -77.5t73.5 -114t29.5 -138.5t-13.5 -151.5l-25 -103h-845
q-5 -64 9.5 -118t49 -98.5t98 -69.5t150.5 -25q42 0 83.5 4t77 10t69.5 14.5t61.5 17.5t52 18t42.5 17.5t31 14.5t20 10l7 4l-45 -198q-6 -4 -17 -11.5t-51.5 -26.5t-88 -33t-126 -26t-165.5 -12zM332 649h614q5 21 2.5 48t-7 56t-21.5 57t-41.5 50t-67.5 35.5t-98 13.5
q-66 0 -125 -19.5t-100 -48t-74.5 -65.5t-52 -68t-29.5 -59z" />
    <glyph glyph-name="Gbreve" unicode="&#x11e;" horiz-adv-x="1589" 
d="M1024 1532q-58 0 -104 15t-75.5 41t-49 59.5t-26.5 73.5t-6 80t11 81h207q-5 -33 -5 -70.5t23 -68.5t66 -31t80 31.5t56.5 68t27.5 70.5h207q-15 -63 -47 -122t-82 -111.5t-123.5 -84.5t-159.5 -32zM705 -31q-106 0 -198 26.5t-161 74t-121 114t-77 147.5t-29 173.5
t22 191.5q32 148 119 282t209.5 233t281.5 156.5t326 55.5q178 0 291 -45q121 -45 170 -80l-55 -237q-47 47 -158 98q-113 55 -297 55q-247 0 -424.5 -146.5t-230.5 -371.5q-34 -143 1.5 -261.5t134.5 -187.5t243 -69q112 0 218 36t187 89l70 301h-416l49 209h639l-188 -813
h-224l17 72q-186 -103 -399 -103z" />
    <glyph glyph-name="gbreve" unicode="&#x11f;" horiz-adv-x="1320" 
d="M809 1198q-58 0 -104 15t-75.5 41t-49 59.5t-26.5 73.5t-6 80t11 81h207q-5 -33 -5 -70.5t23 -68.5t66 -31t80 31.5t56.5 68t27.5 70.5h207q-15 -63 -47 -122t-82 -111.5t-123.5 -84.5t-159.5 -32zM375 -461q-87 0 -159.5 11t-114.5 27.5t-72 32.5t-41 27l-11 11l46 198
q5 -4 15.5 -11.5t47 -26.5t78.5 -33.5t109.5 -26.5t140.5 -12q391 0 471 346l4 24q-164 -137 -383 -137q-159 0 -269 75t-150.5 203t-4.5 281q36 154 135 282t244 204t303 76q110 0 195.5 -37.5t130.5 -96.5l24 103h221l-223 -948q-22 -95 -62 -178t-103 -156.5t-144 -125.5
t-190.5 -82t-237.5 -30zM567 166q153 0 275.5 98t161.5 266q39 167 -39 265t-230 98q-148 0 -272 -105.5t-160 -257.5t40 -258t224 -106z" />
    <glyph glyph-name="Gdotaccent" unicode="&#x120;" horiz-adv-x="1589" 
d="M1026 1542q-52 0 -80 36t-16 89q12 54 56 90.5t97 36.5q54 0 82.5 -36.5t16.5 -90.5q-12 -53 -57 -89t-99 -36zM705 -31q-106 0 -198 26.5t-161 74t-121 114t-77 147.5t-29 173.5t22 191.5q32 148 119 282t209.5 233t281.5 156.5t326 55.5q178 0 291 -45q121 -45 170 -80
l-55 -237q-47 47 -158 98q-113 55 -297 55q-247 0 -424.5 -146.5t-230.5 -371.5q-34 -143 1.5 -261.5t134.5 -187.5t243 -69q112 0 218 36t187 89l70 301h-416l49 209h639l-188 -813h-224l17 72q-186 -103 -399 -103z" />
    <glyph glyph-name="gdotaccent" unicode="&#x121;" horiz-adv-x="1320" 
d="M811 1208q-52 0 -80 36t-16 89q12 54 56 90.5t97 36.5q54 0 82.5 -36.5t16.5 -90.5q-12 -53 -57 -89t-99 -36zM375 -461q-87 0 -159.5 11t-114.5 27.5t-72 32.5t-41 27l-11 11l46 198q5 -4 15.5 -11.5t47 -26.5t78.5 -33.5t109.5 -26.5t140.5 -12q391 0 471 346l4 24
q-164 -137 -383 -137q-159 0 -269 75t-150.5 203t-4.5 281q36 154 135 282t244 204t303 76q110 0 195.5 -37.5t130.5 -96.5l24 103h221l-223 -948q-22 -95 -62 -178t-103 -156.5t-144 -125.5t-190.5 -82t-237.5 -30zM567 166q153 0 275.5 98t161.5 266q39 167 -39 265
t-230 98q-148 0 -272 -105.5t-160 -257.5t40 -258t224 -106z" />
    <glyph glyph-name="uni0122" unicode="&#x122;" horiz-adv-x="1589" 
d="M705 -31q-106 0 -198 26.5t-161 74t-121 114t-77 147.5t-29 173.5t22 191.5q32 148 119 282t209.5 233t281.5 156.5t326 55.5q178 0 291 -45q121 -45 170 -80l-55 -237q-47 47 -158 98q-113 55 -297 55q-247 0 -424.5 -146.5t-230.5 -371.5q-34 -143 1.5 -261.5
t134.5 -187.5t243 -69q112 0 218 36t187 89l70 301h-416l49 209h639l-188 -813h-224l17 72q-186 -103 -399 -103zM330 -449l264 351h231l-329 -351h-166z" />
    <glyph glyph-name="uni0123" unicode="&#x123;" horiz-adv-x="1320" 
d="M676 1198l330 350h206l-264 -350h-272zM375 -461q-87 0 -159.5 11t-114.5 27.5t-72 32.5t-41 27l-11 11l46 198q5 -4 15.5 -11.5t47 -26.5t78.5 -33.5t109.5 -26.5t140.5 -12q391 0 471 346l4 24q-164 -137 -383 -137q-159 0 -269 75t-150.5 203t-4.5 281q36 154 135 282
t244 204t303 76q110 0 195.5 -37.5t130.5 -96.5l24 103h221l-223 -948q-22 -95 -62 -178t-103 -156.5t-144 -125.5t-190.5 -82t-237.5 -30zM567 166q153 0 275.5 98t161.5 266q39 167 -39 265t-230 98q-148 0 -272 -105.5t-160 -257.5t40 -258t224 -106z" />
    <glyph glyph-name="Hbar" unicode="&#x126;" horiz-adv-x="1544" 
d="M1626 1217l-43 -185h-106l-240 -1032h-223l147 637h-729l-147 -637h-224l240 1032h-113l43 185h111l41 174h223l-41 -174h729l41 174h224l-41 -174h108zM1208 846l45 186h-729l-45 -186h729z" />
    <glyph glyph-name="hbar" unicode="&#x127;" horiz-adv-x="1249" 
d="M807 1092q187 0 281 -115.5t45 -325.5l-152 -651h-221l145 629q29 126 -18.5 196t-157.5 70q-76 0 -147 -30.5t-128.5 -95.5t-82.5 -153l-144 -616h-221l254 1100h-129l43 184h129l25 107l229 36l-33 -143h176l-43 -184h-176l-39 -170q11 16 32.5 36.5t65 52t114.5 52.5
t153 21z" />
    <glyph glyph-name="Imacron" unicode="&#x12a;" horiz-adv-x="591" 
d="M250 1563l43 184h567l-43 -184h-567zM61 0l322 1391h223l-321 -1391h-224z" />
    <glyph glyph-name="imacron" unicode="&#x12b;" horiz-adv-x="561" 
d="M164 1229l43 184h567l-43 -184h-567zM53 0l246 1059h221l-246 -1059h-221z" />
    <glyph glyph-name="Iogonek" unicode="&#x12e;" horiz-adv-x="591" 
d="M260 0q-108 -115 -123 -174q-9 -47 14 -67.5t91 -20.5l-43 -180q-33 0 -69 7t-75 23.5t-65 43.5t-39.5 67.5t0.5 95.5q26 112 147 205h-37l322 1391h223l-321 -1391h-25z" />
    <glyph glyph-name="iogonek" unicode="&#x12f;" horiz-adv-x="579" 
d="M504 1462q54 0 82 -36.5t16 -90.5q-12 -53 -57 -89t-99 -36q-52 0 -80 36t-16 89q12 54 56.5 90.5t97.5 36.5zM311 1061h221l-245 -1061h2q-14 -13 -35 -34.5t-60 -73t-47 -85.5q-9 -47 14 -67.5t91 -20.5l-43 -180q-33 0 -69 7t-75 23.5t-65 44t-39.5 68t0.5 95.5
q9 37 29.5 74t44.5 62.5t46.5 46t36.5 30.5l15 10h-67z" />
    <glyph glyph-name="Idotaccent" unicode="&#x130;" horiz-adv-x="591" 
d="M528 1542q-52 0 -80 36t-16 89q12 54 56.5 90.5t97.5 36.5q54 0 82 -36.5t16 -90.5q-12 -53 -57 -89t-99 -36zM61 0l322 1391h223l-321 -1391h-224z" />
    <glyph glyph-name="dotlessi" unicode="&#x131;" horiz-adv-x="561" 
d="M53 0l246 1059h221l-246 -1059h-221z" />
    <glyph glyph-name="uni0136" unicode="&#x136;" horiz-adv-x="1404" 
d="M1567 1391l-738 -576l416 -815h-248l-344 676l-262 -203l-108 -473h-222l322 1391h221l-145 -629l796 629h312zM188 -430l265 350h231l-330 -350h-166z" />
    <glyph glyph-name="uni0137" unicode="&#x137;" horiz-adv-x="1179" 
d="M1241 1059l-563 -395l399 -664h-270l-313 535l-129 -91l-103 -444h-221l321 1391l230 36l-166 -716l498 348h317zM139 -430l264 350h232l-330 -350h-166z" />
    <glyph glyph-name="Lacute" unicode="&#x139;" horiz-adv-x="1327" 
d="M416 1532l264 350h272l-329 -350h-207zM61 0l322 1391h221l-272 -1182h844l-50 -209h-1065z" />
    <glyph glyph-name="lacute" unicode="&#x13a;" horiz-adv-x="548" 
d="M430 1532l346 350h273l-412 -350h-207zM41 0l321 1391l230 36l-330 -1427h-221z" />
    <glyph glyph-name="uni013B" unicode="&#x13b;" horiz-adv-x="1327" 
d="M61 0l322 1391h221l-272 -1182h844l-50 -209h-1065zM160 -430l264 350h231l-329 -350h-166z" />
    <glyph glyph-name="uni013C" unicode="&#x13c;" horiz-adv-x="548" 
d="M41 0l321 1391l230 36l-330 -1427h-221zM-246 -430l264 350h232l-330 -350h-166z" />
    <glyph glyph-name="Lcaron" unicode="&#x13d;" horiz-adv-x="1327" 
d="M61 0l322 1391h221l-272 -1182h844l-50 -209h-1065zM817 1071l123 320h223l-209 -320h-137z" />
    <glyph glyph-name="lcaron" unicode="&#x13e;" horiz-adv-x="710" 
d="M41 0l321 1391l230 36l-330 -1427h-221zM633 1108l123 319h223l-209 -319h-137z" />
    <glyph glyph-name="Ldot" unicode="&#x13f;" horiz-adv-x="1327" 
d="M61 0l322 1391h221l-272 -1182h844l-50 -209h-1065zM872 545q-70 0 -106 46.5t-21 117.5q15 68 74 115.5t129 47.5q67 0 103.5 -47.5t21.5 -115.5q-15 -70 -74 -117t-127 -47z" />
    <glyph glyph-name="ldot" unicode="&#x140;" horiz-adv-x="837" 
d="M41 0l321 1391l230 36l-330 -1427h-221zM637 545q-70 0 -106 46.5t-21 117.5q15 68 74 115.5t129 47.5q67 0 103.5 -47.5t21.5 -115.5q-15 -70 -74 -117t-127 -47z" />
    <glyph glyph-name="Lslash" unicode="&#x141;" horiz-adv-x="1327" 
d="M332 209h844l-50 -209h-1065l152 651h-244l43 185h242l129 555h221l-127 -555h246l-43 -185h-246z" />
    <glyph glyph-name="lslash" unicode="&#x142;" horiz-adv-x="548" 
d="M717 940l-281 -186l-174 -754h-221l133 580l-192 -129l-54 139l295 196l139 605l230 36l-109 -466l179 118z" />
    <glyph glyph-name="Nacute" unicode="&#x143;" horiz-adv-x="1579" 
d="M1460 1882l-330 -350h-206l264 350h272zM1372 1391h221l-321 -1391h-248l-496 1061l-245 -1061h-222l322 1391h256l491 -1043z" />
    <glyph glyph-name="nacute" unicode="&#x144;" horiz-adv-x="1296" 
d="M1307 1548l-330 -350h-207l264 350h273zM856 1092q187 0 281 -115.5t45 -325.5l-152 -651h-221l145 629q29 126 -18.5 196t-157.5 70q-79 0 -152.5 -32.5t-131.5 -101.5t-80 -165l57 252l-197 -848h-221l246 1059h221l-31 -131q6 9 17.5 22.5t44 40t71.5 47.5t101.5 37.5
t132.5 16.5z" />
    <glyph glyph-name="uni0145" unicode="&#x145;" horiz-adv-x="1579" 
d="M1372 1391h221l-321 -1391h-248l-496 1061l-245 -1061h-222l322 1391h256l491 -1043zM287 -430l264 350h231l-329 -350h-166z" />
    <glyph glyph-name="uni0146" unicode="&#x146;" horiz-adv-x="1296" 
d="M856 1092q187 0 281 -115.5t45 -325.5l-152 -651h-221l145 629q29 126 -18.5 196t-157.5 70q-79 0 -152.5 -32.5t-131.5 -101.5t-80 -165l57 252l-197 -848h-221l246 1059h221l-31 -131q6 9 17.5 22.5t44 40t71.5 47.5t101.5 37.5t132.5 16.5zM139 -430l264 350h232
l-330 -350h-166z" />
    <glyph glyph-name="Ncaron" unicode="&#x147;" horiz-adv-x="1579" 
d="M1137 1532h-232l-135 350h207l86 -170l162 170h207zM1372 1391h221l-321 -1391h-248l-496 1061l-245 -1061h-222l322 1391h256l491 -1043z" />
    <glyph glyph-name="ncaron" unicode="&#x148;" horiz-adv-x="1296" 
d="M983 1198h-231l-136 350h207l86 -170l162 170h207zM856 1092q187 0 281 -115.5t45 -325.5l-152 -651h-221l145 629q29 126 -18.5 196t-157.5 70q-79 0 -152.5 -32.5t-131.5 -101.5t-80 -165l57 252l-197 -848h-221l246 1059h221l-31 -131q6 9 17.5 22.5t44 40t71.5 47.5
t101.5 37.5t132.5 16.5z" />
    <glyph glyph-name="Eng" unicode="&#x14a;" horiz-adv-x="1579" 
d="M1593 1391l-282 -1219h2l-56 -235q-12 -53 -31 -102.5t-53.5 -105t-78 -95.5t-109.5 -66.5t-145 -26.5q-63 0 -114 13.5t-79 32.5t-47 37.5t-25 31.5l-6 14l54 230q3 -7 8.5 -17.5t26 -38.5t44.5 -49.5t65 -39t87 -17.5q51 0 90 28.5t58.5 66.5t29.5 85l19 82h-27
l-496 1061l-245 -1061h-222l322 1391h256l491 -1043l242 1043h221z" />
    <glyph glyph-name="eng" unicode="&#x14b;" horiz-adv-x="1296" 
d="M856 1092q187 0 281 -115.5t45 -325.5l-45 -194l-121 -520q-12 -53 -31 -102.5t-53.5 -104.5t-78.5 -95.5t-110 -67t-145 -26.5q-63 0 -114 13.5t-79 32.5t-46.5 37.5t-24.5 31.5l-6 14l53 230q3 -7 8.5 -17.5t26 -38.5t44.5 -49.5t65 -39t87 -17.5q75 0 119 53t60 127
l18 82l145 629q29 126 -18.5 196t-157.5 70q-79 0 -152.5 -32.5t-131.5 -101.5t-80 -165l57 252l-197 -848h-221l246 1059h221l-31 -131q6 9 17.5 22.5t44 40t71.5 47.5t101.5 37.5t132.5 16.5z" />
    <glyph glyph-name="Omacron" unicode="&#x14c;" horiz-adv-x="1644" 
d="M776 1563l43 184h567l-43 -184h-567zM692 -31q-105 -1 -196.5 24.5t-160 73t-120.5 114.5t-77 148.5t-29 174.5t22 192q32 147 117.5 281.5t204 233.5t269.5 156.5t306 55.5q104 1 195.5 -24.5t160.5 -73t121 -114.5t77.5 -148.5t30 -174.5t-21.5 -192
q-32 -147 -118 -281.5t-205 -233.5t-270 -156.5t-306 -55.5zM741 180q226 0 396.5 146t222.5 370q34 146 0.5 263t-132.5 186t-249 69q-223 0 -395 -147.5t-224 -370.5q-34 -146 0 -263t133.5 -185t247.5 -68z" />
    <glyph glyph-name="omacron" unicode="&#x14d;" horiz-adv-x="1323" 
d="M537 1229l43 184h567l-43 -184h-567zM532 -31q-158 0 -274.5 75t-163.5 203.5t-12 280.5t142 281.5t258 205t309 75.5t274.5 -75.5t163.5 -205t12 -281.5t-142 -280.5t-258 -203.5t-309 -75zM578 168q155 0 284.5 104.5t165.5 255.5q35 152 -46 257.5t-237 105.5
t-285 -105.5t-165 -257.5q-35 -150 46 -255t237 -105z" />
    <glyph glyph-name="Ohungarumlaut" unicode="&#x150;" horiz-adv-x="1644" 
d="M774 1532l264 350h273l-330 -350h-207zM1143 1532l284 350h273l-350 -350h-207zM692 -31q-105 -1 -196.5 24.5t-160 73t-120.5 114.5t-77 148.5t-29 174.5t22 192q32 147 117.5 281.5t204 233.5t269.5 156.5t306 55.5q104 1 195.5 -24.5t160.5 -73t121 -114.5
t77.5 -148.5t30 -174.5t-21.5 -192q-32 -147 -118 -281.5t-205 -233.5t-270 -156.5t-306 -55.5zM741 180q226 0 396.5 146t222.5 370q34 146 0.5 263t-132.5 186t-249 69q-223 0 -395 -147.5t-224 -370.5q-34 -146 0 -263t133.5 -185t247.5 -68z" />
    <glyph glyph-name="ohungarumlaut" unicode="&#x151;" horiz-adv-x="1323" 
d="M535 1198l264 350h272l-330 -350h-206zM903 1198l285 350h272l-350 -350h-207zM532 -31q-158 0 -274.5 75t-163.5 203.5t-12 280.5t142 281.5t258 205t309 75.5t274.5 -75.5t163.5 -205t12 -281.5t-142 -280.5t-258 -203.5t-309 -75zM578 168q155 0 284.5 104.5
t165.5 255.5q35 152 -46 257.5t-237 105.5t-285 -105.5t-165 -257.5q-35 -150 46 -255t237 -105z" />
    <glyph glyph-name="OE" unicode="&#x152;" horiz-adv-x="2451" 
d="M2488 1182h-794l-78 -336h633l-49 -209h-631l-99 -428h805l-49 -209h-1028l35 154q-251 -188 -541 -185q-105 -1 -196.5 24.5t-160 73t-120.5 114.5t-77 148.5t-29 174.5t22 192q32 147 117.5 281.5t204 233.5t269.5 156.5t306 55.5q145 1 262 -47.5t195 -138.5l35 154
h1015zM741 180q217 0 384 136t227 348l14 65q26 137 -11 247t-134.5 174t-241.5 64q-223 0 -395 -147.5t-224 -370.5q-34 -146 0 -263t133.5 -185t247.5 -68z" />
    <glyph glyph-name="oe" unicode="&#x153;" horiz-adv-x="2166" 
d="M1729 1090q75 0 138 -20t107 -55.5t76.5 -83.5t45.5 -105t15.5 -119.5t-14.5 -126.5l-24 -103h-846q-5 -64 9.5 -118t49 -98.5t98 -69.5t150.5 -25q42 0 83.5 4t77 10t69.5 14.5t61.5 17.5t52 18t42.5 17.5t31 14.5t20 10l7 4l-45 -198q-6 -4 -17 -11.5t-51.5 -26.5
t-88 -33t-126 -26t-165.5 -12q-161 0 -271 61t-161 169q-105 -106 -242 -168t-279 -62q-158 0 -274.5 75t-163.5 203.5t-12 280.5t142 281.5t258 205t309 75.5q142 0 250 -62t165 -170q103 108 240 170t283 62zM1892 649q5 21 2.5 48t-7 56t-21.5 57t-41.5 50t-67.5 35.5
t-98 13.5q-66 0 -125 -19.5t-100 -48t-74.5 -65.5t-52 -68t-29.5 -59h614zM578 168q152 0 279.5 101t166.5 247q1 2 2 7t2 7t2 7.5t2 7.5q28 146 -54 246t-233 100q-156 0 -285 -105.5t-165 -257.5q-35 -150 46 -255t237 -105z" />
    <glyph glyph-name="Racute" unicode="&#x154;" horiz-adv-x="1411" 
d="M1327 1882l-330 -350h-206l264 350h272zM995 1391q216 0 328 -113t66 -313q-36 -159 -150.5 -264.5t-277.5 -143.5l284 -557h-278l-273 539h-284l-125 -539h-224l322 1391h612zM1159 961q25 109 -40.5 165t-186.5 56h-375l-100 -439h372q122 0 213.5 55.5t116.5 162.5z
" />
    <glyph glyph-name="racute" unicode="&#x155;" horiz-adv-x="839" 
d="M516 1198l264 350h273l-330 -350h-207zM41 0l246 1061h221l-47 -205q61 101 193 168.5t294 67.5l-41 -183q-198 0 -338.5 -104t-183.5 -275l-123 -530h-221z" />
    <glyph glyph-name="uni0156" unicode="&#x156;" horiz-adv-x="1411" 
d="M995 1391q216 0 328 -113t66 -313q-36 -159 -150.5 -264.5t-277.5 -143.5l284 -557h-278l-273 539h-284l-125 -539h-224l322 1391h612zM1159 961q25 109 -40.5 165t-186.5 56h-375l-100 -439h372q122 0 213.5 55.5t116.5 162.5zM238 -430l264 350h231l-330 -350h-165z
" />
    <glyph glyph-name="uni0157" unicode="&#x157;" horiz-adv-x="839" 
d="M41 0l246 1061h221l-47 -205q61 101 193 168.5t294 67.5l-41 -183q-198 0 -338.5 -104t-183.5 -275l-123 -530h-221zM-244 -430l264 350h232l-330 -350h-166z" />
    <glyph glyph-name="Rcaron" unicode="&#x158;" horiz-adv-x="1411" 
d="M1004 1532h-232l-135 350h207l86 -170l162 170h206zM995 1391q216 0 328 -113t66 -313q-36 -159 -150.5 -264.5t-277.5 -143.5l284 -557h-278l-273 539h-284l-125 -539h-224l322 1391h612zM1159 961q25 109 -40.5 165t-186.5 56h-375l-100 -439h372q122 0 213.5 55.5
t116.5 162.5z" />
    <glyph glyph-name="rcaron" unicode="&#x159;" horiz-adv-x="839" 
d="M498 1198l-136 350h207l86 -170l162 170h207l-295 -350h-231zM41 0l246 1061h221l-47 -205q61 101 193 168.5t294 67.5l-41 -183q-198 0 -338.5 -104t-183.5 -275l-123 -530h-221z" />
    <glyph glyph-name="Sacute" unicode="&#x15a;" horiz-adv-x="1191" 
d="M672 1532l264 350h272l-329 -350h-207zM469 -33q-161 0 -291 43.5t-182 100.5l53 229q78 -75 190.5 -118.5t235.5 -43.5q292 0 338 191q9 39 -0.5 69.5t-44.5 59t-76 51t-114 55.5q-66 31 -113 57t-88.5 57.5t-65.5 65t-38.5 74.5t-13.5 90.5t15 110.5q37 167 184 270
t363 103q98 2 198.5 -27.5t164.5 -79.5l-56 -240q-52 60 -139.5 97t-195.5 37q-118 -2 -195 -43.5t-94 -116.5q-5 -23 -6 -42t5.5 -36.5t13 -30.5t25 -28t32.5 -25t43.5 -25t50.5 -25t61 -28q58 -26 100 -48.5t81.5 -48.5t65 -52.5t45.5 -58.5t27.5 -68t6.5 -80t-13 -96
q-41 -178 -192.5 -289t-380.5 -111z" />
    <glyph glyph-name="sacute" unicode="&#x15b;" horiz-adv-x="894" 
d="M545 1198l264 350h272l-329 -350h-207zM287 -31q-50 0 -101 10.5t-87 25t-65.5 29.5t-43.5 26l-15 10l52 217q4 -5 12.5 -13t37 -29t59 -37t78 -29t95.5 -13q104 0 166 30t74 83q11 54 -24.5 94.5t-127.5 99.5q-36 23 -52.5 33.5t-46 33t-42.5 38t-30.5 41t-22.5 50
t-6 57t8 69.5q30 134 140.5 214.5t256.5 80.5q89 0 165.5 -21.5t113.5 -48.5l-50 -217q-30 37 -91 63.5t-136 26.5q-166 0 -190 -94q-9 -42 18 -70t125 -93l51 -34q33 -22 56.5 -40.5t45 -41t33.5 -45t19.5 -50.5t6 -61t-10.5 -73q-15 -64 -48.5 -119t-88.5 -102t-141 -74
t-193 -27z" />
    <glyph glyph-name="Scedilla" unicode="&#x15e;" horiz-adv-x="1191" 
d="M821 1432q98 2 198.5 -27.5t164.5 -79.5l-56 -240q-52 60 -139.5 97t-195.5 37q-118 -2 -195 -43.5t-94 -116.5q-5 -23 -6 -42t5.5 -36.5t13 -30.5t25 -28t32.5 -25t43.5 -25t50.5 -25t61 -28q58 -26 100 -48.5t81.5 -48.5t65 -52.5t45.5 -58.5t27.5 -68t6.5 -80t-13 -96
q-41 -178 -192.5 -289t-380.5 -111h-2l-43 -82q5 -1 13.5 -3.5t29 -12t35 -23t23.5 -37.5t3 -53q-11 -47 -45.5 -81.5t-83 -53t-98.5 -27t-102 -8.5l28 119q46 0 89 19t51 55q7 31 -17.5 50.5t-53.5 23.5l-28 4l60 120q-114 14 -203.5 52t-128.5 82l53 229
q78 -75 190.5 -118.5t235.5 -43.5q292 0 338 191q9 39 -0.5 69.5t-44.5 59t-76 51t-114 55.5q-66 31 -113 57t-88.5 57.5t-65.5 65t-38.5 74.5t-13.5 90.5t15 110.5q37 167 184 270t363 103z" />
    <glyph glyph-name="scedilla" unicode="&#x15f;" horiz-adv-x="894" 
d="M602 1090q89 0 165.5 -21.5t113.5 -48.5l-50 -217q-30 37 -91 63.5t-136 26.5q-166 0 -190 -94q-9 -42 18 -70t125 -93l51 -34q33 -22 56.5 -40.5t45 -41t33.5 -45t19.5 -50.5t6 -61t-10.5 -73q-14 -61 -45 -114.5t-82 -99.5t-130 -74.5t-177 -33.5l-45 -84
q5 -1 13.5 -3.5t29 -12t35 -23t23.5 -37.5t3 -53q-11 -47 -45.5 -81.5t-83.5 -53t-99 -27t-102 -8.5l29 119q45 0 88 19t51 55q7 31 -17.5 50.5t-52.5 23.5l-28 4l61 123q-56 12 -108 34.5t-76 39.5l-25 16l52 217q4 -5 12.5 -13t37 -29t59 -37t78 -29t95.5 -13
q104 0 166 30t74 83q11 54 -24.5 94.5t-127.5 99.5q-36 23 -52.5 33.5t-46 33t-42.5 38t-30.5 41t-22.5 50t-6 57t8 69.5q30 134 140.5 214.5t256.5 80.5z" />
    <glyph glyph-name="Scaron" unicode="&#x160;" horiz-adv-x="1191" 
d="M653 1532l-135 350h207l86 -170l162 170h207l-295 -350h-232zM469 -33q-161 0 -291 43.5t-182 100.5l53 229q78 -75 190.5 -118.5t235.5 -43.5q292 0 338 191q9 39 -0.5 69.5t-44.5 59t-76 51t-114 55.5q-66 31 -113 57t-88.5 57.5t-65.5 65t-38.5 74.5t-13.5 90.5
t15 110.5q37 167 184 270t363 103q98 2 198.5 -27.5t164.5 -79.5l-56 -240q-52 60 -139.5 97t-195.5 37q-118 -2 -195 -43.5t-94 -116.5q-5 -23 -6 -42t5.5 -36.5t13 -30.5t25 -28t32.5 -25t43.5 -25t50.5 -25t61 -28q58 -26 100 -48.5t81.5 -48.5t65 -52.5t45.5 -58.5
t27.5 -68t6.5 -80t-13 -96q-41 -178 -192.5 -289t-380.5 -111z" />
    <glyph glyph-name="scaron" unicode="&#x161;" horiz-adv-x="894" 
d="M526 1198l-135 350h207l86 -170l162 170h207l-295 -350h-232zM287 -31q-50 0 -101 10.5t-87 25t-65.5 29.5t-43.5 26l-15 10l52 217q4 -5 12.5 -13t37 -29t59 -37t78 -29t95.5 -13q104 0 166 30t74 83q11 54 -24.5 94.5t-127.5 99.5q-36 23 -52.5 33.5t-46 33t-42.5 38
t-30.5 41t-22.5 50t-6 57t8 69.5q30 134 140.5 214.5t256.5 80.5q89 0 165.5 -21.5t113.5 -48.5l-50 -217q-30 37 -91 63.5t-136 26.5q-166 0 -190 -94q-9 -42 18 -70t125 -93l51 -34q33 -22 56.5 -40.5t45 -41t33.5 -45t19.5 -50.5t6 -61t-10.5 -73q-15 -64 -48.5 -119
t-88.5 -102t-141 -74t-193 -27z" />
    <glyph glyph-name="uni0162" unicode="&#x162;" horiz-adv-x="1359" 
d="M281 1391h1196l-47 -209h-488l-274 -1182h-41l-62 -115q5 -1 13.5 -3.5t29.5 -12t35.5 -23t23.5 -37.5t3 -53q-11 -47 -45.5 -81.5t-83.5 -53t-99 -27t-102 -8.5l29 119q45 0 88 19t51 55q7 31 -17.5 50.5t-52.5 23.5l-28 4l71 143h-35l275 1182h-488z" />
    <glyph glyph-name="uni0163" unicode="&#x163;" horiz-adv-x="1028" 
d="M768 1087h362l-40 -180h-363l-211 -907h-57l-62 -115q5 -1 13.5 -3.5t29.5 -12t35.5 -23t23.5 -37.5t3 -53q-11 -47 -45.5 -81.5t-83.5 -53t-99 -27t-102 -8.5l29 119q45 0 88 19t51 55q7 31 -17.5 50.5t-52.5 23.5l-28 4l71 143h-18l211 907h-408l748 518z" />
    <glyph glyph-name="Tcaron" unicode="&#x164;" horiz-adv-x="1359" 
d="M795 1532l-136 350h207l86 -170l162 170h207l-295 -350h-231zM446 0l275 1182h-488l48 209h1196l-47 -209h-488l-274 -1182h-222z" />
    <glyph glyph-name="tcaron" unicode="&#x165;" horiz-adv-x="1028" 
d="M872 1108l123 319h224l-209 -319h-138zM295 0l211 907h-408l748 518l-78 -338h362l-40 -180h-363l-211 -907h-221z" />
    <glyph glyph-name="Tbar" unicode="&#x166;" horiz-adv-x="1359" 
d="M1430 1182h-488l-53 -226h244l-43 -184h-242l-180 -772h-222l181 772h-248l43 184h246l53 226h-488l48 209h1196z" />
    <glyph glyph-name="tbar" unicode="&#x167;" horiz-adv-x="1028" 
d="M1090 907h-363l-45 -190h256l-43 -185h-256l-123 -532h-221l123 532h-234l43 185h234l45 190h-408l748 518l-78 -338h362z" />
    <glyph glyph-name="Umacron" unicode="&#x16a;" horiz-adv-x="1445" 
d="M676 1563l43 184h567l-43 -184h-567zM594 -31q-127 0 -221 32t-157 100t-78.5 174t16.5 255l198 861h223l-196 -856q-19 -93 -9 -159.5t49 -109t95.5 -62.5t128.5 -20q172 0 279 84.5t149 266.5l197 856h223l-199 -861q-34 -145 -101 -254.5t-159.5 -175.5t-201.5 -98.5
t-236 -32.5z" />
    <glyph glyph-name="umacron" unicode="&#x16b;" horiz-adv-x="1249" 
d="M500 1229l43 184h567l-43 -184h-567zM496 -33q-29 0 -51.5 1t-61 5.5t-67.5 12.5t-65 24.5t-61 39.5t-47.5 58.5t-32 79.5t-8 105.5t18.5 134.5l145 631h221l-147 -637q-1 -5 -3 -14.5t-4 -36.5t0.5 -51.5t14.5 -54.5t34 -51.5t62.5 -36.5t96.5 -15q76 0 137 27t93.5 65
t54 76t28.5 65l6 27l148 637h221l-146 -631q-21 -93 -59 -167.5t-79 -121.5t-95.5 -81.5t-98.5 -51.5t-99.5 -26.5t-86 -11t-69.5 -1.5z" />
    <glyph glyph-name="Uring" unicode="&#x16e;" horiz-adv-x="1445" 
d="M948 1522q-89 0 -134.5 60.5t-25.5 148.5q20 89 95 151t164 62q88 0 134.5 -62t26.5 -151q-20 -87 -96 -148t-164 -61zM983 1669q26 0 49 18t29 44q6 28 -8.5 46.5t-40.5 18.5t-48 -18.5t-28 -46.5q-6 -26 7.5 -44t39.5 -18zM594 -31q-127 0 -221 32t-157 100t-78.5 174
t16.5 255l198 861h223l-196 -856q-19 -93 -9 -159.5t49 -109t95.5 -62.5t128.5 -20q172 0 279 84.5t149 266.5l197 856h223l-199 -861q-34 -145 -101 -254.5t-159.5 -175.5t-201.5 -98.5t-236 -32.5z" />
    <glyph glyph-name="uring" unicode="&#x16f;" horiz-adv-x="1249" 
d="M772 1188q-89 0 -134.5 60.5t-25.5 148.5q20 90 94.5 151.5t163.5 61.5q88 0 135 -62t27 -151q-20 -87 -96 -148t-164 -61zM807 1335q26 0 49 18t29 44q6 28 -8.5 46.5t-40.5 18.5t-48 -18.5t-28 -46.5q-6 -26 7.5 -44t39.5 -18zM496 -33q-29 0 -51.5 1t-61 5.5
t-67.5 12.5t-65 24.5t-61 39.5t-47.5 58.5t-32 79.5t-8 105.5t18.5 134.5l145 631h221l-147 -637q-1 -5 -3 -14.5t-4 -36.5t0.5 -51.5t14.5 -54.5t34 -51.5t62.5 -36.5t96.5 -15q76 0 137 27t93.5 65t54 76t28.5 65l6 27l148 637h221l-146 -631q-21 -93 -59 -167.5
t-79 -121.5t-95.5 -81.5t-98.5 -51.5t-99.5 -26.5t-86 -11t-69.5 -1.5z" />
    <glyph glyph-name="Uhungarumlaut" unicode="&#x170;" horiz-adv-x="1445" 
d="M674 1532l264 350h272l-329 -350h-207zM1042 1532l285 350h272l-350 -350h-207zM594 -31q-127 0 -221 32t-157 100t-78.5 174t16.5 255l198 861h223l-196 -856q-19 -93 -9 -159.5t49 -109t95.5 -62.5t128.5 -20q172 0 279 84.5t149 266.5l197 856h223l-199 -861
q-34 -145 -101 -254.5t-159.5 -175.5t-201.5 -98.5t-236 -32.5z" />
    <glyph glyph-name="uhungarumlaut" unicode="&#x171;" horiz-adv-x="1249" 
d="M498 1198l264 350h272l-329 -350h-207zM866 1198l285 350h272l-350 -350h-207zM496 -33q-29 0 -51.5 1t-61 5.5t-67.5 12.5t-65 24.5t-61 39.5t-47.5 58.5t-32 79.5t-8 105.5t18.5 134.5l145 631h221l-147 -637q-1 -5 -3 -14.5t-4 -36.5t0.5 -51.5t14.5 -54.5t34 -51.5
t62.5 -36.5t96.5 -15q76 0 137 27t93.5 65t54 76t28.5 65l6 27l148 637h221l-146 -631q-21 -93 -59 -167.5t-79 -121.5t-95.5 -81.5t-98.5 -51.5t-99.5 -26.5t-86 -11t-69.5 -1.5z" />
    <glyph glyph-name="Uogonek" unicode="&#x172;" horiz-adv-x="1445" 
d="M1268 1391h223l-199 -861q-61 -260 -219.5 -397t-386.5 -160q-87 -96 -98 -147q-9 -47 14 -67.5t90 -20.5l-43 -180q-33 0 -69 7t-75 23.5t-65 43.5t-39.5 67.5t0.5 95.5q21 88 115 178q-109 10 -188 46.5t-130.5 104.5t-62 168.5t18.5 237.5l198 861h223l-196 -856
q-19 -93 -9 -159.5t49 -109t95.5 -62.5t128.5 -20q172 0 279 84.5t149 266.5z" />
    <glyph glyph-name="uogonek" unicode="&#x173;" horiz-adv-x="1249" 
d="M1008 1059h221l-146 -631q-91 -396 -456 -453q-116 -116 -131 -182q-9 -47 14 -67.5t90 -20.5l-43 -180q-33 0 -69 7t-75 23.5t-65 43.5t-39.5 67.5t0.5 95.5q26 112 148 205q-29 1 -55 3.5t-59.5 9t-61.5 17t-58 29t-52 42t-39.5 58.5t-25 78t-4.5 100t19 124l145 631
h221l-147 -637q-1 -5 -3 -14.5t-4 -36.5t0.5 -51.5t14.5 -54.5t34 -51.5t62.5 -36.5t96.5 -15q76 0 137 27t93.5 65t54 76t28.5 65l6 27z" />
    <glyph glyph-name="Wcircumflex" unicode="&#x174;" horiz-adv-x="2117" 
d="M1329 1702l-164 -170h-207l295 350h232l135 -350h-207zM1999 1391h254l-754 -1391h-258l-57 1071l-543 -1071h-268l-111 1391h244l67 -1069l535 1069h274l56 -1072z" />
    <glyph glyph-name="wcircumflex" unicode="&#x175;" horiz-adv-x="1529" 
d="M588 1198l295 350h231l135 -350h-207l-84 170l-163 -170h-207zM330 -84l-146 1143h232l69 -610l410 653l129 -656l336 613h231l-673 -1143l-136 707z" />
    <glyph glyph-name="Ycircumflex" unicode="&#x176;" horiz-adv-x="1384" 
d="M963 1702l-164 -170h-207l295 350h231l135 -350h-206zM1255 1391h287l-721 -795l-139 -596h-225l139 596l-356 795h252l249 -576z" />
    <glyph glyph-name="ycircumflex" unicode="&#x177;" horiz-adv-x="1200" 
d="M793 1368l-164 -170h-207l295 350h231l135 -350h-206zM1026 1059h256l-1059 -1485h-260l422 573l-221 912h231l158 -676z" />
    <glyph glyph-name="Ydieresis" unicode="&#x178;" horiz-adv-x="1384" 
d="M721 1556q-47 0 -74 33.5t-16 79.5q10 47 52 81t89 34q46 0 71 -34t15 -81q-11 -46 -51 -79.5t-86 -33.5zM1114 1556q-47 0 -74 33.5t-16 79.5q10 47 52 81t89 34q46 0 71 -34t15 -81q-11 -46 -51 -79.5t-86 -33.5zM1255 1391h287l-721 -795l-139 -596h-225l139 596
l-356 795h252l249 -576z" />
    <glyph glyph-name="Zacute" unicode="&#x179;" horiz-adv-x="1400" 
d="M834 1532l264 350h272l-330 -350h-206zM31 0l49 209l1030 973h-766l47 209h1069l-47 -209l-1024 -973h825l-49 -209h-1134z" />
    <glyph glyph-name="zacute" unicode="&#x17a;" horiz-adv-x="1179" 
d="M645 1198l264 350h273l-330 -350h-207zM-20 0l34 152l805 716h-598l45 193h914l-39 -172l-783 -696h641l-45 -193h-974z" />
    <glyph glyph-name="Zdotaccent" unicode="&#x17b;" horiz-adv-x="1400" 
d="M932 1542q-52 0 -80 36t-16 89q12 54 56 90.5t97 36.5q54 0 82 -36.5t16 -90.5q-12 -53 -56.5 -89t-98.5 -36zM31 0l49 209l1030 973h-766l47 209h1069l-47 -209l-1024 -973h825l-49 -209h-1134z" />
    <glyph glyph-name="zdotaccent" unicode="&#x17c;" horiz-adv-x="1179" 
d="M743 1208q-52 0 -80 36t-16 89q12 54 56.5 90.5t97.5 36.5q54 0 82 -36.5t16 -90.5q-12 -53 -57 -89t-99 -36zM-20 0l34 152l805 716h-598l45 193h914l-39 -172l-783 -696h641l-45 -193h-974z" />
    <glyph glyph-name="Zcaron" unicode="&#x17d;" horiz-adv-x="1400" 
d="M815 1532l-135 350h207l86 -170l162 170h206l-294 -350h-232zM31 0l49 209l1030 973h-766l47 209h1069l-47 -209l-1024 -973h825l-49 -209h-1134z" />
    <glyph glyph-name="zcaron" unicode="&#x17e;" horiz-adv-x="1179" 
d="M627 1198l-135 350h206l86 -170l162 170h207l-295 -350h-231zM-20 0l34 152l805 716h-598l45 193h914l-39 -172l-783 -696h641l-45 -193h-974z" />
    <glyph glyph-name="florin" unicode="&#x192;" horiz-adv-x="1067" 
d="M-166 -434q-63 0 -114 11.5t-79.5 27.5t-47.5 32t-25 27l-6 12l45 197q3 -5 9.5 -12t29 -26.5t48 -34t68 -26.5t88.5 -12q129 0 212 77.5t124 256.5l93 398h-261l50 208h260l53 236q57 249 214 389.5t359 140.5q63 0 114.5 -11.5t79.5 -27.5t47 -32t25 -27l7 -12
l-45 -197q-3 5 -9.5 12t-28.5 26.5t-48 34t-68 26.5t-88 12q-129 0 -213 -77.5t-125 -256.5l-53 -236h354l-49 -208h-354l-92 -398q-57 -249 -214.5 -389.5t-359.5 -140.5z" />
    <glyph glyph-name="uni0218" unicode="&#x218;" horiz-adv-x="1191" 
d="M469 -33q-161 0 -291 43.5t-182 100.5l53 229q78 -75 190.5 -118.5t235.5 -43.5q292 0 338 191q9 39 -0.5 69.5t-44.5 59t-76 51t-114 55.5q-66 31 -113 57t-88.5 57.5t-65.5 65t-38.5 74.5t-13.5 90.5t15 110.5q37 167 184 270t363 103q98 2 198.5 -27.5t164.5 -79.5
l-56 -240q-52 60 -139.5 97t-195.5 37q-118 -2 -195 -43.5t-94 -116.5q-5 -23 -6 -42t5.5 -36.5t13 -30.5t25 -28t32.5 -25t43.5 -25t50.5 -25t61 -28q58 -26 100 -48.5t81.5 -48.5t65 -52.5t45.5 -58.5t27.5 -68t6.5 -80t-13 -96q-41 -178 -192.5 -289t-380.5 -111z
M35 -430l264 350h231l-329 -350h-166z" />
    <glyph glyph-name="uni0219" unicode="&#x219;" horiz-adv-x="894" 
d="M287 -31q-50 0 -101 10.5t-87 25t-65.5 29.5t-43.5 26l-15 10l52 217q4 -5 12.5 -13t37 -29t59 -37t78 -29t95.5 -13q104 0 166 30t74 83q11 54 -24.5 94.5t-127.5 99.5q-36 23 -52.5 33.5t-46 33t-42.5 38t-30.5 41t-22.5 50t-6 57t8 69.5q30 134 140.5 214.5
t256.5 80.5q89 0 165.5 -21.5t113.5 -48.5l-50 -217q-30 37 -91 63.5t-136 26.5q-166 0 -190 -94q-9 -42 18 -70t125 -93l51 -34q33 -22 56.5 -40.5t45 -41t33.5 -45t19.5 -50.5t6 -61t-10.5 -73q-15 -64 -48.5 -119t-88.5 -102t-141 -74t-193 -27zM-111 -430l265 350h231
l-330 -350h-166z" />
    <glyph glyph-name="uni021A" unicode="&#x21a;" horiz-adv-x="1359" 
d="M446 0l275 1182h-488l48 209h1196l-47 -209h-488l-274 -1182h-222zM176 -430l264 350h232l-330 -350h-166z" />
    <glyph glyph-name="uni021B" unicode="&#x21b;" horiz-adv-x="1028" 
d="M295 0l211 907h-408l748 518l-78 -338h362l-40 -180h-363l-211 -907h-221zM8 -430l264 350h232l-330 -350h-166z" />
    <glyph glyph-name="circumflex" unicode="&#x2c6;" horiz-adv-x="743" 
d="M197 1200l295 350h231l135 -350h-207l-84 170l-164 -170h-206z" />
    <glyph glyph-name="caron" unicode="&#x2c7;" horiz-adv-x="743" 
d="M412 1200l-136 350h207l86 -170l162 170h207l-295 -350h-231z" />
    <glyph glyph-name="breve" unicode="&#x2d8;" horiz-adv-x="743" 
d="M526 1200q-58 0 -104 15t-75.5 41t-49 59.5t-26.5 73.5t-6 80t11 81h207q-5 -33 -5 -70.5t23 -68.5t66 -31t80 31.5t56.5 68t27.5 70.5h207q-15 -63 -47 -122t-82 -111.5t-123.5 -84.5t-159.5 -32z" />
    <glyph glyph-name="dotaccent" unicode="&#x2d9;" horiz-adv-x="333" 
d="M317 1190q-61 0 -92.5 41.5t-17.5 103.5t65.5 105t112.5 43t95 -43t20 -105q-13 -61 -67 -103t-116 -42z" />
    <glyph glyph-name="ring" unicode="&#x2da;" horiz-adv-x="501" 
d="M401 1190q-89 0 -134 60.5t-25 148.5q20 90 94.5 151.5t163.5 61.5q88 0 135 -62t27 -151q-20 -87 -96.5 -148t-164.5 -61zM436 1337q26 0 49 18t29 44q6 28 -8.5 46.5t-40.5 18.5t-48 -18.5t-28 -46.5q-6 -26 7.5 -44t39.5 -18z" />
    <glyph glyph-name="ogonek" unicode="&#x2db;" horiz-adv-x="303" 
d="M78 -444q-33 0 -69 7t-75 23.5t-65 43.5t-39.5 67.5t0.5 95.5q9 37 29.5 74t44.5 62.5t46.5 46t37.5 30.5l14 10h156q-14 -13 -35 -34.5t-60 -72.5t-47 -85q-9 -47 14 -67.5t91 -20.5z" />
    <glyph glyph-name="tilde" unicode="&#x2dc;" horiz-adv-x="901" 
d="M752 1190q-72 0 -138 53h-2l2 2h-2q-63 55 -96 55q-10 0 -18.5 -3t-15.5 -9.5t-12 -12t-11 -17t-9 -17t-8.5 -19.5t-7.5 -18l-155 62q38 97 99.5 158t139.5 61q71 0 137 -53h2l-2 -2h2q64 -56 97 -56q10 0 18.5 3t15.5 9.5t12 12t11 17t9 17t8.5 19.5t7.5 18l155 -61
q-38 -97 -99.5 -158t-139.5 -61z" />
    <glyph glyph-name="hungarumlaut" unicode="&#x2dd;" horiz-adv-x="886" 
d="M197 1200l264 350h272l-330 -350h-206zM565 1200l285 350h272l-350 -350h-207z" />
    <glyph glyph-name="gravecomb" unicode="&#x300;" 
d="M-92 1200l-170 350h272l105 -350h-207z" />
    <glyph glyph-name="acutecomb" unicode="&#x301;" 
d="M-342 1200l264 350h273l-330 -350h-207z" />
    <glyph glyph-name="uni0302" unicode="&#x302;" 
d="M-547 1200l295 350h232l135 -350h-207l-84 170l-164 -170h-207z" />
    <glyph glyph-name="tildecomb" unicode="&#x303;" 
d="M-150 1190q-71 0 -137 53h-2l2 2h-2q-63 55 -96 55q-10 0 -18.5 -3t-15.5 -9.5t-12 -12t-11 -17t-9 -17t-8.5 -19.5t-7.5 -18l-156 62q38 97 99.5 158t140.5 61q71 0 137 -53h2l-2 -2h2q64 -56 97 -56q11 0 21 5t16.5 10t14 18t10.5 19t10 23t9 21l156 -61
q-38 -97 -99.5 -158t-140.5 -61z" />
    <glyph glyph-name="uni0304" unicode="&#x304;" 
d="M-426 1231l43 184h567l-43 -184h-567z" />
    <glyph glyph-name="uni0306" unicode="&#x306;" 
d="M-217 1200q-58 0 -104 15t-75.5 41t-49 59.5t-26.5 73.5t-6 80t11 81h207q-5 -33 -5 -70.5t23 -68.5t66 -31t80 31.5t56.5 68t27.5 70.5h207q-15 -63 -47 -122t-82 -111.5t-123.5 -84.5t-159.5 -32z" />
    <glyph glyph-name="uni0307" unicode="&#x307;" 
d="M-10 1210q-52 0 -80 36t-16 89q12 54 56 90.5t97 36.5q54 0 82 -36.5t16 -90.5q-12 -53 -56.5 -89t-98.5 -36z" />
    <glyph glyph-name="uni0308" unicode="&#x308;" 
d="M-385 1225q-47 0 -73.5 33t-16.5 79q10 47 52 81t89 34q46 0 71 -34t15 -81q-11 -46 -51 -79t-86 -33zM8 1225q-47 0 -73.5 33t-16.5 79q10 47 52 81t89 34q46 0 71 -34t15 -81q-11 -46 -51 -79t-86 -33z" />
    <glyph glyph-name="uni030A" unicode="&#x30a;" 
d="M-100 1190q-89 0 -134.5 60.5t-25.5 148.5q20 90 94.5 151.5t163.5 61.5q88 0 135 -62t27 -151q-20 -87 -96 -148t-164 -61zM-66 1337q26 0 49 18t29 44q6 28 -8.5 46.5t-40.5 18.5t-48 -18.5t-28 -46.5q-6 -26 7.5 -44t39.5 -18z" />
    <glyph glyph-name="uni030B" unicode="&#x30b;" 
d="M-690 1200l264 350h272l-329 -350h-207zM-322 1200l285 350h273l-351 -350h-207z" />
    <glyph glyph-name="uni030C" unicode="&#x30c;" 
d="M-332 1200l-135 350h207l86 -170l162 170h207l-295 -350h-232z" />
    <glyph glyph-name="uni0312" unicode="&#x312;" 
d="M-213 1200l330 350h207l-265 -350h-272z" />
    <glyph glyph-name="uni0326" unicode="&#x326;" 
d="M-662 -414l265 351h231l-330 -351h-166z" />
    <glyph glyph-name="uni0327" unicode="&#x327;" 
d="M-514 -442l29 118q45 0 88 19t51 55q7 31 -17.5 50.5t-52.5 23.5l-28 4l71 143h146l-62 -114q5 -1 13.5 -3.5t29.5 -12t35.5 -23t23.5 -37.5t3 -53q-11 -47 -45.5 -81.5t-83.5 -53t-99 -27t-102 -8.5z" />
    <glyph glyph-name="uni0328" unicode="&#x328;" 
d="M-225 -444q-33 0 -69 7t-75 23.5t-65 43.5t-39.5 67.5t0.5 95.5q9 37 29.5 74t44.5 62.5t46.5 46t36.5 30.5l15 10h156q-14 -13 -35 -34.5t-60 -72.5t-47 -85q-9 -47 14 -67.5t91 -20.5z" />
    <glyph glyph-name="uni0335" unicode="&#x335;" 
d="M-752 532l43 185h711l-43 -185h-711z" />
    <glyph glyph-name="uni0336" unicode="&#x336;" 
d="M-1190 975l43 184h1395l-43 -184h-1395z" />
    <glyph glyph-name="uni0337" unicode="&#x337;" 
d="M-700 225l-54 140l734 489l55 -139z" />
    <glyph glyph-name="uni0338" unicode="&#x338;" 
d="M-1528 -31l-123 160l1700 1303l123 -160z" />
    <glyph glyph-name="uni037E" unicode="&#x37e;" horiz-adv-x="856" 
d="M485 653q-70 0 -106 46.5t-21 117.5q18 69 75.5 116.5t127.5 47.5q68 0 105 -48.5t20 -115.5q-15 -70 -74 -117t-127 -47zM-84 -309l307 524h273l-371 -524h-209z" />
    <glyph glyph-name="tonos" unicode="&#x384;" horiz-adv-x="854" 
d="M182 1231l47 205h813l-47 -205h-813z" />
    <glyph glyph-name="dieresistonos" unicode="&#x385;" horiz-adv-x="702" 
d="M313 1591l47 205h568l-47 -205h-568zM317 1225q-47 0 -73.5 33t-16.5 79q10 47 52.5 81t89.5 34q46 0 71 -34t15 -81q-10 -46 -51 -79t-87 -33zM711 1225q-47 0 -73.5 33t-16.5 79q10 47 52 81t89 34q46 0 71 -34t15 -81q-11 -46 -51 -79t-86 -33z" />
    <glyph glyph-name="Alphatonos" unicode="&#x386;" horiz-adv-x="1536" 
d="M1534 1882l-412 -350h-207l347 350h272zM858 1391h215l297 -1391h-260l-57 330h-656l-215 -330h-262zM532 539h486l-109 569z" />
    <glyph glyph-name="Epsilontonos" unicode="&#x388;" horiz-adv-x="1314" 
d="M1432 1882l-412 -350h-207l346 350h273zM1399 1391l-47 -209h-795l-78 -336h633l-49 -209h-631l-98 -428h805l-49 -209h-1029l322 1391h1016z" />
    <glyph glyph-name="Etatonos" unicode="&#x389;" horiz-adv-x="1544" 
d="M1544 1882l-411 -350h-207l346 350h272zM1335 1391h224l-322 -1391h-223l147 637h-729l-147 -637h-224l322 1391h223l-127 -545h729z" />
    <glyph glyph-name="Iotatonos" unicode="&#x38a;" horiz-adv-x="591" 
d="M453 1532l346 350h272l-412 -350h-206zM61 0l322 1391h223l-321 -1391h-224z" />
    <glyph glyph-name="Omicrontonos" unicode="&#x38c;" horiz-adv-x="1644" 
d="M979 1532l346 350h272l-411 -350h-207zM692 -31q-105 -1 -196.5 24.5t-160 73t-120.5 114.5t-77 148.5t-29 174.5t22 192q32 147 117.5 281.5t204 233.5t269.5 156.5t306 55.5q104 1 195.5 -24.5t160.5 -73t121 -114.5t77.5 -148.5t30 -174.5t-21.5 -192
q-32 -147 -118 -281.5t-205 -233.5t-270 -156.5t-306 -55.5zM741 180q226 0 396.5 146t222.5 370q34 146 0.5 263t-132.5 186t-249 69q-223 0 -395 -147.5t-224 -370.5q-34 -146 0 -263t133.5 -185t247.5 -68z" />
    <glyph glyph-name="Upsilontonos" unicode="&#x38e;" horiz-adv-x="1384" 
d="M1466 1882l-411 -350h-207l346 350h272zM1255 1391h287l-721 -795l-139 -596h-225l139 596l-356 795h252l249 -576z" />
    <glyph glyph-name="Omegatonos" unicode="&#x38f;" horiz-adv-x="1626" 
d="M969 1532l346 350h272l-411 -350h-207zM-41 0l49 209h271q-110 90 -146.5 236t-1.5 294q45 197 176.5 354t318.5 243.5t394 86.5q155 0 279 -50.5t199 -141t103 -216.5t-8 -276q-36 -149 -139.5 -294.5t-253.5 -235.5h270l-49 -209h-606l49 209q176 56 313.5 193.5
t184.5 336.5q49 217 -59 346t-332 129q-225 0 -392.5 -129t-216.5 -346q-47 -198 27.5 -335.5t224.5 -194.5l-49 -209h-606z" />
    <glyph glyph-name="iotadieresistonos" unicode="&#x390;" horiz-adv-x="548" 
d="M236 1589l47 205h567l-47 -205h-567zM240 1223q-47 0 -73.5 33t-16.5 79q10 47 52 81t89 34q46 0 71 -34t15 -81q-11 -46 -51 -79t-86 -33zM633 1223q-47 0 -73.5 33t-16.5 79q10 47 52 81t89 34q46 0 71 -34t15 -81q-11 -46 -51 -79t-86 -33zM41 0l246 1059h221
l-246 -1059h-221z" />
    <glyph glyph-name="Alpha" unicode="&#x391;" horiz-adv-x="1490" 
d="M-111 0l938 1391h234l295 -1391h-260l-60 330h-680l-215 -330h-252zM487 539h517l-115 614z" />
    <glyph glyph-name="Beta" unicode="&#x392;" horiz-adv-x="1384" 
d="M61 0l322 1391h569q225 0 319 -86t52 -273q-28 -116 -107.5 -187t-183.5 -89q135 -15 195.5 -107t29.5 -227q-25 -110 -82 -193t-136.5 -132t-172 -73t-198.5 -24h-607zM475 836h309q36 0 61.5 1.5t62 6.5t63 17.5t54 31.5t46.5 50.5t29 72.5q6 24 6.5 45t-4.5 36.5
t-11.5 28t-20 21t-24.5 15t-30.5 10t-32.5 6t-36 3.5t-35 1h-35h-322zM330 209h370q272 0 322 217q6 35 7.5 62.5t-8 49t-21 37t-31 26.5t-38 18t-43 11t-45 5.5t-44.5 1.5h-371z" />
    <glyph glyph-name="Gamma" unicode="&#x393;" horiz-adv-x="1339" 
d="M61 0l322 1391h1032l-47 -209h-811l-274 -1182h-222z" />
    <glyph glyph-name="uni0394" unicode="&#x394;" horiz-adv-x="1519" 
d="M-80 0l922 1391h233l279 -1391h-1434zM309 209h748l-154 944z" />
    <glyph glyph-name="Epsilon" unicode="&#x395;" horiz-adv-x="1325" 
d="M61 0l322 1391h1016l-47 -209h-795l-78 -336h633l-49 -209h-633l-98 -428h807l-49 -209h-1029z" />
    <glyph glyph-name="Zeta" unicode="&#x396;" horiz-adv-x="1257" 
d="M-61 0l49 209l1048 973h-784l47 209h1069l-47 -209l-1045 -973h846l-49 -209h-1134z" />
    <glyph glyph-name="Eta" unicode="&#x397;" horiz-adv-x="1540" 
d="M61 0l322 1391h223l-125 -545h725l125 545h223l-321 -1391h-223l147 637h-725l-147 -637h-224z" />
    <glyph glyph-name="Theta" unicode="&#x398;" horiz-adv-x="1624" 
d="M682 -31q-128 0 -234.5 37t-178 103.5t-116.5 157.5t-51 199.5t19 229.5q34 149 118 282.5t201 231.5t267.5 155.5t310.5 57.5q107 0 199.5 -26t161 -73.5t119 -114t75 -147t29 -173.5t-20.5 -193q-34 -149 -118.5 -282.5t-201.5 -231.5t-268 -155.5t-311 -57.5zM399 842
h965q-2 168 -105 270t-290 102t-338.5 -102t-231.5 -270zM731 180q210 0 372.5 127t227.5 326h-993q-25 -199 79 -326t314 -127z" />
    <glyph glyph-name="Iota" unicode="&#x399;" horiz-adv-x="591" 
d="M61 0l322 1391h223l-321 -1391h-224z" />
    <glyph glyph-name="Kappa" unicode="&#x39a;" horiz-adv-x="1404" 
d="M1567 1391l-738 -576l416 -815h-248l-344 676l-262 -203l-108 -473h-222l322 1391h221l-145 -629l796 629h312z" />
    <glyph glyph-name="Lambda" unicode="&#x39b;" horiz-adv-x="1488" 
d="M-80 0l909 1391h234l260 -1391h-260l-172 1153l-719 -1153h-252z" />
    <glyph glyph-name="Mu" unicode="&#x39c;" horiz-adv-x="1701" 
d="M61 0l322 1391h281l239 -621l535 621h278l-321 -1391h-221l251 1085l-471 -546h-206l-213 546l-252 -1085h-222z" />
    <glyph glyph-name="Nu" unicode="&#x39d;" horiz-adv-x="1579" 
d="M61 0l322 1391h246l501 -1045l242 1045h221l-321 -1391h-246l-498 1063l-245 -1063h-222z" />
    <glyph glyph-name="Xi" unicode="&#x39e;" horiz-adv-x="1441" 
d="M305 1182l47 209h1135l-47 -209h-1135zM283 616l47 209h919l-47 -209h-919zM0 0l49 209h1196l-49 -209h-1196z" />
    <glyph glyph-name="Omicron" unicode="&#x39f;" horiz-adv-x="1624" 
d="M684 -31q-107 0 -199.5 26t-161 73.5t-119 114t-75 147t-29 173.5t20.5 193q34 149 118.5 282.5t201.5 231.5t268 155.5t311 57.5q128 0 234.5 -37t178 -103.5t116.5 -157.5t51 -199.5t-19 -229.5q-34 -149 -118 -282.5t-201 -231.5t-267.5 -155.5t-310.5 -57.5zM733 180
q226 0 396.5 147t222.5 369q33 145 0.5 262t-131.5 186.5t-250 69.5q-114 0 -218 -40.5t-183.5 -110.5t-136 -164.5t-81.5 -202.5q-28 -108 -13 -202.5t61.5 -164t132.5 -109.5t200 -40z" />
    <glyph glyph-name="Pi" unicode="&#x3a0;" horiz-adv-x="1490" 
d="M61 0l322 1391h1122l-321 -1391h-221l274 1182h-680l-274 -1182h-222z" />
    <glyph glyph-name="Rho" unicode="&#x3a1;" horiz-adv-x="1409" 
d="M61 0l322 1391h610q252 0 362 -135.5t56 -372.5q-55 -234 -234 -371t-421 -137h-385l-88 -375h-222zM416 580h377q320 0 387 299q71 303 -248 303h-377z" />
    <glyph glyph-name="Sigma" unicode="&#x3a3;" horiz-adv-x="1220" 
d="M0 0l47 199l651 487l-422 506l46 199h1001l-47 -209h-717l352 -408l-41 -176l-516 -389h721l-49 -209h-1026z" />
    <glyph glyph-name="Tau" unicode="&#x3a4;" horiz-adv-x="1318" 
d="M426 0l274 1182h-487l47 209h1196l-47 -209h-487l-275 -1182h-221z" />
    <glyph glyph-name="Upsilon" unicode="&#x3a5;" horiz-adv-x="1384" 
d="M1255 1391h287l-721 -795l-139 -596h-225l139 596l-356 795h252l249 -576z" />
    <glyph glyph-name="Phi" unicode="&#x3a6;" horiz-adv-x="1624" 
d="M682 -31q-128 0 -234.5 37t-178 103.5t-116.5 157.5t-51 199.5t19 229.5q34 149 118 282.5t201 231.5t267.5 155.5t310.5 57.5q107 0 199.5 -26t161 -73.5t119 -114t75 -147t29 -173.5t-20.5 -193q-34 -149 -118.5 -282.5t-201.5 -231.5t-268 -155.5t-311 -57.5zM629 188
l233 1016q-191 -33 -329 -173t-183 -335q-27 -130 -7 -235t94.5 -178t191.5 -95zM838 188q190 33 328.5 173.5t183.5 334.5q45 195 -29 335t-250 173z" />
    <glyph glyph-name="Chi" unicode="&#x3a7;" horiz-adv-x="1456" 
d="M1554 1391l-653 -662l369 -729h-271l-262 526l-489 -526h-307l696 733l-344 658h270l230 -471l454 471h307z" />
    <glyph glyph-name="Psi" unicode="&#x3a8;" horiz-adv-x="1472" 
d="M502 0l71 311q-209 31 -308 173.5t-44 379.5l121 527h223l-121 -525q-32 -137 21.5 -221.5t159.5 -114.5l198 861h224l-199 -861q121 30 212.5 114.5t123.5 221.5l121 525h223l-121 -527q-37 -159 -128 -279t-213.5 -187t-268.5 -87l-72 -311h-223z" />
    <glyph glyph-name="uni03A9" unicode="&#x3a9;" horiz-adv-x="1626" 
d="M-41 0l49 209h271q-110 90 -146.5 236t-1.5 294q45 197 176.5 354t318.5 243.5t394 86.5q155 0 279 -50.5t199 -141t103 -216.5t-8 -276q-36 -149 -139.5 -294.5t-253.5 -235.5h270l-49 -209h-606l49 209q176 56 313.5 193.5t184.5 336.5q49 217 -59 346t-332 129
q-225 0 -392.5 -129t-216.5 -346q-47 -198 27.5 -335.5t224.5 -194.5l-49 -209h-606z" />
    <glyph glyph-name="Iotadieresis" unicode="&#x3aa;" horiz-adv-x="591" 
d="M340 1556q-47 0 -74 33.5t-16 79.5q10 47 52 81t89 34q46 0 71 -34t15 -81q-11 -46 -51 -79.5t-86 -33.5zM733 1556q-47 0 -74 33.5t-16 79.5q10 47 52 81t89 34q46 0 71 -34t15 -81q-11 -46 -51 -79.5t-86 -33.5zM61 0l322 1391h223l-321 -1391h-224z" />
    <glyph glyph-name="Upsilondieresis" unicode="&#x3ab;" horiz-adv-x="1384" 
d="M735 1556q-47 0 -74 33.5t-16 79.5q10 47 52 81t89 34q46 0 71 -34t15 -81q-11 -46 -51 -79.5t-86 -33.5zM1128 1556q-47 0 -74 33.5t-16 79.5q10 47 52.5 81t89.5 34q46 0 71 -34t15 -81q-11 -46 -51.5 -79.5t-86.5 -33.5zM1255 1391h287l-721 -795l-139 -596h-225
l139 596l-356 795h252l249 -576z" />
    <glyph glyph-name="alphatonos" unicode="&#x3ac;" horiz-adv-x="1384" 
d="M731 1198l346 350h273l-412 -350h-207zM524 -31q-159 0 -273.5 75.5t-159.5 204t-9 281.5t140 281.5t252.5 203.5t307.5 75q64 0 132 -18t129 -60.5t81 -100.5l41 150h219l-190 -529q-58 -260 -55 -536h-219q-3 52 8 127q-76 -80 -190 -117t-214 -37zM567 166
q154 0 277 97.5t162 266.5q39 167 -39 265t-232 98q-147 0 -274 -106t-162 -257t43 -257.5t225 -106.5z" />
    <glyph glyph-name="epsilontonos" unicode="&#x3ad;" horiz-adv-x="997" 
d="M616 1198l347 350h272l-412 -350h-207zM412 -31q-139 0 -232.5 31.5t-136.5 102.5t-18 176q9 40 31.5 80t59 80.5t95.5 72.5t131 47q-86 9 -134 81t-26 161q30 133 167 211t321 78q220 0 325 -80l-45 -201q-33 28 -123.5 56t-177.5 28q-237 0 -264 -117
q-16 -68 28.5 -99.5t133.5 -31.5h164l-41 -180h-195q-80 0 -146.5 -41t-80.5 -109q-10 -43 4.5 -74t49 -47t75.5 -23t92 -7q81 0 177.5 27.5t153.5 54.5l56 28l-47 -204q-64 -42 -186.5 -71.5t-210.5 -29.5z" />
    <glyph glyph-name="etatonos" unicode="&#x3ae;" horiz-adv-x="1284" 
d="M735 1198l346 350h273l-412 -350h-207zM696 -440l246 1069q29 126 -18 196t-156 70q-59 0 -116.5 -19t-108 -55.5t-88.5 -94.5t-54 -130l-139 -596h-221l246 1061h221l-31 -133q4 7 13 18t42 39t72 50t104 39.5t138 17.5q185 0 278.5 -115.5t44.5 -325.5l-251 -1091h-222
z" />
    <glyph glyph-name="iotatonos" unicode="&#x3af;" horiz-adv-x="548" 
d="M352 1198l346 350h273l-412 -350h-207zM41 0l246 1059h221l-246 -1059h-221z" />
    <glyph glyph-name="upsilondieresistonos" unicode="&#x3b0;" horiz-adv-x="1249" 
d="M586 1589l47 205h567l-47 -205h-567zM590 1223q-47 0 -73.5 33t-16.5 79q10 47 52 81t89 34q46 0 71 -34t15 -81q-11 -46 -51 -79t-86 -33zM983 1223q-47 0 -73.5 33t-16.5 79q10 47 52 81t89 34q46 0 71 -34t15 -81q-11 -46 -51 -79t-86 -33zM496 -33q-29 0 -51.5 1
t-61 5.5t-67.5 12.5t-65 24.5t-61 39.5t-47.5 58.5t-32 79.5t-8 105.5t18.5 134.5l145 631h221l-149 -641q-3 -12 -5 -26t-2 -40.5t4.5 -50t18.5 -50t36 -45.5t61 -31.5t90 -12.5q70 0 127.5 24t90 55t56.5 72t31.5 63.5t11.5 41.5l150 641h221l-146 -631
q-21 -93 -59 -167.5t-79 -121.5t-95.5 -81.5t-98.5 -51.5t-99.5 -26.5t-86 -11t-69.5 -1.5z" />
    <glyph glyph-name="alpha" unicode="&#x3b1;" horiz-adv-x="1384" 
d="M524 -31q-159 0 -273.5 75.5t-159.5 204t-9 281.5t140 281.5t252.5 203.5t307.5 75q64 0 132 -18t129 -60.5t81 -100.5l41 150h219l-190 -529q-58 -260 -55 -536h-219q-3 52 8 127q-76 -80 -190 -117t-214 -37zM567 166q154 0 277 97.5t162 266.5q39 167 -39 265t-232 98
q-147 0 -274 -106t-162 -257t43 -257.5t225 -106.5z" />
    <glyph glyph-name="beta" unicode="&#x3b2;" horiz-adv-x="1243" 
d="M-61 -442l321 1388q52 219 206 351.5t368 132.5q205 0 290.5 -97t44.5 -278q-28 -120 -118 -202t-211 -99q144 -32 221.5 -132t46.5 -233q-31 -132 -117.5 -227.5t-203 -142t-248.5 -46.5t-260 72l-7 4l-114 -491h-219zM584 164q42 0 84 10.5t86.5 33.5t78.5 68t48 107
q19 79 -12.5 139.5t-92 89.5t-135.5 29h-35l43 186q46 0 92 11.5t91.5 36.5t80 71t48.5 107q23 99 -21.5 147.5t-146.5 48.5q-99 0 -189 -75t-121 -207l-159 -699q30 -41 99 -72.5t161 -31.5z" />
    <glyph glyph-name="gamma" unicode="&#x3b3;" horiz-adv-x="1060" 
d="M907 1059h256l-643 -1059l-102 -442h-225l102 442l-152 1059h232l82 -793z" />
    <glyph glyph-name="delta" unicode="&#x3b4;" horiz-adv-x="1101" 
d="M442 -31q-100 0 -182.5 37t-132 101t-70 150.5t3.5 184.5q41 178 192.5 311t338.5 158l-236 297l41 181h797l-41 -181h-526l317 -397q70 -67 96 -163.5t0 -205.5q-44 -196 -219 -334.5t-379 -138.5zM487 166q112 0 206 80t120 196q26 115 -30.5 196t-168.5 81
q-111 0 -204.5 -81t-120.5 -196q-26 -116 30 -196t168 -80z" />
    <glyph glyph-name="epsilon" unicode="&#x3b5;" horiz-adv-x="997" 
d="M412 -31q-139 0 -232.5 31.5t-136.5 102.5t-18 176q9 40 31.5 80t59 80.5t95.5 72.5t131 47q-86 9 -134 81t-26 161q30 133 167 211t321 78q220 0 325 -80l-45 -201q-33 28 -123.5 56t-177.5 28q-237 0 -264 -117q-16 -68 28.5 -99.5t133.5 -31.5h164l-41 -180h-195
q-80 0 -146.5 -41t-80.5 -109q-10 -43 4.5 -74t49 -47t75.5 -23t92 -7q81 0 177.5 27.5t153.5 54.5l56 28l-47 -204q-64 -42 -186.5 -71.5t-210.5 -29.5z" />
    <glyph glyph-name="zeta" unicode="&#x3b6;" horiz-adv-x="966" 
d="M438 -442l97 411q-98 0 -179.5 28.5t-137 79.5t-91 121t-40 153.5t14.5 176.5q22 96 69 184t106.5 157.5t138 134t154.5 112.5t165 94h-413l40 181h719l-41 -181q-187 -97 -318 -185t-212 -171.5t-123.5 -160t-62.5 -165.5q-19 -84 -3 -152t56.5 -116.5t99 -75
t123.5 -26.5q36 0 65 3t52.5 10t36.5 12t32.5 14.5t24.5 11.5l-152 -651h-221z" />
    <glyph glyph-name="eta" unicode="&#x3b7;" horiz-adv-x="1284" 
d="M696 -440l246 1069q29 126 -18 196t-156 70q-59 0 -116.5 -19t-108 -55.5t-88.5 -94.5t-54 -130l-139 -596h-221l246 1061h221l-31 -133q4 7 13 18t42 39t72 50t104 39.5t138 17.5q185 0 278.5 -115.5t44.5 -325.5l-251 -1091h-222z" />
    <glyph glyph-name="theta" unicode="&#x3b8;" horiz-adv-x="1142" 
d="M442 -31q-123 0 -202.5 55.5t-110.5 156t-27.5 229t39.5 286.5t93 287.5t135 229t182.5 155t226.5 55.5q99 0 170 -36.5t109.5 -101t53 -156.5t6 -199.5t-37.5 -233.5q-36 -158 -92.5 -286.5t-134 -229t-182.5 -156t-228 -55.5zM387 829h506q10 52 14.5 95.5t5.5 92.5
t-9 86t-29 68t-54.5 47.5t-85.5 16.5q-60 0 -111 -25t-86.5 -63t-65.5 -94.5t-49 -108.5t-36 -115zM485 158q49 0 92.5 17.5t76 44t61.5 69t48 82t38 94t29.5 93t23.5 91.5h-510q-12 -51 -20 -91t-14.5 -93.5t-5.5 -93.5t10.5 -82t29.5 -69t55.5 -44.5t85.5 -17.5z" />
    <glyph glyph-name="iota" unicode="&#x3b9;" horiz-adv-x="548" 
d="M41 0l246 1059h221l-246 -1059h-221z" />
    <glyph glyph-name="kappa" unicode="&#x3ba;" horiz-adv-x="1118" 
d="M1178 1059l-463 -395l280 -664h-241l-207 528l-203 -172l-82 -356h-221l246 1059h221l-100 -434l497 434h273z" />
    <glyph glyph-name="lambda" unicode="&#x3bb;" horiz-adv-x="1175" 
d="M754 1391l260 -1387h-232l-133 797l-497 -797h-232l674 1067l-51 320h211z" />
    <glyph glyph-name="uni03BC" unicode="&#x3bc;" horiz-adv-x="1288" 
d="M-61 -442l348 1501h221l-131 -565q-31 -137 12.5 -218t175.5 -81q262 0 330 299l131 565h221l-246 -1059h-221l37 160q-7 -11 -17.5 -25t-40.5 -40t-66 -46t-95 -35.5t-127 -15.5q-62 0 -116 26.5t-68 75.5l-127 -542h-221z" />
    <glyph glyph-name="nu" unicode="&#x3bd;" horiz-adv-x="1101" 
d="M932 1055h250l-664 -1055h-180l-176 1055h225l100 -715z" />
    <glyph glyph-name="xi" unicode="&#x3be;" horiz-adv-x="997" 
d="M471 -442l98 419q-75 -10 -131 -10q-232 0 -332 115.5t-59 300.5q32 138 151.5 235.5t256.5 126.5q-83 27 -133.5 117t-24.5 203q35 148 166.5 252t310.5 104q108 0 169.5 -25t107.5 -73l-45 -199q-3 3 -27.5 24t-33 27t-33.5 21.5t-43.5 21t-48.5 11.5t-62 6
q-98 0 -162 -48t-82 -128q-24 -99 26 -171.5t171 -72.5h127l-41 -180h-142q-163 0 -257.5 -67t-123.5 -187q-22 -96 28.5 -156.5t180.5 -60.5q98 0 206 15.5t155 35.5l-154 -657h-219z" />
    <glyph glyph-name="omicron" unicode="&#x3bf;" horiz-adv-x="1323" 
d="M532 -31q-158 0 -274.5 75t-163.5 203.5t-12 280.5t142 281.5t258 205t309 75.5t274.5 -75.5t163.5 -205t12 -281.5t-142 -280.5t-258 -203.5t-309 -75zM578 168q155 0 281.5 104.5t162.5 255.5q36 152 -43 257.5t-234 105.5t-281.5 -105t-162.5 -258q-36 -151 43 -255.5
t234 -104.5z" />
    <glyph glyph-name="pi" unicode="&#x3c0;" horiz-adv-x="1331" 
d="M186 0l203 879h-227l43 180h1167l-43 -180h-221l-203 -879h-221l203 879h-277l-202 -879h-222z" />
    <glyph glyph-name="rho" unicode="&#x3c1;" horiz-adv-x="1355" 
d="M-82 -442l217 936q61 267 253.5 431.5t463.5 164.5q153 0 262.5 -75t152.5 -204t7 -281q-55 -235 -249 -398t-433 -163q-104 0 -193 33.5t-131 114.5l-129 -559h-221zM643 166q145 0 259.5 105t150.5 259t-30.5 258.5t-211.5 104.5q-101 0 -193.5 -42t-163 -126
t-96.5 -195q-38 -167 45.5 -265.5t239.5 -98.5z" />
    <glyph glyph-name="uni03C2" unicode="&#x3c2;" horiz-adv-x="1101" 
d="M274 -459l45 197q75 0 126.5 4.5t97.5 17t72.5 37.5t35.5 64q12 57 -29 82.5t-130 25.5q-104 0 -186 28.5t-133 79.5t-80.5 121t-29.5 153.5t19 176.5q55 236 255.5 399t453.5 163q165 0 278 -70l-49 -213q-108 88 -275 88q-154 0 -280 -107t-162 -260
q-38 -164 25.5 -264t208.5 -100q79 0 144 -18.5t113.5 -54.5t68 -97.5t1.5 -140.5q-72 -312 -590 -312z" />
    <glyph glyph-name="sigma" unicode="&#x3c3;" horiz-adv-x="1372" 
d="M520 -31q-165 0 -279 71.5t-156.5 196t-6.5 277.5q18 76 54.5 150.5t97.5 146.5t138.5 126.5t184 88t227.5 33.5h613l-43 -180h-269q48 -14 80 -47t46 -72.5t17.5 -86.5t-0.5 -85.5t-12 -73.5q-55 -235 -248.5 -390t-443.5 -155zM565 168q165 0 280 96.5t150 249.5
q36 152 -38.5 250t-229.5 98q-166 0 -280 -96.5t-150 -251.5q-35 -154 35 -250t233 -96z" />
    <glyph glyph-name="tau" unicode="&#x3c4;" horiz-adv-x="1148" 
d="M344 0l203 879h-385l43 180h985l-43 -180h-379l-203 -879h-221z" />
    <glyph glyph-name="upsilon" unicode="&#x3c5;" horiz-adv-x="1249" 
d="M496 -33q-29 0 -51.5 1t-61 5.5t-67.5 12.5t-65 24.5t-61 39.5t-47.5 58.5t-32 79.5t-8 105.5t18.5 134.5l145 631h221l-149 -641q-3 -12 -5 -26t-2 -40.5t4.5 -50t18.5 -50t36 -45.5t61 -31.5t90 -12.5q70 0 127.5 24t90 55t56.5 72t31.5 63.5t11.5 41.5l150 641h221
l-146 -631q-21 -93 -59 -167.5t-79 -121.5t-95.5 -81.5t-98.5 -51.5t-99.5 -26.5t-86 -11t-69.5 -1.5z" />
    <glyph glyph-name="phi" unicode="&#x3c6;" horiz-adv-x="1523" 
d="M424 -442l96 411q-116 2 -211 44.5t-153.5 115t-82 171t4.5 212.5q48 203 208 343t367 185l-45 -194q-255 -87 -311 -334q-34 -146 41.5 -242.5t226.5 -101.5l205 887q104 6 215 6q102 0 187 -28t142.5 -77.5t94.5 -118.5t42.5 -151.5t-13.5 -175.5q-35 -148 -147 -273
t-259 -195.5t-291 -72.5l-96 -411h-221zM786 168q155 3 277 99.5t156 244.5q40 176 -34.5 271t-232.5 98z" />
    <glyph glyph-name="chi" unicode="&#x3c7;" horiz-adv-x="1075" 
d="M1130 1059l-491 -694l211 -807h-242l-145 606l-426 -606h-262l587 819l-172 682h240l113 -486l325 486h262z" />
    <glyph glyph-name="psi" unicode="&#x3c8;" horiz-adv-x="1468" 
d="M399 -442l97 409q-25 0 -51 2t-61 8t-66.5 16.5t-65 28.5t-59.5 41.5t-47.5 59t-32 78.5t-9.5 101t17 126l145 631h221l-149 -641q-3 -12 -5 -26t-2 -40.5t4.5 -50t18.5 -50t36 -45.5t61 -31.5t90 -12.5l207 897h221l-207 -897q116 3 203 73t114 187l148 637h221
l-145 -631q-20 -86 -56 -156.5t-78.5 -117t-95 -82t-100 -55t-99.5 -31.5t-87.5 -15.5t-69.5 -3.5l-96 -409h-222z" />
    <glyph glyph-name="omega" unicode="&#x3c9;" horiz-adv-x="1396" 
d="M297 -33q-157 0 -211.5 166t14.5 475q26 116 70 229t75 167l31 55h213q-114 -232 -167 -457q-99 -440 43 -440q73 0 121 65t81 213l86 377h221l-86 -377q-33 -149 -15 -213.5t91 -64.5q44 0 83.5 41.5t70 112t51.5 139t39 147.5q50 211 45 457h213q3 -21 5.5 -59.5
t-5 -157t-33.5 -234.5q-71 -304 -203 -472.5t-288 -168.5q-99 0 -158.5 57t-69.5 142q-49 -85 -133.5 -142t-183.5 -57z" />
    <glyph glyph-name="iotadieresis" unicode="&#x3ca;" horiz-adv-x="548" 
d="M240 1223q-47 0 -73.5 33t-16.5 79q10 47 52 81t89 34q46 0 71 -34t15 -81q-11 -46 -51 -79t-86 -33zM633 1223q-47 0 -73.5 33t-16.5 79q10 47 52 81t89 34q46 0 71 -34t15 -81q-11 -46 -51 -79t-86 -33zM41 0l246 1059h221l-246 -1059h-221z" />
    <glyph glyph-name="upsilondieresis" unicode="&#x3cb;" horiz-adv-x="1249" 
d="M590 1223q-47 0 -73.5 33t-16.5 79q10 47 52 81t89 34q46 0 71 -34t15 -81q-11 -46 -51 -79t-86 -33zM983 1223q-47 0 -73.5 33t-16.5 79q10 47 52 81t89 34q46 0 71 -34t15 -81q-11 -46 -51 -79t-86 -33zM496 -33q-29 0 -51.5 1t-61 5.5t-67.5 12.5t-65 24.5t-61 39.5
t-47.5 58.5t-32 79.5t-8 105.5t18.5 134.5l145 631h221l-149 -641q-3 -12 -5 -26t-2 -40.5t4.5 -50t18.5 -50t36 -45.5t61 -31.5t90 -12.5q70 0 127.5 24t90 55t56.5 72t31.5 63.5t11.5 41.5l150 641h221l-146 -631q-21 -93 -59 -167.5t-79 -121.5t-95.5 -81.5t-98.5 -51.5
t-99.5 -26.5t-86 -11t-69.5 -1.5z" />
    <glyph glyph-name="omicrontonos" unicode="&#x3cc;" horiz-adv-x="1323" 
d="M739 1198l346 350h273l-412 -350h-207zM532 -31q-158 0 -274.5 75t-163.5 203.5t-12 280.5t142 281.5t258 205t309 75.5t274.5 -75.5t163.5 -205t12 -281.5t-142 -280.5t-258 -203.5t-309 -75zM578 168q155 0 281.5 104.5t162.5 255.5q36 152 -43 257.5t-234 105.5
t-281.5 -105t-162.5 -258q-36 -151 43 -255.5t234 -104.5z" />
    <glyph glyph-name="upsilontonos" unicode="&#x3cd;" horiz-adv-x="1249" 
d="M702 1198l347 350h272l-412 -350h-207zM496 -33q-29 0 -51.5 1t-61 5.5t-67.5 12.5t-65 24.5t-61 39.5t-47.5 58.5t-32 79.5t-8 105.5t18.5 134.5l145 631h221l-149 -641q-3 -12 -5 -26t-2 -40.5t4.5 -50t18.5 -50t36 -45.5t61 -31.5t90 -12.5q70 0 127.5 24t90 55
t56.5 72t31.5 63.5t11.5 41.5l150 641h221l-146 -631q-21 -93 -59 -167.5t-79 -121.5t-95.5 -81.5t-98.5 -51.5t-99.5 -26.5t-86 -11t-69.5 -1.5z" />
    <glyph glyph-name="omegatonos" unicode="&#x3ce;" horiz-adv-x="1396" 
d="M776 1198l346 350h273l-412 -350h-207zM297 -33q-157 0 -211.5 166t14.5 475q26 116 70 229t75 167l31 55h213q-114 -232 -167 -457q-99 -440 43 -440q73 0 121 65t81 213l86 377h221l-86 -377q-33 -149 -15 -213.5t91 -64.5q44 0 83.5 41.5t70 112t51.5 139t39 147.5
q50 211 45 457h213q3 -21 5.5 -59.5t-5 -157t-33.5 -234.5q-71 -304 -203 -472.5t-288 -168.5q-99 0 -158.5 57t-69.5 142q-49 -85 -133.5 -142t-183.5 -57z" />
    <glyph glyph-name="uni0400" unicode="&#x400;" horiz-adv-x="1314" 
d="M989 1532h-207l-170 350h273zM1352 1182h-795l-78 -336h633l-49 -209h-631l-98 -428h805l-49 -209h-1029l322 1391h1016z" />
    <glyph glyph-name="uni0401" unicode="&#x401;" horiz-adv-x="1314" 
d="M700 1556q-47 0 -74 33.5t-16 79.5q10 47 52.5 81t89.5 34q46 0 71 -34t15 -81q-11 -46 -51.5 -79.5t-86.5 -33.5zM1094 1556q-47 0 -74 33.5t-16 79.5q10 47 52 81t89 34q46 0 71 -34t15 -81q-11 -46 -51 -79.5t-86 -33.5zM1352 1182h-795l-78 -336h633l-49 -209h-631
l-98 -428h805l-49 -209h-1029l322 1391h1016z" />
    <glyph glyph-name="uni0402" unicode="&#x402;" horiz-adv-x="1658" 
d="M903 -31l51 226q141 0 242.5 88.5t134.5 230.5q29 124 -38 211.5t-195 87.5q-132 0 -236 -76.5t-133 -201.5l-4 -3l-123 -532h-223l76 330l-2 -2q2 7 7.5 29.5t10.5 35.5l186 813h-419l43 185h1067l-43 -185h-424l-66 -288q148 106 332 106q148 0 257 -71t153.5 -192.5
t11.5 -264.5q-34 -145 -129.5 -265t-237.5 -191t-299 -71z" />
    <glyph glyph-name="uni0403" unicode="&#x403;" horiz-adv-x="1292" 
d="M811 1532l264 350h273l-330 -350h-207zM61 0l322 1391h1032l-47 -209h-811l-274 -1182h-222z" />
    <glyph glyph-name="uni0404" unicode="&#x404;" horiz-adv-x="1421" 
d="M721 -31q-138 0 -251.5 37t-189 103.5t-123 157.5t-54.5 199.5t18 229.5q34 150 119.5 283t206.5 231t279.5 155.5t330.5 57.5q76 0 146 -12t114.5 -27t83.5 -35t54 -30.5t24 -18.5q1 0 -54 -241q-10 12 -22.5 25t-48.5 38t-78.5 43t-114 32.5t-153.5 14.5
q-201 0 -358 -98t-238 -260h641l-52 -217h-659q-27 -202 84.5 -329.5t343.5 -127.5q101 0 198 20t164.5 49t106 50t55.5 35l-55 -240q-233 -125 -518 -125z" />
    <glyph glyph-name="uni0405" unicode="&#x405;" horiz-adv-x="1191" 
d="M469 -33q-161 0 -291 43.5t-182 100.5l53 229q78 -75 190.5 -118.5t235.5 -43.5q292 0 338 191q9 39 -0.5 69.5t-44.5 59t-76 51t-114 55.5q-66 31 -113 57t-88.5 57.5t-65.5 65t-38.5 74.5t-13.5 90.5t15 110.5q37 167 184 270t363 103q98 2 198.5 -27.5t164.5 -79.5
l-56 -240q-52 60 -139.5 97t-195.5 37q-118 -2 -195 -43.5t-94 -116.5q-5 -23 -6 -42t5.5 -36.5t13 -30.5t25 -28t32.5 -25t43.5 -25t50.5 -25t61 -28q58 -26 100 -48.5t81.5 -48.5t65 -52.5t45.5 -58.5t27.5 -68t6.5 -80t-13 -96q-41 -178 -192.5 -289t-380.5 -111z" />
    <glyph glyph-name="uni0406" unicode="&#x406;" horiz-adv-x="591" 
d="M453 1532l346 350h272l-412 -350h-206zM61 0l322 1391h223l-321 -1391h-224z" />
    <glyph glyph-name="uni0407" unicode="&#x407;" horiz-adv-x="591" 
d="M326 1556q-47 0 -74 33.5t-16 79.5q10 47 52 81t89 34q46 0 71 -34t15 -81q-11 -46 -51 -79.5t-86 -33.5zM719 1556q-47 0 -74 33.5t-16 79.5q10 47 52 81t89 34q46 0 71 -34t15 -81q-11 -46 -51 -79.5t-86 -33.5zM61 0l322 1391h223l-321 -1391h-224z" />
    <glyph glyph-name="uni0408" unicode="&#x408;" horiz-adv-x="1159" 
d="M338 -31q-63 0 -123.5 11t-101.5 27.5t-73 32.5t-48 27l-15 11l50 213q7 -5 19 -12t49.5 -26.5t74.5 -34t88.5 -26.5t97.5 -12q55 0 98 5.5t90 23.5t82 48.5t64.5 83t46.5 124.5l213 926h224l-213 -922q-29 -124 -89.5 -220.5t-144 -157t-182 -91.5t-207.5 -31z" />
    <glyph glyph-name="uni0409" unicode="&#x409;" horiz-adv-x="2023" 
d="M1522 836q229 0 336.5 -101.5t58.5 -312.5q-25 -107 -82 -189t-136.5 -132.5t-173 -75.5t-198.5 -25h-606l233 1008l-815 -1008h-260l1145 1391h242l-127 -555h383zM1681 426q6 35 7.5 62.5t-8 49t-21 37t-31 26.5t-38 18t-43 11t-45 5.5t-44.5 1.5h-371l-98 -428h371
q271 0 321 217z" />
    <glyph glyph-name="uni040A" unicode="&#x40a;" horiz-adv-x="2316" 
d="M1815 836q229 0 336.5 -101.5t58.5 -312.5q-25 -107 -82 -189t-136.5 -132.5t-173 -75.5t-198.5 -25h-606l147 637h-729l-147 -637h-224l322 1391h223l-127 -545h729l127 545h224l-127 -555h383zM1974 426q6 35 7.5 62.5t-8 49t-21 37t-31 26.5t-38 18t-43 11t-45 5.5
t-44.5 1.5h-367l-98 -428h367q271 0 321 217z" />
    <glyph glyph-name="uni040B" unicode="&#x40b;" horiz-adv-x="1576" 
d="M297 0l76 330l-2 -2l16 59l188 819h-419l43 185h1067l-43 -185h-424l-70 -307q168 125 377 125q228 0 336.5 -125.5t58.5 -341.5l-129 -557h-242l125 535q28 124 -31.5 201t-187.5 77q-87 0 -168 -33.5t-141.5 -98t-79.5 -146.5l-4 -3l-123 -532h-223z" />
    <glyph glyph-name="uni040C" unicode="&#x40c;" horiz-adv-x="1425" 
d="M1348 1882l-330 -350h-207l264 350h273zM1556 1391l-866 -656l576 -735h-275l-542 676l-158 -676h-230l322 1391h229l-133 -576l758 576h319z" />
    <glyph glyph-name="uni040D" unicode="&#x40d;" horiz-adv-x="1550" 
d="M1108 1532h-207l-170 350h273zM1323 1391h242l-322 -1391h-221l242 1044l-963 -1044h-240l322 1391h221l-237 -1029z" />
    <glyph glyph-name="uni040E" unicode="&#x40e;" horiz-adv-x="1302" 
d="M1018 1534q-65 -52 -137.5 -51.5t-112.5 53.5t-23 124t82 124q64 52 134.5 52.5t111.5 -50.5l-104 -86q-14 13 -35.5 12t-40.5 -16t-23.5 -37t7.5 -37q11 -16 32 -16.5t43 16.5h2l66 -86zM1198 1391h262l-676 -1065q-91 -142 -157.5 -215.5t-141.5 -107.5t-178 -34
q-56 0 -108 19.5t-77 39.5l-24 19l47 211q9 -9 25 -22t65.5 -34.5t98.5 -21.5q27 0 51 6.5t41.5 13.5t36 24t28 26.5t25 32t19.5 30t18 31.5l-313 1047h235l232 -795q97 155 220 353.5t197 320.5z" />
    <glyph glyph-name="uni040F" unicode="&#x40f;" horiz-adv-x="1521" 
d="M1536 1391l-322 -1391h-608l-127 -274h-223l127 274h-322l322 1391h221l-272 -1182h710l273 1182h221z" />
    <glyph glyph-name="uni0410" unicode="&#x410;" horiz-adv-x="1536" 
d="M1073 1391l297 -1391h-260l-57 330h-656l-215 -330h-262l938 1391h215zM532 539h486l-109 569z" />
    <glyph glyph-name="uni0411" unicode="&#x411;" horiz-adv-x="1363" 
d="M61 0l322 1391h915l-47 -209h-696l-80 -346h387q229 0 336.5 -101.5t58.5 -312.5q-25 -107 -82 -189t-136 -132.5t-172.5 -75.5t-198.5 -25h-607zM330 209h370q272 0 322 217q6 35 7.5 62.5t-8 49t-21 37t-31 26.5t-38 18t-43 11t-45 5.5t-44.5 1.5h-371z" />
    <glyph glyph-name="uni0412" unicode="&#x412;" horiz-adv-x="1363" 
d="M1323 1032q-27 -115 -107 -186.5t-188 -89.5q137 -12 198.5 -104t30.5 -230q-48 -209 -204 -315.5t-385 -106.5h-607l322 1391h569q228 0 320.5 -87.5t50.5 -271.5zM1100 1016q4 23 4.5 42.5t-3 34.5t-9 27.5t-16 21.5t-21.5 15.5t-27 11t-31 7t-36.5 4t-40 2t-43.5 0.5
h-320l-80 -346h307q142 0 217 39t99 141zM1022 426q25 106 -30.5 158.5t-192.5 52.5h-367l-98 -428h366q273 0 322 217z" />
    <glyph glyph-name="uni0413" unicode="&#x413;" horiz-adv-x="1292" 
d="M61 0l322 1391h1032l-47 -209h-811l-274 -1182h-222z" />
    <glyph glyph-name="uni0414" unicode="&#x414;" horiz-adv-x="1591" 
d="M-70 -256l109 465h135q73 175 120.5 299.5t122.5 368t138 514.5h954l-272 -1182h168l-109 -465h-223l60 256h-920l-59 -256h-224zM408 209h606l225 973h-502q-80 -300 -147.5 -494.5t-181.5 -478.5z" />
    <glyph glyph-name="uni0415" unicode="&#x415;" horiz-adv-x="1314" 
d="M1352 1182h-795l-78 -336h633l-49 -209h-631l-98 -428h805l-49 -209h-1029l322 1391h1016z" />
    <glyph glyph-name="uni0416" unicode="&#x416;" horiz-adv-x="1566" 
d="M1769 1391l-595 -652l268 -739h-240l-254 713l-166 -713h-225l166 713l-557 -713h-270l622 784l-301 607h246l278 -613l142 613h221l-141 -613l532 613h274z" />
    <glyph glyph-name="uni0417" unicode="&#x417;" horiz-adv-x="1249" 
d="M473 -31q-126 0 -261 33.5t-192 87.5l52 221q72 -62 197.5 -99.5t250.5 -37.5q171 0 267 62t120 159q22 97 -54.5 167.5t-236.5 70.5h-258l45 201h230q143 0 235.5 51.5t114.5 144.5q21 85 -35 137t-213 52q-101 0 -240 -34t-210 -69l49 215q90 36 217 64t258 28
q235 0 339.5 -90.5t68.5 -247.5q-31 -128 -129.5 -221t-204.5 -116q145 -22 216 -115.5t38 -237.5q-43 -186 -217 -306t-447 -120z" />
    <glyph glyph-name="uni0418" unicode="&#x418;" horiz-adv-x="1550" 
d="M1323 1391h242l-322 -1391h-221l242 1044l-963 -1044h-240l322 1391h221l-237 -1029z" />
    <glyph glyph-name="uni0419" unicode="&#x419;" horiz-adv-x="1550" 
d="M1012 1532q-86 0 -137.5 32t-64.5 84.5t-4 112t38 121.5h207q-16 -34 -22.5 -71t9 -68t58.5 -31q61 0 117 55.5t85 114.5h207q-29 -63 -75.5 -122t-108 -111.5t-142.5 -84.5t-167 -32zM1323 1391h242l-322 -1391h-221l242 1044l-963 -1044h-240l322 1391h221l-237 -1029z
" />
    <glyph glyph-name="uni041A" unicode="&#x41a;" horiz-adv-x="1425" 
d="M1556 1391l-866 -656l576 -735h-275l-542 676l-158 -676h-230l322 1391h229l-133 -576l758 576h319z" />
    <glyph glyph-name="uni041B" unicode="&#x41b;" horiz-adv-x="1536" 
d="M1073 1391l297 -1391h-260l-57 330l-142 762l-446 -678l-283 -414h-262l938 1391h215z" />
    <glyph glyph-name="uni041C" unicode="&#x41c;" horiz-adv-x="1693" 
d="M61 0l322 1391h260l258 -619v-2l547 621h260l-322 -1391h-221l244 1055l-459 -516h-202l-222 516l-243 -1055h-222z" />
    <glyph glyph-name="uni041D" unicode="&#x41d;" horiz-adv-x="1544" 
d="M1335 1391h224l-322 -1391h-223l147 637h-729l-147 -637h-224l322 1391h223l-127 -545h729z" />
    <glyph glyph-name="uni041E" unicode="&#x41e;" horiz-adv-x="1644" 
d="M692 -31q-105 -1 -196.5 24.5t-160 73t-120.5 114.5t-77 148.5t-29 174.5t22 192q32 147 117.5 281.5t204 233.5t269.5 156.5t306 55.5q104 1 195.5 -24.5t160.5 -73t121 -114.5t77.5 -148.5t30 -174.5t-21.5 -192q-32 -147 -118 -281.5t-205 -233.5t-270 -156.5
t-306 -55.5zM741 180q226 0 396.5 146t222.5 370q34 146 0.5 263t-132.5 186t-249 69q-223 0 -395 -147.5t-224 -370.5q-34 -146 0 -263t133.5 -185t247.5 -68z" />
    <glyph glyph-name="uni041F" unicode="&#x41f;" horiz-adv-x="1490" 
d="M61 0l322 1391h1122l-321 -1391h-221l274 1182h-680l-274 -1182h-222z" />
    <glyph glyph-name="uni0420" unicode="&#x420;" horiz-adv-x="1429" 
d="M1036 1391q104 0 187 -33t134.5 -93t70.5 -144t-5 -187q-47 -203 -218 -330t-386 -127h-424l-110 -477h-224l322 1391h653zM1192 930q26 112 -38 182t-181 70h-416l-115 -500h414q117 0 213.5 69t122.5 179z" />
    <glyph glyph-name="uni0421" unicode="&#x421;" horiz-adv-x="1441" 
d="M731 -31q-113 -1 -211 24.5t-170.5 73t-127.5 114.5t-81 148.5t-31.5 174.5t21.5 192q32 148 119 282t209.5 233t281.5 156.5t326 55.5q269 0 422 -123l-55 -235q-2 7 -21.5 23t-58 38t-86 41.5t-114.5 33t-136 13.5q-247 0 -425 -146.5t-231 -371.5q-34 -147 2 -263.5
t143.5 -184.5t272.5 -68q140 0 280.5 40.5t244.5 113.5l-56 -240q-1 0 -23 -12t-42 -21t-55.5 -23.5t-75 -25t-88.5 -21.5t-109.5 -16.5t-124.5 -5.5z" />
    <glyph glyph-name="uni0422" unicode="&#x422;" horiz-adv-x="1359" 
d="M446 0l275 1182h-488l48 209h1196l-47 -209h-488l-274 -1182h-222z" />
    <glyph glyph-name="uni0423" unicode="&#x423;" horiz-adv-x="1302" 
d="M1198 1391h262l-676 -1065q-91 -142 -157.5 -215.5t-141.5 -107.5t-178 -34q-56 0 -108 19.5t-77 39.5l-24 19l47 211q9 -9 25 -22t65.5 -34.5t98.5 -21.5q27 0 51 6.5t41.5 13.5t36 24t28 26.5t25 32t19.5 30t18 31.5l-313 1047h235l232 -795q97 155 220 353.5
t197 320.5z" />
    <glyph glyph-name="uni0424" unicode="&#x424;" horiz-adv-x="1624" 
d="M524 -256l56 231q-109 14 -197.5 57.5t-148 110t-95.5 153.5t-39 187.5t21 212.5q34 149 118 282.5t201 231.5t267.5 155.5t310.5 57.5q107 0 199.5 -26t161 -73.5t119 -114t75 -147t29 -173.5t-20.5 -193q-65 -280 -285 -483t-508 -238l-55 -231h-209zM629 188l233 1016
q-191 -33 -329 -173t-183 -335q-27 -130 -7 -235t94.5 -178t191.5 -95zM838 188q190 33 328.5 173.5t183.5 334.5q45 195 -29 335t-250 173z" />
    <glyph glyph-name="uni0425" unicode="&#x425;" horiz-adv-x="1456" 
d="M1554 1391l-653 -662l369 -729h-271l-262 526l-489 -526h-307l696 733l-344 658h270l230 -471l454 471h307z" />
    <glyph glyph-name="uni0426" unicode="&#x426;" horiz-adv-x="1662" 
d="M1536 1391l-274 -1188h124l-219 -477h-223l127 274h-1010l322 1391h221l-272 -1182h710l273 1182h221z" />
    <glyph glyph-name="uni0427" unicode="&#x427;" horiz-adv-x="1433" 
d="M903 0l92 395q-205 -28 -387 -28q-96 0 -173.5 17.5t-139.5 55.5t-96 98.5t-44 145t17 195.5l119 512h223l-119 -512q-12 -52 -12.5 -94.5t8 -73.5t27 -54t42.5 -37.5t56.5 -23.5t66 -12.5t74.5 -3.5q165 0 385 22l183 789h223l-322 -1391h-223z" />
    <glyph glyph-name="uni0428" unicode="&#x428;" horiz-adv-x="2048" 
d="M61 0l322 1391h221l-272 -1182h514l272 1182h221l-272 -1182h502l272 1182h221l-321 -1391h-1680z" />
    <glyph glyph-name="uni0429" unicode="&#x429;" horiz-adv-x="2048" 
d="M2062 1391l-274 -1188h63l-219 -477h-223l127 274h-1475l322 1391h221l-272 -1182h514l272 1182h221l-272 -1182h502l272 1182h221z" />
    <glyph glyph-name="uni042A" unicode="&#x42a;" horiz-adv-x="1609" 
d="M307 0l275 1182h-349l48 209h567l-127 -555h387q229 0 336.5 -101.5t58.5 -312.5q-25 -107 -82 -189t-136.5 -132.5t-173 -75.5t-198.5 -25h-606zM575 209h371q272 0 322 217q49 211 -224 211h-370z" />
    <glyph glyph-name="uni042B" unicode="&#x42b;" horiz-adv-x="1792" 
d="M61 0l322 1391h223l-127 -555h383q229 0 336.5 -101.5t58.5 -312.5q-25 -107 -82 -189t-136 -132.5t-172.5 -75.5t-198.5 -25h-607zM1262 0l321 1391h223l-321 -1391h-223zM330 209h370q272 0 322 217q6 35 7.5 62.5t-8 49t-21 37t-31 26.5t-38 18t-43 11t-45 5.5
t-44.5 1.5h-371z" />
    <glyph glyph-name="uni042C" unicode="&#x42c;" horiz-adv-x="1363" 
d="M61 0l322 1391h223l-127 -555h383q229 0 336.5 -101.5t58.5 -312.5q-25 -107 -82 -189t-136 -132.5t-172.5 -75.5t-198.5 -25h-607zM330 209h370q272 0 322 217q6 35 7.5 62.5t-8 49t-21 37t-31 26.5t-38 18t-43 11t-45 5.5t-44.5 1.5h-371z" />
    <glyph glyph-name="uni042D" unicode="&#x42d;" horiz-adv-x="1421" 
d="M442 -31q-285 0 -460 125l55 240q9 -13 39 -34.5t83.5 -50.5t142.5 -49t190 -20q232 0 401.5 127.5t234.5 329.5h-659l51 217h641q-8 162 -119.5 260t-312.5 98q-101 0 -192.5 -19.5t-153 -49.5t-92.5 -49t-49 -35q55 241 57 241q220 123 479 123q138 0 251.5 -37
t189 -103.5t123 -157.5t54.5 -199.5t-18 -229.5q-34 -150 -119.5 -283t-206.5 -231t-279.5 -155.5t-330.5 -57.5z" />
    <glyph glyph-name="uni042E" unicode="&#x42e;" horiz-adv-x="2236" 
d="M1284 -31q-149 -2 -267.5 50t-190.5 142.5t-102.5 213.5t-10.5 262h-281l-147 -637h-224l322 1391h223l-125 -545h289q68 162 197 292t300 206t353 79q104 1 195.5 -24.5t160.5 -73t121 -114.5t77.5 -148.5t30 -174.5t-21.5 -192q-43 -196 -174.5 -361.5t-323.5 -264
t-401 -101.5zM1333 180q226 0 396.5 146t222.5 370q34 146 0.5 263t-132.5 186t-249 69q-223 0 -395 -147.5t-224 -370.5q-34 -146 0 -263t133.5 -185t247.5 -68z" />
    <glyph glyph-name="uni042F" unicode="&#x42f;" horiz-adv-x="1454" 
d="M858 1391h610l-321 -1391h-221l98 424h-408l-378 -424h-279l469 508q-63 24 -110.5 71.5t-71 105.5t-31.5 124t8 127q107 455 635 455zM1073 629l129 553h-371q-165 0 -256.5 -67t-125.5 -212q-33 -143 37.5 -208.5t240.5 -65.5h346z" />
    <glyph glyph-name="uni0430" unicode="&#x430;" horiz-adv-x="1376" 
d="M506 -31q-159 0 -269 75t-150.5 203t-4.5 281q36 154 135 282t244 204t303 76q110 0 195.5 -37.5t130.5 -96.5l24 103h221l-250 -1059h-221l29 109q-171 -140 -387 -140zM567 166q153 0 275.5 98t161.5 266q39 167 -39 265t-230 98q-148 0 -272 -105.5t-160 -257.5
t40 -258t224 -106z" />
    <glyph glyph-name="uni0431" unicode="&#x431;" horiz-adv-x="1206" 
d="M473 -31q-232 0 -341 152t-44 438q28 120 72 218.5t95 164t111 117.5t121 82t123.5 54.5t119.5 37.5t108.5 28.5t91 30t66 39.5t34.5 60l234 41q-21 -93 -74 -157t-122.5 -97t-150.5 -56.5t-164.5 -47t-158.5 -56t-139 -96t-99 -156.5q57 62 160.5 109t222.5 47
q215 0 315 -133t50 -345q-47 -209 -224.5 -342t-406.5 -133zM518 166q137 0 238 80.5t129 204.5q32 140 -25 222.5t-205 82.5q-130 0 -237.5 -92.5t-134.5 -212.5q-27 -119 37 -202t198 -83z" />
    <glyph glyph-name="uni0432" unicode="&#x432;" horiz-adv-x="1167" 
d="M41 0l246 1059h538q175 0 240.5 -73.5t36.5 -197.5q-23 -101 -90 -159.5t-170 -67.5q65 -4 111 -28t67 -60.5t28 -82.5t-6 -93q-32 -133 -146.5 -215t-313.5 -82h-541zM406 631q171 2 286 2q158 0 187 123q13 62 -20 92.5t-109 30.5h-287zM303 180h330q79 0 129 35.5
t65 99.5q14 64 -21 100t-114 36h-327z" />
    <glyph glyph-name="uni0433" unicode="&#x433;" horiz-adv-x="1085" 
d="M41 0l246 1059h880l-43 -180h-659l-203 -879h-221z" />
    <glyph glyph-name="uni0434" unicode="&#x434;" horiz-adv-x="1400" 
d="M-100 -256l102 436h139q221 451 320 879h794l-202 -879h166l-103 -436h-221l59 256h-774l-59 -256h-221zM356 180h473l154 670h-373q-34 -122 -110.5 -321t-143.5 -349z" />
    <glyph glyph-name="uni0435" unicode="&#x435;" horiz-adv-x="1220" 
d="M539 -31q-91 0 -168 20.5t-132 57.5t-95 88.5t-57.5 113.5t-20.5 133.5t16 147.5q56 239 255.5 399.5t444.5 160.5q90 0 162 -28.5t117.5 -77.5t73.5 -114t29.5 -138.5t-13.5 -151.5l-25 -103h-845q-5 -64 9.5 -118t49 -98.5t98 -69.5t150.5 -25q42 0 83.5 4t77 10
t69.5 14.5t61.5 17.5t52 18t42.5 17.5t31 14.5t20 10l7 4l-45 -198q-6 -4 -17 -11.5t-51.5 -26.5t-88 -33t-126 -26t-165.5 -12zM332 649h614q5 21 2.5 48t-7 56t-21.5 57t-41.5 50t-67.5 35.5t-98 13.5q-66 0 -125 -19.5t-100 -48t-74.5 -65.5t-52 -68t-29.5 -59z" />
    <glyph glyph-name="uni0436" unicode="&#x436;" horiz-adv-x="1536" 
d="M-41 0l530 582l-284 477h244l239 -443l103 443h200l-102 -443l444 443h244l-506 -477l260 -582h-244l-221 518l-121 -518h-200l121 518l-463 -518h-244z" />
    <glyph glyph-name="uni0437" unicode="&#x437;" horiz-adv-x="1038" 
d="M326 -31q-88 0 -198.5 29.5t-152.5 71.5l48 204q6 -4 17.5 -11.5t48 -26.5t74 -33.5t91.5 -26.5t104 -12q255 0 291 151q15 68 -31 109t-124 41h-195l41 180h164q190 0 221 131q14 62 -41.5 89.5t-169.5 27.5q-87 0 -190 -28t-146 -56l45 201q140 80 361 80
q184 0 286 -78t72 -211q-22 -90 -102 -161.5t-172 -80.5q53 -12 92.5 -35.5t60.5 -52.5t33 -63t10.5 -66.5t-6.5 -62.5q-37 -157 -178.5 -233.5t-353.5 -76.5z" />
    <glyph glyph-name="uni0438" unicode="&#x438;" horiz-adv-x="1312" 
d="M1036 1059h236l-246 -1059h-221l166 721l-697 -721h-233l246 1059h221l-166 -719z" />
    <glyph glyph-name="uni0439" unicode="&#x439;" horiz-adv-x="1312" 
d="M840 1198q-86 0 -137.5 32t-64.5 84.5t-4 112t38 121.5h207q-16 -34 -22.5 -71t9 -68t58.5 -31q61 0 117 55.5t85 114.5h207q-29 -63 -75.5 -122t-108 -111.5t-142.5 -84.5t-167 -32zM342 340l694 719h236l-246 -1059h-221l166 721l-697 -721h-233l246 1059h221z" />
    <glyph glyph-name="uni043A" unicode="&#x43a;" horiz-adv-x="1128" 
d="M1174 1059l-619 -498l410 -561h-256l-334 483l-113 -483h-221l246 1059h221l-90 -385l459 385h297z" />
    <glyph glyph-name="uni043B" unicode="&#x43b;" horiz-adv-x="1308" 
d="M1145 0h-225l-191 815l-565 -815h-246l748 1059h223z" />
    <glyph glyph-name="uni043C" unicode="&#x43c;" horiz-adv-x="1480" 
d="M41 0l246 1059h272l199 -459l416 459h266l-246 -1059h-221l184 793l-358 -408h-181l-172 408l-184 -793h-221z" />
    <glyph glyph-name="uni043D" unicode="&#x43d;" horiz-adv-x="1308" 
d="M41 0l246 1059h219l-100 -428h542l101 428h219l-246 -1059h-219l104 451h-542l-105 -451h-219z" />
    <glyph glyph-name="uni043E" unicode="&#x43e;" horiz-adv-x="1323" 
d="M532 -31q-158 0 -274.5 75t-163.5 203.5t-12 280.5t142 281.5t258 205t309 75.5t274.5 -75.5t163.5 -205t12 -281.5t-142 -280.5t-258 -203.5t-309 -75zM578 168q155 0 284.5 104.5t165.5 255.5q35 152 -46 257.5t-237 105.5t-285 -105.5t-165 -257.5q-35 -150 46 -255
t237 -105z" />
    <glyph glyph-name="uni043F" unicode="&#x43f;" horiz-adv-x="1333" 
d="M41 0l246 1059h1005l-245 -1059h-222l203 879h-563l-203 -879h-221z" />
    <glyph glyph-name="uni0440" unicode="&#x440;" horiz-adv-x="1376" 
d="M-59 -434l346 1493h221l-25 -103q72 59 174.5 96.5t212.5 37.5q158 0 268.5 -76t151 -204t4.5 -282q-27 -115 -92 -217.5t-154 -178t-203 -119.5t-233 -44q-226 0 -323 144l-127 -547h-221zM662 166q147 0 264 104t153 258q19 75 8.5 141.5t-41.5 116t-87.5 78.5
t-129.5 29q-101 0 -194.5 -42t-164.5 -126.5t-97 -196.5q-38 -166 47.5 -264t241.5 -98z" />
    <glyph glyph-name="uni0441" unicode="&#x441;" horiz-adv-x="1132" 
d="M553 -31q-116 0 -207.5 28.5t-149.5 80t-93 121.5t-37.5 154t16.5 177q36 154 137.5 281.5t252.5 203t319 75.5q105 0 201 -32t149 -95l-54 -228q-4 7 -11 17.5t-36 38t-64.5 48.5t-97.5 38.5t-133 17.5q-155 0 -283.5 -106.5t-164.5 -258.5q-38 -165 43.5 -265.5
t257.5 -100.5q69 0 136.5 11.5t113.5 27.5t82 32t54 27l17 12l-47 -204q-77 -52 -190 -76.5t-211 -24.5z" />
    <glyph glyph-name="uni0442" unicode="&#x442;" horiz-adv-x="1126" 
d="M332 0l203 879h-414l43 180h1044l-43 -180h-409l-203 -879h-221z" />
    <glyph glyph-name="uni0443" unicode="&#x443;" horiz-adv-x="1200" 
d="M1026 1059h256l-1059 -1485h-260l422 573l-221 912h231l158 -676z" />
    <glyph glyph-name="uni0444" unicode="&#x444;" horiz-adv-x="1546" 
d="M444 -420l97 418q-260 21 -385.5 164t-69.5 383q37 159 142.5 280.5t250.5 187.5t314 79l69 301l230 37l-78 -338q253 -19 381 -163.5t73 -383.5q-56 -241 -246.5 -383.5t-459.5 -163.5l-96 -418h-222zM586 190l164 715q-152 0 -282 -99t-167 -261q-19 -84 -3.5 -149.5
t57 -111.5t101.5 -70t130 -24zM807 190q94 1 186 42t165 123.5t97 189.5q37 162 -47.5 260t-236.5 100z" />
    <glyph glyph-name="uni0445" unicode="&#x445;" horiz-adv-x="1275" 
d="M1307 1059l-529 -508l324 -551h-266l-213 389l-398 -389h-297l588 569l-301 490h266l193 -326l350 326h283z" />
    <glyph glyph-name="uni0446" unicode="&#x446;" horiz-adv-x="1335" 
d="M1196 1059l-205 -879h101l-277 -600h-209l193 420h-799l246 1059h209l-203 -879h532l203 879h209z" />
    <glyph glyph-name="uni0447" unicode="&#x447;" horiz-adv-x="1284" 
d="M1022 1059h221l-246 -1059h-221l117 502q-6 -9 -17.5 -22.5t-44 -40t-71.5 -47.5t-102.5 -37.5t-133.5 -16.5q-187 0 -279.5 115t-43.5 325l65 281h221l-59 -258q-30 -126 18 -196t158 -70q59 0 116 19t107 55.5t88 94.5t54 130l-60 -259z" />
    <glyph glyph-name="uni0448" unicode="&#x448;" horiz-adv-x="1740" 
d="M53 0l246 1059h209l-203 -879h383l203 879h209l-203 -879h391l203 879h209l-246 -1059h-1401z" />
    <glyph glyph-name="uni0449" unicode="&#x449;" horiz-adv-x="1839" 
d="M1700 1059l-205 -879h100l-276 -600h-209l193 420h-1250l246 1059h209l-203 -879h383l203 879h209l-203 -879h391l203 879h209z" />
    <glyph glyph-name="uni044A" unicode="&#x44a;" horiz-adv-x="1261" 
d="M125 0l203 879h-248l43 180h467l-101 -428h322q74 0 132 -14.5t94 -39.5t59.5 -56t32 -67.5t9 -70.5t-7.5 -68q-32 -135 -149.5 -225t-314.5 -90h-541zM387 180h330q79 0 129 35.5t65 99.5q14 64 -21 100t-114 36h-327z" />
    <glyph glyph-name="uni044B" unicode="&#x44b;" horiz-adv-x="548" 
d="M41 0l246 1059h221l-246 -1059h-221z" />
    <glyph glyph-name="uni044C" unicode="&#x44c;" horiz-adv-x="1134" 
d="M0 0l246 1059h219l-100 -428h321q74 0 132 -14.5t93.5 -39.5t59 -56t32 -67.5t9 -70.5t-7.5 -68q-32 -135 -149.5 -225t-313.5 -90h-541zM262 180h330q79 0 129 35.5t65 99.5q14 64 -21 100t-114 36h-327z" />
    <glyph glyph-name="uni044D" unicode="&#x44d;" horiz-adv-x="1142" 
d="M332 -29q-98 0 -200 24.5t-157 76.5l48 202q4 -4 13 -11.5t40.5 -26.5t68.5 -33.5t100 -26.5t132 -12q152 0 268.5 77.5t171.5 209.5h-461l41 180h455q-3 117 -81.5 190.5t-205.5 73.5q-71 0 -140 -16.5t-116.5 -40t-85 -47t-55.5 -39.5l-18 -17l53 228q82 63 192 95
t215 32q168 0 284.5 -75.5t159.5 -203t7 -281.5q-27 -117 -89 -218t-153 -177.5t-216.5 -120t-270.5 -43.5z" />
    <glyph glyph-name="uni044E" unicode="&#x44e;" horiz-adv-x="1779" 
d="M1247 1090q158 0 274.5 -75.5t164 -205t12.5 -281.5t-142 -280.5t-258 -203.5t-309 -75q-220 0 -351 138.5t-112 343.5h-161l-105 -451h-219l246 1059h219l-100 -428h165q84 197 274.5 328t401.5 131zM1485 528q35 152 -46 257.5t-237 105.5t-285 -105.5t-165 -257.5
q-35 -150 45.5 -255t236.5 -105t285.5 105t165.5 255z" />
    <glyph glyph-name="uni044F" unicode="&#x44f;" horiz-adv-x="1282" 
d="M1241 1059l-246 -1059h-221l82 354h-315l-293 -354h-248l344 422q-90 36 -136 129.5t-20 198.5q34 151 160.5 230t310.5 79h582zM569 547h332l78 332h-334q-199 0 -237 -166q-20 -78 19 -122t142 -44z" />
    <glyph glyph-name="uni0450" unicode="&#x450;" horiz-adv-x="1220" 
d="M700 1198l-170 350h273l104 -350h-207zM539 -31q-91 0 -168 20.5t-132 57.5t-95 88.5t-57.5 113.5t-20.5 133.5t16 147.5q56 239 255.5 399.5t444.5 160.5q90 0 162 -28.5t117.5 -77.5t73.5 -114t29.5 -138.5t-13.5 -151.5l-25 -103h-845q-5 -64 9.5 -118t49 -98.5
t98 -69.5t150.5 -25q42 0 83.5 4t77 10t69.5 14.5t61.5 17.5t52 18t42.5 17.5t31 14.5t20 10l7 4l-45 -198q-6 -4 -17 -11.5t-51.5 -26.5t-88 -33t-126 -26t-165.5 -12zM332 649h614q5 21 2.5 48t-7 56t-21.5 57t-41.5 50t-67.5 35.5t-98 13.5q-66 0 -125 -19.5t-100 -48
t-74.5 -65.5t-52 -68t-29.5 -59z" />
    <glyph glyph-name="uni0451" unicode="&#x451;" horiz-adv-x="1228" 
d="M401 1190q-61 0 -103 42t-42 103q0 62 42 105t103 43t104.5 -43.5t43.5 -104.5t-43 -103t-105 -42zM838 1190q-62 0 -104 42t-42 103q0 62 42.5 105t103.5 43t104 -43t43 -105q0 -61 -42.5 -103t-104.5 -42zM668 -31q-136 0 -248 44.5t-185.5 121.5t-113 178.5
t-39.5 216.5q0 157 74 285t205 201.5t292 73.5q111 0 204.5 -43.5t154 -115.5t94 -163t33.5 -188v-103h-846q21 -135 115.5 -223t263.5 -88q73 0 143 11.5t118 27.5t85.5 32t55.5 27l18 12v-198q-5 -4 -14.5 -11.5t-46 -26.5t-80.5 -33t-120 -26t-163 -12zM301 649h621
q-1 21 -7.5 49t-27.5 66.5t-51.5 69.5t-85.5 53t-125 22q-58 0 -107.5 -14.5t-81.5 -37.5t-58 -50.5t-39.5 -55t-22.5 -50.5t-12 -37z" />
    <glyph glyph-name="uni0452" unicode="&#x452;" horiz-adv-x="1341" 
d="M643 -459q-63 0 -114 13.5t-79 32.5t-46.5 37.5t-24.5 31.5l-6 14l53 230q3 -7 8.5 -17.5t26 -38.5t44.5 -49.5t65 -39t87 -17.5q75 0 119 53t60 127l112 483q29 126 -18.5 196.5t-157.5 70.5q-79 0 -153 -32.5t-132.5 -102t-80.5 -164.5l-87 -369h-221l281 1210h-344
l41 181h909l-41 -181h-344l-119 -510q5 7 14 18t42 39t71.5 50t104 39.5t137.5 17.5q187 0 280 -115t44 -325l-113 -487q-12 -53 -31 -102.5t-53.5 -104.5t-78.5 -95.5t-110 -67t-145 -26.5z" />
    <glyph glyph-name="uni0453" unicode="&#x453;" horiz-adv-x="1085" 
d="M739 1200l346 350h273l-412 -350h-207zM41 0l246 1059h880l-43 -180h-659l-203 -879h-221z" />
    <glyph glyph-name="uni0454" unicode="&#x454;" horiz-adv-x="997" 
d="M414 -31q-213 0 -319.5 77t-69.5 233q21 88 100.5 170t216.5 110q-86 9 -134 81t-26 161q30 133 168 211t322 78q218 0 323 -80l-45 -201q-33 28 -122.5 56t-176.5 28q-237 0 -264 -117q-16 -68 28 -99.5t132 -31.5h164l-41 -180h-195q-79 0 -145 -41t-80 -109
q-10 -43 4 -74t48.5 -47t75.5 -23t93 -7q80 0 176.5 27.5t152.5 54.5l56 28l-47 -204q-63 -42 -185 -71.5t-210 -29.5z" />
    <glyph glyph-name="uni0455" unicode="&#x455;" horiz-adv-x="894" 
d="M287 -31q-50 0 -101 10.5t-87 25t-65.5 29.5t-43.5 26l-15 10l52 217q4 -5 12.5 -13t37 -29t59 -37t78 -29t95.5 -13q104 0 166 30t74 83q11 54 -24.5 94.5t-127.5 99.5q-36 23 -52.5 33.5t-46 33t-42.5 38t-30.5 41t-22.5 50t-6 57t8 69.5q30 134 140.5 214.5
t256.5 80.5q89 0 165.5 -21.5t113.5 -48.5l-50 -217q-30 37 -91 63.5t-136 26.5q-166 0 -190 -94q-9 -42 18 -70t125 -93l51 -34q33 -22 56.5 -40.5t45 -41t33.5 -45t19.5 -50.5t6 -61t-10.5 -73q-15 -64 -48.5 -119t-88.5 -102t-141 -74t-193 -27z" />
    <glyph glyph-name="uni0456" unicode="&#x456;" horiz-adv-x="579" 
d="M446 1210q-52 0 -80 36t-16 89q12 54 56.5 90.5t97.5 36.5q54 0 82 -36.5t16 -90.5q-12 -53 -57 -89t-99 -36zM66 0l245 1061h221l-245 -1061h-221z" />
    <glyph glyph-name="uni0457" unicode="&#x457;" horiz-adv-x="561" 
d="M240 1223q-47 0 -73.5 33t-16.5 79q10 47 52 81t89 34q46 0 71 -34t15 -81q-11 -46 -51 -79t-86 -33zM633 1223q-47 0 -73.5 33t-16.5 79q10 47 52 81t89 34q46 0 71 -34t15 -81q-11 -46 -51 -79t-86 -33zM53 0l246 1059h221l-246 -1059h-221z" />
    <glyph glyph-name="uni0458" unicode="&#x458;" horiz-adv-x="548" 
d="M434 1210q-52 0 -80 36t-16 89q12 54 56.5 90.5t97.5 36.5q54 0 82 -36.5t16 -90.5q-12 -53 -57 -89t-99 -36zM-152 -459q-46 0 -85.5 7t-66.5 18.5t-48.5 25.5t-34 27.5t-21 25t-11.5 18.5l-3 7l53 230q3 -7 8.5 -17.5t26 -38.5t45 -49.5t65.5 -39t87 -17.5
q51 0 90 28.5t58.5 66.5t29.5 85l264 1143h221l-260 -1124q-12 -53 -31 -102.5t-53.5 -104.5t-78.5 -95.5t-110 -67t-145 -26.5z" />
    <glyph glyph-name="uni0459" unicode="&#x459;" horiz-adv-x="1875" 
d="M1427 631q74 0 132 -14.5t93.5 -39.5t59 -56t32 -67.5t9 -70.5t-7.5 -68q-32 -135 -149.5 -225t-313.5 -90h-362l-191 815l-565 -815h-246l748 1059h223l104 -428h434zM1528 315q14 64 -21 100t-114 36h-357l66 -271h231q79 0 129.5 35.5t65.5 99.5z" />
    <glyph glyph-name="uni045A" unicode="&#x45a;" horiz-adv-x="1937" 
d="M1489 631q74 0 132 -14.5t93.5 -39.5t59 -56t32 -67.5t8.5 -70.5t-8 -68q-32 -135 -149.5 -225t-313.5 -90h-540l104 451h-542l-105 -451h-219l246 1059h219l-100 -428h542l101 428h219l-101 -428h322zM1589 315q14 64 -21 100t-114 36h-328l-6 -27l-55 -244h330
q79 0 129 35.5t65 99.5z" />
    <glyph glyph-name="uni045B" unicode="&#x45b;" horiz-adv-x="1464" 
d="M221 0l281 1210h-344l41 181h909l-41 -181h-344l-119 -510q5 7 14 18t42 39t71.5 50t104 39.5t137.5 17.5q187 0 279.5 -115t43.5 -325l-98 -424h-221l94 401q29 126 -18.5 196.5t-157.5 70.5q-59 0 -116.5 -19t-108 -55.5t-88.5 -94.5t-54 -130l-86 -369h-221z" />
    <glyph glyph-name="uni045C" unicode="&#x45c;" horiz-adv-x="1128" 
d="M1194 1550l-412 -350h-207l347 350h272zM877 1059h297l-619 -498l410 -561h-256l-334 483l-113 -483h-221l246 1059h221l-90 -385z" />
    <glyph glyph-name="uni045D" unicode="&#x45d;" horiz-adv-x="1312" 
d="M911 1198h-206l-170 350h272zM1036 1059h236l-246 -1059h-221l166 721l-697 -721h-233l246 1059h221l-166 -719z" />
    <glyph glyph-name="uni045E" unicode="&#x45e;" horiz-adv-x="1200" 
d="M844 1202q-65 -52 -137.5 -51.5t-112.5 53.5t-23 124t82 124q64 52 134.5 52.5t111.5 -50.5l-104 -86q-14 13 -35.5 12t-40.5 -16t-24 -37t7 -37q11 -16 32.5 -16.5t43.5 16.5h2l66 -86zM1026 1059h256l-1059 -1485h-260l422 573l-221 912h231l158 -676z" />
    <glyph glyph-name="uni045F" unicode="&#x45f;" horiz-adv-x="1333" 
d="M1292 1059l-245 -1059h-521l-192 -420h-209l192 420h-276l246 1059h221l-203 -879h563l203 879h221z" />
    <glyph glyph-name="uni0462" unicode="&#x462;" horiz-adv-x="1581" 
d="M1079 836q229 0 337 -101.5t59 -312.5q-25 -107 -82 -189t-136.5 -132.5t-173 -75.5t-198.5 -25h-606l239 1038h-401l43 185h401l39 168h223l-39 -168h422l-43 -185h-420l-47 -202h383zM1239 426q6 35 7.5 62.5t-8 49t-21 37t-31 26.5t-38 18t-43 11t-45 5.5t-44.5 1.5
h-371l-98 -428h371q271 0 321 217z" />
    <glyph glyph-name="uni0463" unicode="&#x463;" horiz-adv-x="1175" 
d="M727 631q74 0 132 -14.5t93.5 -39.5t59 -56t32 -67.5t8.5 -70.5t-8 -68q-32 -135 -149 -225t-313 -90h-529l246 1059h221l-100 -428h307zM827 315q14 64 -21 100t-114 36h-313l-64 -271h318q79 0 129 35.5t65 99.5z" />
    <glyph glyph-name="uni0472" unicode="&#x472;" horiz-adv-x="1624" 
d="M682 -31q-128 0 -234.5 37t-178 103.5t-116.5 157.5t-51 199.5t19 229.5q34 149 118 282.5t201 231.5t267.5 155.5t310.5 57.5q107 0 199.5 -26t161 -73.5t119 -114t75 -147t29 -173.5t-20.5 -193q-34 -149 -118.5 -282.5t-201.5 -231.5t-268 -155.5t-311 -57.5z
M1085 780q26 0 73.5 10.5t114 28t91.5 23.5q-2 168 -105 270t-290 102t-338.5 -102t-231.5 -270q13 3 62 20.5t96 29t88 11.5q57 0 104 -12.5t80.5 -30.5t67.5 -36.5t81.5 -31t106.5 -12.5zM731 180q210 0 372.5 127t227.5 326q-28 -6 -95.5 -23.5t-117.5 -28t-80 -10.5
q-63 0 -114 12.5t-85.5 30.5t-67 36.5t-76.5 31t-97 12.5q-42 0 -91.5 -11.5t-102 -28.5t-66.5 -21q-25 -199 79 -326t314 -127z" />
    <glyph glyph-name="uni0473" unicode="&#x473;" horiz-adv-x="1323" 
d="M791 1090q158 0 274.5 -75.5t163.5 -205t12 -281.5t-142 -280.5t-258 -203.5t-309 -75t-274.5 75t-163.5 203.5t-12 280.5t142 281.5t258 205t309 75.5zM1034 561q22 140 -59.5 235t-229.5 95q-127 0 -239.5 -72t-171.5 -188h700v-70zM578 168q133 0 250 79.5t173 203.5
h-716q-2 -123 79 -203t214 -80z" />
    <glyph glyph-name="uni0474" unicode="&#x474;" horiz-adv-x="1435" 
d="M1073 1057q83 145 225 240t332 98l-49 -209q-45 0 -82.5 -9t-63 -22.5t-49 -36t-37.5 -42t-32 -48.5l-598 -1028h-248l-209 1391h244l139 -1072z" />
    <glyph glyph-name="uni0475" unicode="&#x475;" horiz-adv-x="1183" 
d="M379 0l-176 1055h231l109 -742l448 742h232l-664 -1055h-180z" />
    <glyph glyph-name="uni0490" unicode="&#x490;" horiz-adv-x="1277" 
d="M1255 1659h224l-109 -477h-813l-274 -1182h-222l322 1391h811z" />
    <glyph glyph-name="uni0491" unicode="&#x491;" horiz-adv-x="1097" 
d="M1245 1358l-67 -299h2l-43 -180h-660l-203 -879h-221l246 1059h657l68 299h221z" />
    <glyph glyph-name="uni0492" unicode="&#x492;" horiz-adv-x="1382" 
d="M238 0l147 637h-279l50 209h278l125 545h1016l-47 -209h-795l-78 -336h633l-49 -209h-633l-147 -637h-221z" />
    <glyph glyph-name="uni0493" unicode="&#x493;" horiz-adv-x="1144" 
d="M86 0l104 451h-167l40 180h168l101 428h895l-43 -180h-674l-57 -248h426l-41 -180h-426l-105 -451h-221z" />
    <glyph glyph-name="uni0494" unicode="&#x494;" horiz-adv-x="1341" 
d="M532 -256l54 225q73 0 135.5 28.5t104.5 72t75.5 102.5t52.5 111.5t31 107.5q13 53 17.5 107t-4 112t-31 102t-70.5 72.5t-117 28.5q-132 0 -236.5 -76.5t-133.5 -201.5l-125 -535h-224l322 1391h647l-43 -185h-424l-65 -288q148 106 331 106q122 0 209.5 -40.5
t132.5 -104.5t64 -151.5t14.5 -174.5t-26.5 -180q-20 -90 -60 -177.5t-102 -169.5t-139 -144.5t-178 -100t-212 -37.5z" />
    <glyph glyph-name="uni0495" unicode="&#x495;" horiz-adv-x="1173" 
d="M602 -434q-63 0 -114 13.5t-78.5 32t-45.5 37.5t-24 33l-6 13l53 229q3 -7 8.5 -17.5t26 -38.5t44.5 -49.5t65 -39t87 -17.5q74 0 117.5 52.5t61.5 128.5l53 229q29 126 -18.5 196t-157.5 70q-59 0 -116.5 -19t-108 -55.5t-88.5 -94.5t-54 -130l-33 -139h-221l246 1059
h854l-43 -180h-633l-94 -408q5 7 14 18t42 39t71.5 50t104 39.5t137.5 17.5q187 0 279.5 -115t43.5 -325l-53 -234q-12 -53 -31 -102.5t-54 -104.5t-79 -95t-110.5 -66.5t-145.5 -26.5z" />
    <glyph glyph-name="uni0496" unicode="&#x496;" horiz-adv-x="1806" 
d="M1681 1182q-106 0 -187.5 -62t-143.5 -215q-40 -105 -86 -168q56 -44 84 -117t45 -186q43 -263 51 -328h209l-109 -477h-223l84 371h-195q-30 286 -39 340q-24 134 -42 176q-32 72 -110 87q-25 5 -56 5h-13l-141 -608h-223l141 608h-14q-30 0 -56 -3.5t-50 -15t-41.5 -20
t-39.5 -31.5t-34.5 -36.5t-36 -47.5t-35 -52t-39.5 -62q-32 -50 -65 -106.5t-73 -126.5t-61 -107h-250l269 434q76 120 134.5 190t133.5 113q-11 49 -8 168q10 152 -42.5 214.5t-158.5 62.5l47 209q197 -3 284 -96.5t77 -241.5q-6 -84 -2 -137t28.5 -77.5t79.5 -25.5
l133 578h223l-133 -578q41 1 70 14t54 46t43.5 71t47.5 109q60 149 190 242t327 96z" />
    <glyph glyph-name="uni0497" unicode="&#x497;" horiz-adv-x="1640" 
d="M1264 152l6 28h209l-140 -600h-209l99 420h-142l-221 518l-121 -518h-200l121 518l-463 -518h-244l530 582l-284 477h244l239 -443l103 443h200l-102 -443l444 443h244l-506 -477z" />
    <glyph glyph-name="uni0498" unicode="&#x498;" horiz-adv-x="1208" 
d="M1196 1085q-30 -126 -137.5 -219.5t-216.5 -117.5q145 -22 216 -115.5t38 -237.5q-26 -113 -101 -203.5t-203 -150.5t-292 -70h10l-61 -114q5 -1 13.5 -3.5t29 -12t35 -23t23.5 -37.5t3 -53q-11 -47 -45.5 -81.5t-83.5 -53t-99 -27t-102 -8.5l29 118q45 0 88 19t51 55
q7 31 -17.5 50.5t-52.5 23.5l-28 4l72 143h8q-118 8 -230.5 40t-162.5 79l51 221q72 -62 197.5 -99.5t250.5 -37.5q171 0 267 62t120 159q22 97 -54.5 167.5t-236.5 70.5h-258l45 201h230q146 0 248 52t123 144q21 85 -35 137t-213 52q-101 0 -240.5 -34t-210.5 -69l49 215
q90 36 217 64t258 28q235 0 339.5 -90.5t68.5 -247.5z" />
    <glyph glyph-name="uni0499" unicode="&#x499;" horiz-adv-x="1038" 
d="M942 801q-22 -90 -102 -161.5t-172 -80.5q53 -12 92.5 -35.5t60.5 -52.5t33 -63t10.5 -66.5t-6.5 -62.5q-33 -140 -148.5 -216t-291.5 -90l-58 -106q5 -1 13.5 -3.5t29.5 -12t35.5 -23t23.5 -37.5t3 -53q-11 -47 -45.5 -81.5t-83.5 -53t-99 -27t-102 -8.5l29 119
q46 0 88.5 18.5t50.5 54.5q7 31 -17.5 50.5t-52.5 23.5l-28 4l67 133q-88 8 -174.5 35.5t-122.5 63.5l48 204q6 -4 17.5 -11.5t48 -26.5t74 -33.5t91.5 -26.5t104 -12q255 0 291 151q15 68 -31 109t-124 41h-195l41 180h164q190 0 221 131q14 62 -41.5 89.5t-169.5 27.5
q-87 0 -190 -28t-146 -56l45 201q140 80 361 80q184 0 286 -78t72 -211z" />
    <glyph glyph-name="uni049A" unicode="&#x49a;" horiz-adv-x="1409" 
d="M1309 1182q-106 0 -188 -62t-144 -215q-40 -105 -86 -168q56 -44 84 -117t45 -186q43 -263 51 -328h219l-108 -477h-224l84 371h-204q-30 286 -39 340q-24 135 -43 177q-33 73 -113 87q-23 4 -53 4h-164l-141 -608h-224l322 1391h223l-133 -578h143q44 0 75 12t57 45
t44.5 71.5t47.5 111.5q60 149 189.5 242t326.5 96z" />
    <glyph glyph-name="uni049B" unicode="&#x49b;" horiz-adv-x="1277" 
d="M907 178v2h209l-139 -600h-209l98 420h-157q-28 244 -31 260q-8 48 -13.5 72.5t-17 52.5t-27 40.5t-41.5 21t-63 8.5h-147l-107 -455h-221l246 1059h221l-98 -424h125q66 0 96 33.5t71 138.5q105 255 437 258l-41 -180q-86 0 -146.5 -32.5t-93.5 -117.5
q-26 -66 -53.5 -103.5t-65.5 -60.5q68 -22 96.5 -74.5t47.5 -164.5z" />
    <glyph glyph-name="uni049C" unicode="&#x49c;" horiz-adv-x="1374" 
d="M1004 1053q60 149 189.5 242t326.5 96l-47 -209q-106 0 -188 -62t-144 -215q-40 -105 -86 -168q56 -44 84 -117t45 -186q36 -207 67 -434h-250q-3 31 -10 105.5t-13.5 129t-14.5 105.5q-24 135 -43 177q-33 73 -113 87q-23 4 -53 4h-9l-61 -262h-184l61 262h-135
l-141 -608h-224l322 1391h223l-133 -578h135l56 244h184l-55 -244q77 3 117 53t94 187z" />
    <glyph glyph-name="uni049D" unicode="&#x49d;" horiz-adv-x="1290" 
d="M41 0l246 1059h221l-98 -424h120l48 209h188l-47 -209q58 3 87 37.5t68 134.5q105 255 437 258l-41 -180q-86 0 -146.5 -32.5t-93.5 -117.5q-26 -66 -53.5 -103.5t-65.5 -60.5q68 -22 96.5 -74.5t47.5 -164.5q28 -174 51 -332h-225q-28 244 -31 260q-8 48 -13.5 72.5
t-17 52.5t-27 40.5t-41.5 21t-63 8.5h-10l-49 -211h-189l49 211h-120l-107 -455h-221z" />
    <glyph glyph-name="uni049E" unicode="&#x49e;" horiz-adv-x="1454" 
d="M1083 1053q60 149 189.5 242t326.5 96l-47 -209q-106 0 -187.5 -62t-143.5 -215q-40 -105 -86 -168q56 -44 84 -117t45 -186q36 -207 67 -434h-250q-30 286 -39 340q-24 134 -42 176q-32 72 -110 87q-25 5 -56 5h-164l-142 -608h-223l244 1053h-365l43 184h365l35 154
h223l-35 -154h123l-43 -184h-123l-55 -240h143q44 0 74.5 12t56.5 45t44.5 71.5t47.5 111.5z" />
    <glyph glyph-name="uni049F" unicode="&#x49f;" horiz-adv-x="1144" 
d="M47 0l254 1100h-129l43 184h129l25 107l229 36l-33 -143h176l-43 -184h-176l-106 -465h125q66 0 96.5 34t71.5 138q105 255 436 258l-41 -180q-86 0 -146.5 -32.5t-93.5 -117.5q-26 -66 -53.5 -103.5t-65.5 -60.5q68 -22 96.5 -74.5t47.5 -164.5q28 -175 51 -332h-225
q-28 244 -31 260q-8 48 -13.5 72.5t-17 52.5t-27 40.5t-41.5 21t-63 8.5h-147l-107 -455h-221z" />
    <glyph glyph-name="uni04A0" unicode="&#x4a0;" horiz-adv-x="1654" 
d="M487 0l279 1206h-426l43 185h649l-133 -578h143q44 0 75 12t57 45t44.5 71.5t47.5 111.5q60 149 189.5 242t326.5 96l-47 -209q-106 0 -188 -62t-144 -215q-40 -105 -86 -168q56 -44 84 -117t45 -186q36 -207 67 -434h-249q-30 286 -39 340q-24 135 -43 177
q-33 73 -113 87q-23 4 -53 4h-164l-141 -608h-224z" />
    <glyph glyph-name="uni04A1" unicode="&#x4a1;" horiz-adv-x="1200" 
d="M123 0l203 879h-246l43 180h467l-98 -424h124q66 0 96.5 34t71.5 138q105 255 437 258l-41 -180q-86 0 -146.5 -32.5t-93.5 -117.5q-26 -66 -53.5 -103.5t-65.5 -60.5q68 -22 96.5 -74.5t47.5 -164.5q28 -175 51 -332h-225q-28 244 -31 260q-8 48 -13.5 72.5t-17 52.5
t-27 40.5t-41.5 21t-63 8.5h-147l-107 -455h-221z" />
    <glyph glyph-name="uni04A2" unicode="&#x4a2;" horiz-adv-x="1519" 
d="M1559 1391l-297 -1285h159l-108 -477h-223l84 371h-160l147 637h-729l-147 -637h-224l322 1391h223l-127 -545h729l127 545h224z" />
    <glyph glyph-name="uni04A3" unicode="&#x4a3;" horiz-adv-x="1435" 
d="M1268 1059l-205 -879h205l-140 -600h-208l98 420h-215l104 451h-542l-105 -451h-219l246 1059h219l-100 -428h542l101 428h219z" />
    <glyph glyph-name="uni04A4" unicode="&#x4a4;" horiz-adv-x="1781" 
d="M1577 1391h223l-321 -1391h-224l148 637h-729l-148 -637h-223l279 1206h-426l43 185h649l-127 -545h729z" />
    <glyph glyph-name="uni04A5" unicode="&#x4a5;" horiz-adv-x="1392" 
d="M41 0l246 1059h219l-100 -428h542l101 428h467l-43 -180h-248l-203 -879h-219l104 451h-542l-105 -451h-219z" />
    <glyph glyph-name="uni04A6" unicode="&#x4a6;" horiz-adv-x="2160" 
d="M1348 -276l57 245q73 0 135.5 28.5t104.5 72t75.5 102.5t52.5 111.5t31 107.5q13 53 17.5 107t-3.5 112t-30.5 102t-71 72.5t-117.5 28.5q-137 0 -239.5 -80t-132.5 -201l-123 -532h-223l274 1182h-598l-274 -1182h-222l322 1391h1042l-108 -473q148 106 332 106
q88 0 158.5 -21t117 -57t78.5 -87t46.5 -107.5t18 -122t-3.5 -128.5t-22 -128q-20 -90 -60 -179.5t-103 -174.5t-140 -150.5t-178.5 -105t-212.5 -39.5z" />
    <glyph glyph-name="uni04A7" unicode="&#x4a7;" horiz-adv-x="1904" 
d="M1272 -434q-63 0 -114 13.5t-78.5 32t-45.5 37.5t-24 33l-6 13l53 229q3 -7 8.5 -17.5t26 -38.5t44.5 -49.5t65 -39t87 -17.5q74 0 117 52.5t61 128.5l54 229q29 126 -19 196t-158 70q-79 0 -153 -32.5t-132.5 -102t-80.5 -164.5l-33 -139h-221l203 879h-461l-203 -879
h-221l246 1059h903l-137 -588q2 3 6.5 9t21 23t36 32.5t51.5 34.5t67 32.5t84 23t102 9.5q187 0 280 -115t44 -325l-53 -234q-12 -53 -31 -102.5t-54 -104.5t-79 -95t-110.5 -66.5t-145.5 -26.5z" />
    <glyph glyph-name="uni04A8" unicode="&#x4a8;" horiz-adv-x="1597" 
d="M537 -416l90 389q-191 21 -320.5 123.5t-175.5 260t0 339.5q32 148 119 282t209.5 233t281.5 156.5t326 55.5q269 0 422 -123l-55 -235q-2 7 -21.5 23t-58 38t-86 41.5t-114.5 33t-136 13.5q-247 0 -425 -146.5t-231 -371.5q-47 -200 36.5 -339t279.5 -169l194 846
q132 1 238 -16.5t179.5 -51t125.5 -81t74.5 -106t27.5 -126t-16 -141.5q-44 -202 -224 -354.5t-425 -182.5l-92 -391h-223zM901 195q139 32 242 122.5t127 194.5q24 103 -28.5 180.5t-199.5 110.5z" />
    <glyph glyph-name="uni04A9" unicode="&#x4a9;" horiz-adv-x="1198" 
d="M340 -416l90 389q-114 13 -195 61.5t-120.5 122.5t-49.5 170t17 203q36 154 137.5 281.5t252.5 203t319 75.5q105 0 201 -32t149 -95l-54 -228q-4 7 -11 17.5t-36 38t-64.5 48.5t-97.5 38.5t-133 17.5q-155 0 -283.5 -106.5t-164.5 -258.5q-33 -144 14 -238.5t166 -119.5
l135 592q265 0 388.5 -100t78.5 -297q-37 -158 -147 -256.5t-291 -128.5l-92 -398h-209zM688 180q146 39 176 187q18 79 -5.5 121.5t-86.5 62.5z" />
    <glyph glyph-name="uni04AA" unicode="&#x4aa;" horiz-adv-x="1441" 
d="M1067 1423q269 0 422 -123l-55 -235q-2 7 -21.5 23t-58 38t-86 41.5t-114.5 33t-136 13.5q-247 0 -425 -146.5t-231 -371.5q-34 -147 2 -263.5t143.5 -184.5t272.5 -68q140 0 280.5 40.5t244.5 113.5l-56 -240q-3 -1 -26.5 -13.5t-46 -23t-64.5 -25.5t-84.5 -26.5
t-103.5 -21.5t-125 -13l-56 -104q5 -1 13.5 -3.5t29.5 -12t35.5 -23t23.5 -37.5t3 -53q-11 -47 -45.5 -81.5t-83.5 -53t-99 -27t-102 -8.5l29 119q46 0 88.5 18.5t50.5 54.5q7 31 -17.5 50.5t-52.5 23.5l-28 4l67 133q-201 15 -337 117t-184.5 261.5t-2.5 346.5
q32 148 119 282t209.5 233t281.5 156.5t326 55.5z" />
    <glyph glyph-name="uni04AB" unicode="&#x4ab;" horiz-adv-x="1132" 
d="M791 1090q105 0 201 -32t149 -95l-54 -228q-4 7 -11 17.5t-36 38t-64.5 48.5t-97.5 38.5t-133 17.5q-155 0 -283.5 -106.5t-164.5 -258.5q-38 -165 43.5 -265.5t257.5 -100.5q69 0 136.5 11.5t113.5 27.5t82 32t54 27l17 12l-47 -204q-125 -83 -331 -99l-58 -104
q5 -1 13.5 -3.5t29.5 -12t35.5 -23t23.5 -37.5t3 -53q-11 -47 -45.5 -81.5t-83.5 -53t-99 -27t-102 -8.5l29 119q46 0 88.5 18.5t50.5 54.5q7 31 -17.5 50.5t-52.5 23.5l-28 4l67 135q-245 23 -346.5 177.5t-48.5 379.5q36 154 137.5 281.5t252.5 203t319 75.5z" />
    <glyph glyph-name="uni04AC" unicode="&#x4ac;" horiz-adv-x="1359" 
d="M281 1391h1196l-47 -209h-488l-250 -1076h223l-108 -477h-223l100 445l-16 -74h-222l275 1182h-488z" />
    <glyph glyph-name="uni04AD" unicode="&#x4ad;" horiz-adv-x="1148" 
d="M1147 879h-379l-162 -699h209l-139 -600h-209l98 420h-221l203 879h-385l43 180h985z" />
    <glyph glyph-name="uni04AE" unicode="&#x4ae;" horiz-adv-x="1384" 
d="M1255 1391h287l-721 -795l-139 -596h-225l139 596l-356 795h252l249 -576z" />
    <glyph glyph-name="uni04AF" unicode="&#x4af;" horiz-adv-x="1044" 
d="M899 1061h258l-551 -647l-96 -414h-221l96 414l-252 647h236l163 -443z" />
    <glyph glyph-name="uni04B0" unicode="&#x4b0;" horiz-adv-x="1384" 
d="M821 596l-37 -154h246l-43 -184h-246l-59 -258h-225l59 258h-240l43 184h240l37 154l-356 795h252l249 -576l514 576h287z" />
    <glyph glyph-name="uni04B1" unicode="&#x4b1;" horiz-adv-x="1044" 
d="M1157 1061l-541 -635h289l-41 -180h-297l-57 -246h-221l57 246h-297l41 180h291l-248 635h236l163 -443l367 443h258z" />
    <glyph glyph-name="uni04B2" unicode="&#x4b2;" horiz-adv-x="1480" 
d="M901 729l316 -623h145l-109 -477h-223l84 371h-115l-262 526l-489 -526h-307l696 733l-344 658h270l230 -471l454 471h307z" />
    <glyph glyph-name="uni04B3" unicode="&#x4b3;" horiz-adv-x="1304" 
d="M778 551l217 -371h209l-139 -600h-209l98 420h-118l-213 389l-398 -389h-297l588 569l-301 490h266l193 -326l350 326h283z" />
    <glyph glyph-name="uni04B4" unicode="&#x4b4;" horiz-adv-x="1753" 
d="M1710 1391l-297 -1285h221l-108 -477h-223l83 371h-1120l279 1206h-389l43 185h1067l-43 -185h-457l-229 -997h680l272 1182h221z" />
    <glyph glyph-name="uni04B5" unicode="&#x4b5;" horiz-adv-x="1476" 
d="M1333 1059l-205 -879h187l-139 -600h-209l98 420h-942l203 879h-246l43 180h713l-43 -180h-246l-160 -699h522l203 879h221z" />
    <glyph glyph-name="uni04B6" unicode="&#x4b6;" horiz-adv-x="1470" 
d="M1448 1391l-297 -1285h221l-108 -477h-224l84 371h-221l92 395q-205 -28 -387 -28q-96 0 -173.5 17.5t-139.5 55.5t-96 98.5t-44 145t17 195.5l119 512h223l-119 -512q-12 -52 -12.5 -94.5t8 -73.5t27 -54t42.5 -37.5t56.5 -23.5t66 -12.5t74.5 -3.5q165 0 385 22
l183 789h223z" />
    <glyph glyph-name="uni04B7" unicode="&#x4b7;" horiz-adv-x="1406" 
d="M1038 180h207l-139 -600h-209l98 420h-219l117 502q-6 -9 -17.5 -22.5t-44 -40t-71.5 -47.5t-102.5 -37.5t-133.5 -16.5q-187 0 -279.5 115t-43.5 325l65 281h221l-59 -258q-30 -126 18 -196t158 -70q59 0 116 19t107 55.5t88 94.5t54 130l-60 -259l113 484h221z" />
    <glyph glyph-name="uni04B8" unicode="&#x4b8;" horiz-adv-x="1433" 
d="M1225 1391h223l-322 -1391h-223l92 395q-87 -13 -227 -22l-63 -273h-185l62 267q-92 2 -165.5 21.5t-131.5 58.5t-90 98.5t-40.5 142.5t17.5 191l119 512h223l-119 -512q-11 -59 -13 -103.5t12.5 -77.5t35 -55t53.5 -35.5t68.5 -19.5t79.5 -8l53 231h184l-53 -227
q74 3 227 18z" />
    <glyph glyph-name="uni04B9" unicode="&#x4b9;" horiz-adv-x="1284" 
d="M1022 1059h221l-246 -1059h-221l117 502q-71 -95 -201 -137l-26 -121h-189l23 94q-175 8 -261 122.5t-38 317.5l65 281h221l-59 -258q-26 -107 5.5 -174t111.5 -86l69 303h189l-66 -285q84 34 146 104t86 171l-60 -259z" />
    <glyph glyph-name="uni04BA" unicode="&#x4ba;" horiz-adv-x="1351" 
d="M92 0l322 1391h223l-90 -396q208 29 305 29q121 0 209 -28t147.5 -89t73 -158.5t-15.5 -236.5l-119 -512h-223l118 512q12 52 13.5 94.5t-6 73.5t-25 54t-41 37.5t-56 23.5t-67 12.5t-78.5 3.5q-92 0 -284 -23l-183 -788h-223z" />
    <glyph glyph-name="uni04BB" unicode="&#x4bb;" horiz-adv-x="1282" 
d="M842 1092q187 0 280.5 -115.5t44.5 -325.5l-151 -651h-221l145 629q29 126 -18.5 196t-157.5 70q-76 0 -147 -30.5t-128.5 -95.5t-82.5 -153l-144 -616h-221l321 1391l230 36l-115 -497q11 16 32.5 36.5t65 52t114.5 52.5t153 21z" />
    <glyph glyph-name="uni04BC" unicode="&#x4bc;" horiz-adv-x="1853" 
d="M1042 -31q-119 -2 -215 22.5t-161.5 71t-109.5 110.5t-63 144t-17.5 168.5t22.5 186.5q-102 20 -169 60t-101 102.5t-26.5 152t58.5 205.5h232q-72 -137 -53 -208t126 -99q106 239 317.5 386t456.5 152q81 1 152 -16t125 -49.5t97 -77.5t70 -100t41.5 -117t14 -129
t-15.5 -135l-33 -150h-1063q-17 -84 -17.5 -152t20 -128.5t63.5 -101.5t118 -65t179 -24q268 0 546 150l-53 -236q-90 -43 -233.5 -81.5t-307.5 -41.5zM788 858h816q9 73 -5.5 136t-51.5 112t-103 77.5t-154 28.5q-163 0 -295 -93.5t-207 -260.5z" />
    <glyph glyph-name="uni04BD" unicode="&#x4bd;" horiz-adv-x="1499" 
d="M1061 1090q90 0 162 -28.5t117.5 -77.5t73.5 -114t29.5 -138.5t-13.5 -151.5l-25 -103h-846q-5 -64 9.5 -118t49 -98.5t98 -69.5t150.5 -25q42 0 83.5 4t77 10t69.5 14.5t62 17.5t52 18t42.5 17.5t31.5 14.5t20 10l7 4l-45 -198q-6 -4 -17 -11.5t-52 -26.5t-88.5 -33
t-126 -26t-165.5 -12q-129 0 -227.5 40.5t-155 111t-78 163.5t-4.5 201q-84 13 -146.5 43t-106 83t-54.5 128.5t8 178.5h187q-39 -128 5.5 -189t155.5 -76q86 193 267.5 315t392.5 122zM1225 649q5 21 2 48t-7 56t-21.5 57t-42 50t-67.5 35.5t-98 13.5q-66 0 -125 -19.5
t-100 -48t-74.5 -65.5t-52 -68t-29.5 -59h615z" />
    <glyph glyph-name="uni04BE" unicode="&#x4be;" horiz-adv-x="1853" 
d="M1339 1423q81 1 152 -16t125 -49.5t97 -77.5t70 -100t41.5 -117t14 -129t-15.5 -135l-33 -150h-1063q-17 -84 -17.5 -152t20 -128.5t63.5 -101.5t118 -65t179 -24q268 0 546 150l-53 -236q-246 -114 -518 -123q-85 -94 -96 -145q-9 -47 14 -67.5t90 -20.5l-43 -180
q-33 0 -69 7t-75 23.5t-65 43.5t-39.5 67.5t0.5 95.5q21 93 121 184q-92 13 -165.5 45.5t-123.5 81t-82.5 110.5t-45.5 135.5t-10 154t22 168.5q-102 20 -169 60t-101 102.5t-26.5 152t58.5 205.5h232q-72 -137 -53 -208t126 -99q106 239 317.5 386t456.5 152zM1604 858
q9 73 -5.5 136t-51.5 112t-103 77.5t-154 28.5q-163 0 -295 -93.5t-207 -260.5h816z" />
    <glyph glyph-name="uni04BF" unicode="&#x4bf;" horiz-adv-x="1499" 
d="M1061 1090q90 0 162 -28.5t117.5 -77.5t73.5 -114t29.5 -138.5t-13.5 -151.5l-25 -103h-846q-5 -64 9.5 -118t49 -98.5t98 -69.5t150.5 -25q42 0 83.5 4t77 10t69.5 14.5t62 17.5t52 18t42.5 17.5t31.5 14.5t20 10l7 4l-45 -198q-5 -4 -13.5 -9.5t-41 -21.5t-70 -29.5
t-99 -26.5t-129.5 -18q-84 -93 -98 -149q-9 -47 14 -67.5t91 -20.5l-43 -180q-33 0 -69 7t-75 23.5t-65 43.5t-39.5 67.5t0.5 95.5q22 95 116 180q-111 11 -195 55t-132 113t-65 157t-1 187q-84 13 -146.5 43t-106 83t-54.5 128.5t8 178.5h187q-39 -128 5.5 -189t155.5 -76
q86 193 267.5 315t392.5 122zM1225 649q5 21 2 48t-7 56t-21.5 57t-42 50t-67.5 35.5t-98 13.5q-66 0 -125 -19.5t-100 -48t-74.5 -65.5t-52 -68t-29.5 -59h615z" />
    <glyph glyph-name="uni04C0" unicode="&#x4c0;" horiz-adv-x="591" 
d="M61 0l322 1391h223l-321 -1391h-224z" />
    <glyph glyph-name="uni04C1" unicode="&#x4c1;" horiz-adv-x="1691" 
d="M1059 1534q-58 0 -104 15t-75.5 41t-49 59.5t-26.5 73.5t-6 80t11 81h207q-5 -33 -5 -70.5t23 -68.5t66 -31t80 31.5t56.5 68t27.5 70.5h206q-15 -63 -47 -122t-81.5 -111.5t-123 -84.5t-159.5 -32zM-41 0l268 434q76 119 135 189.5t134 113.5q-12 53 -9 168
q10 153 -42 215t-158 62l47 209q197 -3 283.5 -96.5t76.5 -241.5q-6 -84 -2 -137t29 -77.5t80 -25.5l133 578h223l-133 -578q41 1 70 14t54 46t43.5 71t47.5 109q60 149 189.5 242t326.5 96l-47 -209q-106 0 -188 -62t-144 -215q-40 -105 -86 -168q56 -44 84 -117t45 -186
q41 -236 68 -434h-250q-30 286 -39 340q-24 135 -43 177q-33 73 -113 87q-23 4 -53 4h-12l-141 -608h-224l142 608h-15q-35 0 -65 -7t-52.5 -15t-48 -30.5t-40.5 -36.5t-41.5 -52t-39 -57t-44.5 -70q-32 -50 -65 -106.5t-73 -126.5t-61 -107h-250z" />
    <glyph glyph-name="uni04C2" unicode="&#x4c2;" horiz-adv-x="1536" 
d="M1079 1200q-65 -52 -137.5 -51.5t-112.5 53.5t-22.5 124t82.5 124q64 52 134.5 52.5t111.5 -50.5l-105 -86q-14 13 -35.5 12t-40.5 -16t-23.5 -37t7.5 -37q11 -16 32.5 -16.5t43.5 16.5h2l65 -86zM-41 0l530 582l-284 477h244l239 -443l103 443h200l-102 -443l444 443
h244l-506 -477l260 -582h-244l-221 518l-121 -518h-200l121 518l-463 -518h-244z" />
    <glyph glyph-name="uni04C3" unicode="&#x4c3;" horiz-adv-x="1300" 
d="M471 -236l47 205q165 0 263 83.5t130 217.5q10 55 10 104.5t-21.5 92t-58.5 73.5t-100 49t-147 19h-168l-141 -608h-224l322 1391h223l-133 -578h160q87 0 141.5 54t106.5 186q60 149 189.5 242t326.5 96l-47 -209q-106 0 -188 -62t-144 -215q-48 -122 -121 -174
q157 -55 225.5 -175.5t30.5 -285.5q-55 -234 -234.5 -370t-447.5 -136z" />
    <glyph glyph-name="uni04C4" unicode="&#x4c4;" horiz-adv-x="1122" 
d="M440 -254l41 180q109 0 182 75.5t103 207.5q28 122 -37 184t-205 62h-155l-107 -455h-221l246 1059h221l-98 -424h125q66 0 96 33.5t71 138.5q105 255 437 258l-41 -180q-86 0 -146.5 -32.5t-93.5 -117.5q-23 -62 -49.5 -99t-63.5 -61q145 -33 200 -129t22 -237
q-54 -230 -193 -346.5t-334 -116.5z" />
    <glyph glyph-name="uni04C5" unicode="&#x4c5;" horiz-adv-x="1675" 
d="M1354 106h223l-109 -477h-223l84 371h-219l-57 330l-142 762l-446 -678l-283 -414h-262l938 1391h215l277 -1299z" />
    <glyph glyph-name="uni04C6" unicode="&#x4c6;" horiz-adv-x="1624" 
d="M909 -420l269 420h-146l203 879h-447q-87 -288 -167 -553q-50 -164 -164.5 -253t-268.5 -89q-63 0 -117 15.5t-77 31.5l-23 16l43 193q8 -7 23.5 -17t67.5 -26.5t108 -16.5q77 0 130 51.5t73 118.5l209 709h874l-203 -879h228l-385 -600h-230z" />
    <glyph glyph-name="uni04C7" unicode="&#x4c7;" horiz-adv-x="1540" 
d="M629 -256l53 225q91 0 163.5 30t119 81.5t74.5 109t42 123.5l76 324h-725l-147 -637h-224l322 1391h223l-125 -545h725l125 545h223l-254 -1100q-26 -112 -80.5 -208.5t-136 -173.5t-198.5 -121t-256 -44z" />
    <glyph glyph-name="uni04C8" unicode="&#x4c8;" horiz-adv-x="1226" 
d="M526 -459q-63 0 -117.5 16t-78.5 32l-23 16l41 176q8 -7 23 -17t66.5 -26.5t107.5 -16.5q77 0 125.5 51t66.5 119l129 560h-542l-105 -451h-219l246 1059h219l-100 -428h542l101 428h219l-277 -1198q-34 -150 -151 -235t-273 -85z" />
    <glyph glyph-name="uni04C9" unicode="&#x4c9;" horiz-adv-x="1540" 
d="M1559 1391l-297 -1285h180l-277 -473h-186l195 367h-160l147 637h-729l-147 -637h-224l322 1391h223l-127 -545h729l127 545h224z" />
    <glyph glyph-name="uni04CA" unicode="&#x4ca;" horiz-adv-x="1349" 
d="M635 -420l268 420h-141l104 451h-542l-105 -451h-219l246 1059h219l-100 -428h542l101 428h219l-203 -879h225l-385 -600h-229z" />
    <glyph glyph-name="uni04CB" unicode="&#x4cb;" horiz-adv-x="1433" 
d="M1448 1391l-322 -1391h-131l-84 -371h-223l109 477h131l67 289q-205 -28 -387 -28q-96 0 -173.5 17.5t-139.5 55.5t-96 98.5t-44 145t17 195.5l119 512h223l-119 -512q-12 -52 -12.5 -94.5t8 -73.5t27 -54t42.5 -37.5t56.5 -23.5t66 -12.5t74.5 -3.5q165 0 385 22
l183 789h223z" />
    <glyph glyph-name="uni04CC" unicode="&#x4cc;" horiz-adv-x="1284" 
d="M1243 1059l-246 -1059h-217l-98 -420h-209l139 600h205l76 322q-6 -9 -17.5 -22.5t-44 -40t-71.5 -47.5t-102.5 -37.5t-133.5 -16.5q-187 0 -279.5 115t-43.5 325l65 281h221l-59 -258q-30 -126 18 -196t158 -70q59 0 116 19t107 55.5t88 94.5t54 130l-60 -259l113 484
h221z" />
    <glyph glyph-name="uni04CD" unicode="&#x4cd;" horiz-adv-x="1701" 
d="M1708 1391l-297 -1285h197l-277 -473h-186l194 367h-174l244 1055l-459 -516h-202l-222 516l-243 -1055h-222l322 1391h260l258 -619v-2l547 621h260z" />
    <glyph glyph-name="uni04CE" unicode="&#x4ce;" horiz-adv-x="1523" 
d="M1440 1059l-205 -879h127l-139 -600h-209l98 420h-139l184 793l-358 -408h-181l-172 408l-184 -793h-221l246 1059h272l199 -459l416 459h266z" />
    <glyph glyph-name="uni04CF" unicode="&#x4cf;" horiz-adv-x="561" 
d="M53 0l246 1059h221l-246 -1059h-221z" />
    <glyph glyph-name="uni04D0" unicode="&#x4d0;" horiz-adv-x="1536" 
d="M1161 1534q-65 -52 -137.5 -51.5t-112.5 53.5t-22.5 124t82.5 124q64 52 134.5 52.5t111.5 -50.5l-105 -86q-14 13 -35.5 12t-40.5 -16t-23.5 -37t7.5 -37q11 -16 32.5 -16.5t43.5 16.5h2l65 -86zM1073 1391l297 -1391h-260l-57 330h-656l-215 -330h-262l938 1391h215z
M532 539h486l-109 569z" />
    <glyph glyph-name="uni04D1" unicode="&#x4d1;" horiz-adv-x="1376" 
d="M1001 1200q-65 -52 -137 -51.5t-112 53.5t-23 124t82 124q64 52 134.5 52.5t111.5 -50.5l-105 -86q-14 13 -35 12t-40 -16t-24 -37t7 -37q11 -16 32.5 -16.5t43.5 16.5h2l66 -86zM506 -31q-159 0 -269 75t-150.5 203t-4.5 281q36 154 135 282t244 204t303 76
q110 0 195.5 -37.5t130.5 -96.5l24 103h221l-250 -1059h-221l29 109q-171 -140 -387 -140zM567 166q153 0 275.5 98t161.5 266q39 167 -39 265t-230 98q-148 0 -272 -105.5t-160 -257.5t40 -258t224 -106z" />
    <glyph glyph-name="uni04D2" unicode="&#x4d2;" horiz-adv-x="1536" 
d="M788 1556q-47 0 -74 33.5t-16 79.5q10 47 52.5 81t89.5 34q46 0 71 -34t15 -81q-11 -46 -51.5 -79.5t-86.5 -33.5zM1182 1556q-47 0 -74 33.5t-16 79.5q10 47 52 81t89 34q46 0 71 -34t15 -81q-11 -46 -51 -79.5t-86 -33.5zM1073 1391l297 -1391h-260l-57 330h-656
l-215 -330h-262l938 1391h215zM532 539h486l-109 569z" />
    <glyph glyph-name="uni04D3" unicode="&#x4d3;" horiz-adv-x="1376" 
d="M629 1223q-47 0 -73.5 33t-16.5 79q10 47 52 81t89 34q46 0 71 -34t15 -81q-11 -46 -51 -79t-86 -33zM1022 1223q-47 0 -73.5 33t-16.5 79q10 47 52 81t89 34q46 0 71 -34t15 -81q-11 -46 -51 -79t-86 -33zM506 -31q-159 0 -269 75t-150.5 203t-4.5 281q36 154 135 282
t244 204t303 76q110 0 195.5 -37.5t130.5 -96.5l24 103h221l-250 -1059h-221l29 109q-171 -140 -387 -140zM567 166q153 0 275.5 98t161.5 266q39 167 -39 265t-230 98q-148 0 -272 -105.5t-160 -257.5t40 -258t224 -106z" />
    <glyph glyph-name="uni04D4" unicode="&#x4d4;" horiz-adv-x="2136" 
d="M2173 1182h-795l-78 -336h633l-49 -209h-631l-98 -428h805l-49 -209h-1028l75 330h-495l-307 -330h-279l1303 1391h1040zM659 539h349l114 495z" />
    <glyph glyph-name="uni04D5" unicode="&#x4d5;" horiz-adv-x="1992" 
d="M1554 1090q90 0 162 -28.5t117.5 -77.5t73.5 -114t29.5 -138.5t-13.5 -151.5l-25 -103h-835l-10 -49q5 -117 80 -189.5t227 -72.5q42 0 83.5 4t77 10t69.5 14.5t61.5 17.5t52 18t42.5 17.5t31 14.5t20 10l7 4l-45 -198q-6 -4 -17 -11.5t-51.5 -26.5t-88 -33t-126 -26
t-165.5 -12q-152 0 -258 54t-162 151q-88 -103 -218 -154t-282 -51q-192 0 -292.5 99t-63.5 258q38 161 184 260.5t338 99.5q195 0 317 -70l7 27q29 129 -40 190.5t-214 61.5q-179 0 -359 -78l47 203q157 72 381 72q310 0 394 -179q99 84 218.5 130.5t245.5 46.5zM1718 649
q5 21 2.5 48t-7 56t-21.5 57t-41.5 50t-67.5 35.5t-98 13.5q-66 0 -125 -19.5t-100 -48t-74.5 -65.5t-52 -68t-29.5 -59h614zM807 326q21 90 -47 135t-205 45q-118 0 -202.5 -47.5t-104.5 -132.5q-20 -88 48 -132t177 -44q145 0 230 47t104 129z" />
    <glyph glyph-name="uni04D6" unicode="&#x4d6;" horiz-adv-x="1314" 
d="M1059 1534q-65 -52 -137.5 -51.5t-112.5 53.5t-23 124t82 124q64 52 134.5 52.5t111.5 -50.5l-104 -86q-14 13 -35.5 12t-40.5 -16t-23.5 -37t7.5 -37q11 -16 32 -16.5t43 16.5h2l66 -86zM1352 1182h-795l-78 -336h633l-49 -209h-631l-98 -428h805l-49 -209h-1029
l322 1391h1016z" />
    <glyph glyph-name="uni04D7" unicode="&#x4d7;" horiz-adv-x="1220" 
d="M977 1200q-65 -52 -137.5 -51.5t-112.5 53.5t-23 124t82 124q64 52 134.5 52.5t111.5 -50.5l-104 -86q-14 13 -35.5 12t-40.5 -16t-23.5 -37t7.5 -37q11 -16 32 -16.5t43 16.5h2l66 -86zM539 -31q-91 0 -168 20.5t-132 57.5t-95 88.5t-57.5 113.5t-20.5 133.5t16 147.5
q56 239 255.5 399.5t444.5 160.5q90 0 162 -28.5t117.5 -77.5t73.5 -114t29.5 -138.5t-13.5 -151.5l-25 -103h-845q-5 -64 9.5 -118t49 -98.5t98 -69.5t150.5 -25q42 0 83.5 4t77 10t69.5 14.5t61.5 17.5t52 18t42.5 17.5t31 14.5t20 10l7 4l-45 -198q-6 -4 -17 -11.5
t-51.5 -26.5t-88 -33t-126 -26t-165.5 -12zM332 649h614q5 21 2.5 48t-7 56t-21.5 57t-41.5 50t-67.5 35.5t-98 13.5q-66 0 -125 -19.5t-100 -48t-74.5 -65.5t-52 -68t-29.5 -59z" />
    <glyph glyph-name="uni04D8" unicode="&#x4d8;" horiz-adv-x="1480" 
d="M592 -31q-81 -1 -152 18.5t-124.5 55.5t-95 85.5t-67.5 109t-39.5 125t-12.5 135t16 137.5l35 149h1060q9 74 7.5 139t-26 118.5t-66.5 92t-115 59.5t-172 21q-41 0 -83.5 -4t-79 -9.5t-74.5 -15t-67.5 -18t-61.5 -20.5t-53.5 -20.5t-46.5 -20.5t-36.5 -17.5t-27.5 -14.5
l-17 -9l55 235q87 42 231 81t310 42q122 2 219.5 -23.5t163.5 -74t109 -116t60 -150t13 -174.5t-29 -193q-44 -205 -168.5 -370t-299 -257.5t-365.5 -95.5zM641 180q173 0 310 105t208 290h-823q-10 -76 3.5 -145t48.5 -126t100.5 -90.5t152.5 -33.5z" />
    <glyph glyph-name="uni04D9" unicode="&#x4d9;" horiz-adv-x="1224" 
d="M438 -31q-75 0 -138 20t-107 55t-76.5 83t-46 105t-15.5 120t15 127l24 103h846q4 63 -10.5 117t-49 98.5t-97.5 70t-150 25.5q-73 0 -145.5 -11.5t-124 -27.5t-93 -32.5t-62.5 -27.5l-20 -12l45 197q6 5 17 12t52 26.5t88.5 34t126 26.5t165.5 12q91 0 168.5 -20.5
t132.5 -57.5t95.5 -88.5t59 -114t21.5 -134t-16 -147.5q-58 -250 -256.5 -404.5t-448.5 -154.5zM508 150q80 0 148.5 27t110 65t71 76t41.5 65l12 27h-623q-2 -15 -2.5 -32.5t3.5 -43.5t12.5 -50.5t26.5 -49t43.5 -43t65.5 -30t91 -11.5z" />
    <glyph glyph-name="uni04DA" unicode="&#x4da;" horiz-adv-x="1482" 
d="M725 1556q-47 0 -74 33.5t-16 79.5q10 47 52 81t89 34q46 0 71 -34t15 -81q-11 -46 -51 -79.5t-86 -33.5zM1118 1556q-47 0 -74 33.5t-16 79.5q10 47 52 81t89 34q46 0 71 -34t15 -81q-11 -46 -51 -79.5t-86 -33.5zM610 -31q-105 -1 -190 21.5t-145.5 65.5t-101 104.5
t-59 138.5t-17 166.5t23.5 189.5l35 150h1058q7 70 5 131.5t-24.5 112.5t-62.5 87.5t-109 57t-163 20.5q-276 0 -567 -149l55 235q83 40 238.5 80t322.5 43q146 2 254 -37t171 -108t93 -165.5t28 -205.5t-32 -231q-33 -151 -101.5 -277.5t-169.5 -222.5t-240 -150.5
t-302 -56.5zM659 180q211 0 331 107t181 309h-831q-76 -416 319 -416z" />
    <glyph glyph-name="uni04DB" unicode="&#x4db;" horiz-adv-x="1224" 
d="M563 1223q-47 0 -73.5 33t-16.5 79q10 47 52 81t89 34q46 0 71 -34t15 -81q-11 -46 -51 -79t-86 -33zM956 1223q-47 0 -73.5 33t-16.5 79q10 47 52.5 81t89.5 34q46 0 71 -34t15 -81q-10 -46 -51 -79t-87 -33zM438 -31q-75 0 -138 20t-107 55t-76.5 83t-46 105t-15.5 120
t15 127l24 103h846q4 63 -10.5 117t-49 98.5t-97.5 70t-150 25.5q-73 0 -145.5 -11.5t-124 -27.5t-93 -32.5t-62.5 -27.5l-20 -12l45 197q6 5 17 12t52 26.5t88.5 34t126 26.5t165.5 12q91 0 168.5 -20.5t132.5 -57.5t95.5 -88.5t59 -114t21.5 -134t-16 -147.5
q-58 -250 -256.5 -404.5t-448.5 -154.5zM508 150q80 0 148.5 27t110 65t71 76t41.5 65l12 27h-623q-2 -15 -2.5 -32.5t3.5 -43.5t12.5 -50.5t26.5 -49t43.5 -43t65.5 -30t91 -11.5z" />
    <glyph glyph-name="uni04DC" unicode="&#x4dc;" horiz-adv-x="1638" 
d="M827 1556q-47 0 -74 33.5t-16 79.5q10 47 52.5 81t89.5 34q46 0 71 -34t15 -81q-11 -46 -51.5 -79.5t-86.5 -33.5zM1221 1556q-47 0 -74 33.5t-17 79.5q10 47 52.5 81t89.5 34q46 0 71 -34t15 -81q-11 -46 -51 -79.5t-86 -33.5zM-68 0l269 434q76 120 134.5 190
t133.5 113q-11 49 -8 168q10 152 -42.5 214.5t-158.5 62.5l47 209q197 -3 284 -96.5t77 -241.5q-6 -84 -2 -137t28.5 -77.5t79.5 -25.5l133 578h223l-133 -578q41 1 70 14t54 46t43.5 71t47.5 109q60 149 190 242t327 96l-48 -209q-106 0 -187.5 -62t-143.5 -215
q-40 -105 -86 -168q56 -44 84 -117t45 -186q36 -207 67 -434h-250q-30 286 -39 340q-24 134 -42 176q-32 72 -110 87q-25 5 -56 5h-13l-141 -608h-223l141 608h-14q-30 0 -56 -3.5t-50 -15t-41.5 -20t-39.5 -31.5t-34.5 -36.5t-36 -47.5t-35 -52t-39.5 -62
q-32 -50 -65 -106.5t-73 -126.5t-61 -107h-250z" />
    <glyph glyph-name="uni04DD" unicode="&#x4dd;" horiz-adv-x="1490" 
d="M674 1225q-47 0 -73.5 33t-16.5 79q10 47 52 81t89 34q46 0 71 -34t15 -81q-11 -46 -51 -79t-86 -33zM1067 1225q-47 0 -73.5 33t-16.5 79q10 47 52 81t89 34q46 0 71 -34t15 -81q-11 -46 -51 -79t-86 -33zM0 0q25 39 95.5 154t111.5 178q71 113 122.5 165t131.5 74
q-29 23 -39.5 60.5t-5.5 103.5q7 85 -39 117.5t-131 32.5l41 180q92 -1 157.5 -21.5t100 -57t48.5 -80.5t11 -99q-5 -96 5 -130t57 -40l98 422h201l-99 -424q54 4 82 39.5t66 132.5q105 255 436 258l-41 -180q-86 0 -146.5 -32.5t-93.5 -117.5q-26 -66 -53 -103.5t-65 -60.5
q68 -22 96 -74.5t47 -164.5q28 -174 51 -332h-225q-28 244 -31 260q-8 48 -13.5 72.5t-17 52.5t-27 40.5t-41.5 21t-63 8.5h-2l-106 -455h-201l107 455q-45 -1 -77 -11.5t-61.5 -39t-50 -57.5t-57.5 -87q-24 -38 -50 -81.5t-56.5 -96.5t-47.5 -82h-225z" />
    <glyph glyph-name="uni04DE" unicode="&#x4de;" horiz-adv-x="1208" 
d="M610 1556q-47 0 -74 33.5t-16 79.5q10 47 52.5 81t89.5 34q46 0 71 -34t15 -81q-11 -46 -51.5 -79.5t-86.5 -33.5zM1004 1556q-47 0 -74 33.5t-17 79.5q10 47 52.5 81t89.5 34q46 0 71 -34t15 -81q-11 -46 -51 -79.5t-86 -33.5zM432 -31q-126 0 -260.5 33.5t-191.5 87.5
l51 221q72 -62 197.5 -99.5t250.5 -37.5q171 0 267 62t120 159q22 97 -54.5 167.5t-236.5 70.5h-258l45 201h230q146 0 248 52t123 144q21 85 -35 137t-213 52q-101 0 -240.5 -34t-210.5 -69l49 215q90 36 217 64t258 28q235 0 339.5 -90.5t68.5 -247.5
q-30 -126 -137.5 -219.5t-216.5 -117.5q145 -22 216 -115.5t38 -237.5q-43 -186 -217 -306t-447 -120z" />
    <glyph glyph-name="uni04DF" unicode="&#x4df;" horiz-adv-x="1038" 
d="M440 1223q-47 0 -73.5 33t-16.5 79q10 47 52.5 81t89.5 34q46 0 71 -34t15 -81q-10 -46 -51 -79t-87 -33zM834 1223q-47 0 -74 33t-17 79q10 47 52.5 81t89.5 34q46 0 71 -34t15 -81q-11 -46 -51 -79t-86 -33zM326 -31q-88 0 -198.5 29.5t-152.5 71.5l48 204
q6 -4 17.5 -11.5t48 -26.5t74 -33.5t91.5 -26.5t104 -12q255 0 291 151q15 68 -31 109t-124 41h-195l41 180h164q190 0 221 131q14 62 -41.5 89.5t-169.5 27.5q-87 0 -190 -28t-146 -56l45 201q140 80 361 80q184 0 286 -78t72 -211q-22 -90 -102 -161.5t-172 -80.5
q53 -12 92.5 -35.5t60.5 -52.5t33 -63t10.5 -66.5t-6.5 -62.5q-37 -157 -178.5 -233.5t-353.5 -76.5z" />
    <glyph glyph-name="uni04E0" unicode="&#x4e0;" horiz-adv-x="1228" 
d="M432 -31q-126 0 -260.5 33.5t-191.5 87.5l51 221q72 -62 197.5 -99.5t250.5 -37.5q171 0 267 62t120 159q28 124 -49.5 181t-241.5 57h-258l35 149l572 400h-650l48 209h933l-47 -209l-555 -371q275 -12 380.5 -120.5t62.5 -295.5q-43 -186 -217 -306t-447 -120z" />
    <glyph glyph-name="uni04E1" unicode="&#x4e1;" horiz-adv-x="1138" 
d="M293 -362q-84 0 -209 34t-180 86l45 197q69 -59 186.5 -98t200.5 -39q168 0 268 72t123 173q31 132 -46 194.5t-239 64.5l-196 2l28 127l517 428h-588l43 180h872l-39 -166l-534 -406q104 -7 183 -32.5t126.5 -64.5t75.5 -90.5t29.5 -111t-11.5 -125.5
q-42 -187 -212.5 -306t-442.5 -119z" />
    <glyph glyph-name="uni04E2" unicode="&#x4e2;" horiz-adv-x="1550" 
d="M1339 1747l-43 -184h-567l43 184h567zM1323 1391h242l-322 -1391h-221l242 1044l-963 -1044h-240l322 1391h221l-237 -1029z" />
    <glyph glyph-name="uni04E3" unicode="&#x4e3;" horiz-adv-x="1312" 
d="M1143 1413l-43 -184h-568l43 184h568zM1036 1059h236l-246 -1059h-221l166 721l-697 -721h-233l246 1059h221l-166 -719z" />
    <glyph glyph-name="uni04E4" unicode="&#x4e4;" horiz-adv-x="1550" 
d="M666 1556q-47 0 -74 33.5t-17 79.5q10 47 52.5 81t89.5 34q46 0 71 -34t15 -81q-11 -46 -51 -79.5t-86 -33.5zM1059 1556q-47 0 -74 33.5t-16 79.5q10 47 52 81t89 34q46 0 71 -34t15 -81q-11 -46 -51 -79.5t-86 -33.5zM1323 1391h242l-322 -1391h-221l242 1044
l-963 -1044h-240l322 1391h221l-237 -1029z" />
    <glyph glyph-name="uni04E5" unicode="&#x4e5;" horiz-adv-x="1312" 
d="M608 1223q-47 0 -73.5 33t-16.5 79q10 47 52 81t89 34q46 0 71 -34t15 -81q-11 -46 -51 -79t-86 -33zM1001 1223q-47 0 -73.5 33t-16.5 79q10 47 52.5 81t89.5 34q46 0 71 -34t15 -81q-10 -46 -51 -79t-87 -33zM1036 1059h236l-246 -1059h-221l166 721l-697 -721h-233
l246 1059h221l-166 -719z" />
    <glyph glyph-name="uni04E6" unicode="&#x4e6;" horiz-adv-x="1644" 
d="M852 1556q-47 0 -74 33.5t-16 79.5q10 47 52 81t89 34q46 0 71 -34t15 -81q-11 -46 -51 -79.5t-86 -33.5zM1245 1556q-47 0 -74 33.5t-16 79.5q10 47 52 81t89 34q46 0 71 -34t15 -81q-11 -46 -51 -79.5t-86 -33.5zM692 -31q-105 -1 -196.5 24.5t-160 73t-120.5 114.5
t-77 148.5t-29 174.5t22 192q32 147 117.5 281.5t204 233.5t269.5 156.5t306 55.5q104 1 195.5 -24.5t160.5 -73t121 -114.5t77.5 -148.5t30 -174.5t-21.5 -192q-32 -147 -118 -281.5t-205 -233.5t-270 -156.5t-306 -55.5zM741 180q226 0 396.5 146t222.5 370
q34 146 0.5 263t-132.5 186t-249 69q-223 0 -395 -147.5t-224 -370.5q-34 -146 0 -263t133.5 -185t247.5 -68z" />
    <glyph glyph-name="uni04E7" unicode="&#x4e7;" horiz-adv-x="1323" 
d="M612 1223q-47 0 -73.5 33t-16.5 79q10 47 52.5 81t89.5 34q46 0 71 -34t15 -81q-10 -46 -51 -79t-87 -33zM1006 1223q-47 0 -74 33t-17 79q10 47 52.5 81t89.5 34q46 0 71 -34t15 -81q-11 -46 -51 -79t-86 -33zM532 -31q-158 0 -274.5 75t-163.5 203.5t-12 280.5
t142 281.5t258 205t309 75.5t274.5 -75.5t163.5 -205t12 -281.5t-142 -280.5t-258 -203.5t-309 -75zM578 168q155 0 284.5 104.5t165.5 255.5q35 152 -46 257.5t-237 105.5t-285 -105.5t-165 -257.5q-35 -150 46 -255t237 -105z" />
    <glyph glyph-name="uni04E8" unicode="&#x4e8;" horiz-adv-x="1624" 
d="M682 -31q-128 0 -234.5 37t-178 103.5t-116.5 157.5t-51 199.5t19 229.5q34 149 118 282.5t201 231.5t267.5 155.5t310.5 57.5q107 0 199.5 -26t161 -73.5t119 -114t75 -147t29 -173.5t-20.5 -193q-34 -149 -118.5 -282.5t-201.5 -231.5t-268 -155.5t-311 -57.5zM399 842
h965q-2 168 -105 270t-290 102t-338.5 -102t-231.5 -270zM731 180q210 0 372.5 127t227.5 326h-993q-25 -199 79 -326t314 -127z" />
    <glyph glyph-name="uni04E9" unicode="&#x4e9;" horiz-adv-x="1323" 
d="M791 1090q158 0 274.5 -75.5t163.5 -205t12 -281.5t-142 -280.5t-258 -203.5t-309 -75t-274.5 75t-163.5 203.5t-12 280.5t142 281.5t258 205t309 75.5zM1034 561q22 140 -59.5 235t-229.5 95q-127 0 -239.5 -72t-171.5 -188h700v-70zM578 168q133 0 250 79.5t173 203.5
h-716q-2 -123 79 -203t214 -80z" />
    <glyph glyph-name="uni04EA" unicode="&#x4ea;" horiz-adv-x="1624" 
d="M834 1556q-47 0 -74 33.5t-17 79.5q10 47 52.5 81t89.5 34q46 0 71 -34t15 -81q-11 -46 -51 -79.5t-86 -33.5zM1227 1556q-47 0 -74 33.5t-16 79.5q10 47 52 81t89 34q46 0 71 -34t15 -81q-11 -46 -51 -79.5t-86 -33.5zM682 -31q-128 0 -234.5 37t-178 103.5
t-116.5 157.5t-51 199.5t19 229.5q34 149 118 282.5t201 231.5t267.5 155.5t310.5 57.5q107 0 199.5 -26t161 -73.5t119 -114t75 -147t29 -173.5t-20.5 -193q-34 -149 -118.5 -282.5t-201.5 -231.5t-268 -155.5t-311 -57.5zM1085 780q26 0 73.5 10.5t114 28t91.5 23.5
q-2 168 -105 270t-290 102t-338.5 -102t-231.5 -270q13 3 62 20.5t96 29t88 11.5q57 0 104 -12.5t80.5 -30.5t67.5 -36.5t81.5 -31t106.5 -12.5zM731 180q210 0 372.5 127t227.5 326q-28 -6 -95.5 -23.5t-117.5 -28t-80 -10.5q-63 0 -114 12.5t-85.5 30.5t-67 36.5t-76.5 31
t-97 12.5q-42 0 -91.5 -11.5t-102 -28.5t-66.5 -21q-25 -199 79 -326t314 -127z" />
    <glyph glyph-name="uni04EB" unicode="&#x4eb;" horiz-adv-x="1323" 
d="M612 1223q-47 0 -73.5 33t-16.5 79q10 47 52.5 81t89.5 34q46 0 71 -34t15 -81q-10 -46 -51 -79t-87 -33zM1006 1223q-47 0 -74 33t-17 79q10 47 52.5 81t89.5 34q46 0 71 -34t15 -81q-11 -46 -51 -79t-86 -33zM791 1090q158 0 274.5 -75.5t163.5 -205t12 -281.5
t-142 -280.5t-258 -203.5t-309 -75t-274.5 75t-163.5 203.5t-12 280.5t142 281.5t258 205t309 75.5zM1034 561q22 140 -59.5 235t-229.5 95q-127 0 -239.5 -72t-171.5 -188h700v-70zM578 168q133 0 250 79.5t173 203.5h-716q-2 -123 79 -203t214 -80z" />
    <glyph glyph-name="uni04EC" unicode="&#x4ec;" horiz-adv-x="1421" 
d="M723 1556q-47 0 -74 33.5t-16 79.5q10 47 52 81t89 34q46 0 71 -34t15 -81q-11 -46 -51 -79.5t-86 -33.5zM1116 1556q-47 0 -74 33.5t-16 79.5q10 47 52 81t89 34q46 0 71 -34t15 -81q-11 -46 -51 -79.5t-86 -33.5zM442 -31q-285 0 -460 125l55 240q9 -13 39 -34.5
t83.5 -50.5t142.5 -49t190 -20q232 0 401.5 127.5t234.5 329.5h-659l51 217h641q-8 162 -119.5 260t-312.5 98q-101 0 -192.5 -19.5t-153 -49.5t-92.5 -49t-49 -35q55 241 57 241q220 123 479 123q138 0 251.5 -37t189 -103.5t123 -157.5t54.5 -199.5t-18 -229.5
q-34 -150 -119.5 -283t-206.5 -231t-279.5 -155.5t-330.5 -57.5z" />
    <glyph glyph-name="uni04ED" unicode="&#x4ed;" horiz-adv-x="1142" 
d="M434 1225q-47 0 -73.5 33t-16.5 79q10 47 52 81t89 34q46 0 71 -34t15 -81q-11 -46 -51 -79t-86 -33zM827 1225q-47 0 -73.5 33t-16.5 79q10 47 52.5 81t89.5 34q46 0 71 -34t15 -81q-10 -46 -51 -79t-87 -33zM332 -29q-98 0 -200 24.5t-157 76.5l48 202q4 -4 13 -11.5
t40.5 -26.5t68.5 -33.5t100 -26.5t132 -12q152 0 268.5 77.5t171.5 209.5h-461l41 180h455q-3 117 -81.5 190.5t-205.5 73.5q-71 0 -140 -16.5t-116.5 -40t-85 -47t-55.5 -39.5l-18 -17l53 228q82 63 192 95t215 32q168 0 284.5 -75.5t159.5 -203t7 -281.5
q-27 -117 -89 -218t-153 -177.5t-216.5 -120t-270.5 -43.5z" />
    <glyph glyph-name="uni04EE" unicode="&#x4ee;" horiz-adv-x="1302" 
d="M1180 1747l-43 -184h-568l43 184h568zM1198 1391h262l-676 -1065q-91 -142 -157.5 -215.5t-141.5 -107.5t-178 -34q-56 0 -108 19.5t-77 39.5l-24 19l47 211q9 -9 25 -22t65.5 -34.5t98.5 -21.5q27 0 51 6.5t41.5 13.5t36 24t28 26.5t25 32t19.5 30t18 31.5l-313 1047
h235l232 -795q97 155 220 353.5t197 320.5z" />
    <glyph glyph-name="uni04EF" unicode="&#x4ef;" horiz-adv-x="1200" 
d="M1085 1413l-43 -184h-567l43 184h567zM1026 1059h256l-1059 -1485h-260l422 573l-221 912h231l158 -676z" />
    <glyph glyph-name="uni04F0" unicode="&#x4f0;" horiz-adv-x="1302" 
d="M645 1556q-47 0 -74 33.5t-16 79.5q10 47 52 81t89 34q46 0 71 -34t15 -81q-11 -46 -51 -79.5t-86 -33.5zM1038 1556q-47 0 -74 33.5t-16 79.5q10 47 52.5 81t89.5 34q46 0 71 -34t15 -81q-11 -46 -51.5 -79.5t-86.5 -33.5zM1198 1391h262l-676 -1065
q-91 -142 -157.5 -215.5t-141.5 -107.5t-178 -34q-56 0 -108 19.5t-77 39.5l-24 19l47 211q9 -9 25 -22t65.5 -34.5t98.5 -21.5q27 0 51 6.5t41.5 13.5t36 24t28 26.5t25 32t19.5 30t18 31.5l-313 1047h235l232 -795q97 155 220 353.5t197 320.5z" />
    <glyph glyph-name="uni04F1" unicode="&#x4f1;" horiz-adv-x="1200" 
d="M551 1223q-47 0 -73.5 33t-16.5 79q10 47 52 81t89 34q46 0 71 -34t15 -81q-11 -46 -51 -79t-86 -33zM944 1223q-47 0 -73.5 33t-16.5 79q10 47 52 81t89 34q46 0 71 -34t15 -81q-11 -46 -51 -79t-86 -33zM1026 1059h256l-1059 -1485h-260l422 573l-221 912h231l158 -676
z" />
    <glyph glyph-name="uni04F2" unicode="&#x4f2;" horiz-adv-x="1302" 
d="M1104 1882l-330 -350h-207l264 350h273zM1143 1532h-207l285 350h272zM707 596q97 155 220 353.5t197 320.5l74 121h262l-676 -1065q-91 -142 -157.5 -215.5t-141.5 -107.5t-178 -34q-56 0 -108 19.5t-77 39.5l-24 19l47 211q9 -9 25 -22t65.5 -34.5t98.5 -21.5
q27 0 51 6.5t41.5 13.5t36 24t28 26.5t25 32t19.5 30t18 31.5l-313 1047h235z" />
    <glyph glyph-name="uni04F3" unicode="&#x4f3;" horiz-adv-x="1200" 
d="M1010 1548l-330 -350h-207l264 350h273zM1049 1198h-207l284 350h273zM553 383l473 676h256l-1059 -1485h-260l422 573l-221 912h231z" />
    <glyph glyph-name="uni04F4" unicode="&#x4f4;" horiz-adv-x="1433" 
d="M698 1556q-47 0 -74 33.5t-16 79.5q10 47 52.5 81t89.5 34q46 0 71 -34t15 -81q-11 -46 -51.5 -79.5t-86.5 -33.5zM1092 1556q-47 0 -74 33.5t-17 79.5q10 47 52.5 81t89.5 34q46 0 71 -34t15 -81q-11 -46 -51 -79.5t-86 -33.5zM903 0l92 395q-205 -28 -387 -28
q-96 0 -173.5 17.5t-139.5 55.5t-96 98.5t-44 145t17 195.5l119 512h223l-119 -512q-12 -52 -12.5 -94.5t8 -73.5t27 -54t42.5 -37.5t56.5 -23.5t66 -12.5t74.5 -3.5q165 0 385 22l183 789h223l-322 -1391h-223z" />
    <glyph glyph-name="uni04F5" unicode="&#x4f5;" horiz-adv-x="1284" 
d="M584 1223q-47 0 -73.5 33t-16.5 79q10 47 52 81t89 34q46 0 71 -34t15 -81q-11 -46 -51 -79t-86 -33zM977 1223q-47 0 -73.5 33t-16.5 79q10 47 52 81t89 34q46 0 71 -34t15 -81q-11 -46 -51 -79t-86 -33zM1022 1059h221l-246 -1059h-221l117 502q-6 -9 -17.5 -22.5
t-44 -40t-71.5 -47.5t-102.5 -37.5t-133.5 -16.5q-187 0 -279.5 115t-43.5 325l65 281h221l-59 -258q-30 -126 18 -196t158 -70q59 0 116 19t107 55.5t88 94.5t54 130l-60 -259z" />
    <glyph glyph-name="uni04F6" unicode="&#x4f6;" horiz-adv-x="1277" 
d="M383 1391h1032l-47 -209h-811l-250 -1076h160l-109 -477h-223l84 371h-158z" />
    <glyph glyph-name="uni04F7" unicode="&#x4f7;" horiz-adv-x="1044" 
d="M287 1059h880l-43 -180h-659l-162 -699h129l-139 -600h-209l98 420h-141z" />
    </font>
</defs>
</svg>
