<?xml version="1.0" standalone="no"?>
<!DOCTYPE svg PUBLIC "-//W3C//DTD SVG 1.1//EN" "http://www.w3.org/Graphics/SVG/1.1/DTD/svg11.dtd" >
<svg xmlns="http://www.w3.org/2000/svg" xmlns:xlink="http://www.w3.org/1999/xlink" version="1.1">
<metadata>
Created by FontForge 20170731 at Fri Dec 25 15:30:58 2020
 By Aleksey,,,
Copyright (c) 2018 by Adrien Midzic. All rights reserved.
</metadata>
<defs>
<font id="Lack-Line-Italic" horiz-adv-x="0" >
  <font-face 
    font-family="Lack Line"
    font-weight="400"
    font-style="italic"
    font-stretch="normal"
    units-per-em="2048"
    panose-1="0 0 5 0 0 0 0 0 0 0"
    ascent="1638"
    descent="-410"
    x-height="1075"
    cap-height="1407"
    bbox="-1673 -528 2556 1960"
    underline-thickness="114"
    underline-position="-380"
    slope="-13"
    unicode-range="U+0020-FB02"
  />
<missing-glyph horiz-adv-x="614" 
 />
    <glyph glyph-name="fi" unicode="fi" horiz-adv-x="1607" 
d="M66 -528l294 1269h-225l49 213h226q59 234 250.5 382.5t435.5 148.5q63 0 116.5 -10t88 -26t61.5 -35t41 -38t23 -35t12 -26l2 -10v-9l-51 -221l-33 -2q-2 7 -7 19.5t-27.5 44t-52 55.5t-84 43.5t-120.5 19.5q-149 0 -256 -80.5t-145 -220.5h710l-180 -778h246l-45 -192
h-746l45 192h246l131 565h-457l-295 -1269h-253zM106 -496h189l295 1270h522l-147 -631h-246l-29 -127h680l29 127h-246l180 779h-710q32 168 151.5 267t290.5 99q64 0 117.5 -15.5t89 -42t57 -51t37.5 -51.5l41 172q-3 11 -9.5 25t-28.5 38t-53.5 42.5t-89 32.5t-130.5 14
q-158 0 -297.5 -67t-235.5 -188.5t-129 -274.5h-225l-33 -148h225z" />
    <glyph glyph-name="fl" unicode="fl" horiz-adv-x="1435" 
d="M1446 1210l-10 -18l6 2l-281 -1210h-254l271 1169q-3 11 -10 23.5t-25.5 32.5t-58 33t-93.5 13q-127 0 -207 -73.5t-120 -227.5h333l-49 -213h-334l-295 -1269h-253l294 1269h-225l49 213h226q59 237 229.5 384t386.5 147q77 0 142 -15t107 -39.5t75 -54t50.5 -58.5
t28.5 -53.5t14 -39.5zM1137 16l272 1180l-29 12l29 13q-6 22 -16 44.5t-39 58.5t-68 62t-107 46t-153 20q-211 0 -376 -147t-216 -383h-225l-33 -148h225l-295 -1270h189l295 1270h334l32 148h-333q38 185 129 275.5t239 90.5q56 0 99.5 -13.5t65 -33t35 -39.5t16.5 -34
l3 -13v-6l-262 -1133h189z" />
    <glyph glyph-name="f_f" unicode="ff" horiz-adv-x="1845" 
d="M66 -528l294 1269h-225l49 213h226q52 211 209 340t360 129q206 0 287 -147q83 101 193.5 155t236.5 54q66 0 120 -12.5t83.5 -30.5t49.5 -35.5t27 -30.5l6 -12l3 -10l-46 -197l-28 -6q-3 4 -9 11t-27 25t-45.5 32t-64.5 25t-84 11q-125 0 -201 -72.5t-116 -228.5h477
l-49 -213h-477l-295 -1269h-254l295 1269h-447l-295 -1269h-253zM106 -496h189l295 1270h512l-295 -1270h188l295 1270h477l33 148h-477q40 188 127 277t231 89q142 0 234 -92l37 160q-7 12 -20 24.5t-41.5 30.5t-79 29.5t-115.5 11.5q-131 0 -246.5 -63t-192.5 -179
q-59 181 -278 181q-198 0 -349.5 -130t-195.5 -339h-225l-33 -148h225zM623 922q65 305 317 305q46 0 84.5 -17.5t62.5 -41.5t41.5 -53.5t25 -50t9.5 -34.5l-28 -108h-512zM664 954h446l20 76q-6 22 -17.5 45t-33 52.5t-58 48t-81.5 18.5q-107 0 -174.5 -59t-101.5 -181z
" />
    <glyph glyph-name="f_f_i" unicode="ffi" horiz-adv-x="2308" 
d="M66 -528l294 1269h-225l49 213h226q52 211 209 340t360 129q100 0 178.5 -41t122.5 -116q98 104 233 161.5t283 57.5q63 0 116.5 -10t88 -26t61.5 -35t41 -38t23 -35t12 -26l2 -10v-9l-51 -221l-33 -2q-2 7 -7 19.5t-27.5 44t-52 55.5t-84 43.5t-120.5 19.5
q-149 0 -256 -80.5t-145 -220.5h711l-181 -778h246l-45 -192h-745l45 192h245l132 565h-457l-295 -1269h-254l295 1269h-447l-295 -1269h-253zM106 -496h189l295 1270h512l-295 -1270h188l295 1270h522l-147 -631h-246l-28 -127h680l28 127h-246l181 779h-711
q32 168 151.5 267t290.5 99q64 0 117.5 -15.5t89 -42t57 -51t37.5 -51.5l41 172q-3 11 -9.5 25t-28.5 38t-53.5 42.5t-89 32.5t-130.5 14q-153 0 -291.5 -65t-232.5 -181q-32 86 -110.5 135.5t-182.5 49.5q-198 0 -349.5 -130t-195.5 -339h-225l-33 -148h225zM623 922
q65 305 317 305q46 0 84.5 -17.5t62.5 -41.5t41.5 -53.5t25 -50t9.5 -34.5l-28 -108h-512zM664 954h446l20 76q-6 22 -17.5 45t-33 52.5t-58 48t-81.5 18.5q-107 0 -174.5 -59t-101.5 -181z" />
    <glyph glyph-name="f_f_l" unicode="ffl" horiz-adv-x="2136" 
d="M2146 1210l-10 -18l6 2l-280 -1210h-254l270 1169q-3 11 -10 23.5t-25 32.5t-57.5 33t-93.5 13q-128 0 -208 -73.5t-120 -227.5h334l-49 -213h-334l-295 -1269h-254l295 1269h-447l-295 -1269h-253l294 1269h-225l49 213h226q52 211 209 340t360 129q103 0 178.5 -40
t110.5 -115q91 104 210 160.5t248 56.5q77 0 142 -15t107 -39.5t75 -54t50.5 -58.5t28.5 -53.5t14 -39.5zM1837 16l272 1180l-28 12l28 13q-6 22 -16 44.5t-39 58.5t-68 62t-107 46t-153 20q-136 0 -259.5 -66t-209.5 -186q-20 90 -93.5 140.5t-184.5 50.5
q-198 0 -349.5 -130t-195.5 -339h-225l-33 -148h225l-295 -1270h189l295 1270h512l-295 -1270h188l295 1270h334l33 148h-334q76 366 369 366q56 0 99.5 -13.5t65 -33t35 -39.5t16.5 -34l3 -13v-6l-262 -1133h188zM940 1227q46 0 85 -18t62.5 -43t41 -55.5t25 -50.5t9.5 -34
q-7 -22 -18 -63q-2 -12 -10 -41h-512q65 305 317 305zM1114 971q9 42 16 57q-6 22 -17.5 45.5t-33 53.5t-58 48.5t-81.5 18.5q-107 0 -174.5 -59t-101.5 -181h446q0 5 4 17z" />
    <glyph glyph-name=".notdef" horiz-adv-x="614" 
 />
    <glyph glyph-name=".null" 
 />
    <glyph glyph-name="nonmarkingreturn" horiz-adv-x="682" 
 />
    <glyph glyph-name="space" unicode=" " horiz-adv-x="532" 
 />
    <glyph glyph-name="exclam" unicode="!" horiz-adv-x="696" 
d="M211 518l215 930h272l-215 -930h-272zM252 551h207l198 864h-206zM223 -31q-78 0 -119 53.5t-24 131.5q17 74 80.5 125t138.5 51t116.5 -55t24.5 -130q-17 -74 -79.5 -125t-137.5 -51zM223 2q63 0 117.5 44.5t67.5 107.5q14 60 -17.5 101.5t-91.5 41.5q-63 0 -118 -44.5
t-68 -107.5q-14 -63 16.5 -103t93.5 -40z" />
    <glyph glyph-name="quotedbl" unicode="&#x22;" horiz-adv-x="747" 
d="M188 909l86 537h261l-158 -537h-189zM549 909l86 537h260l-158 -537h-188zM225 942h127l137 471h-186zM586 942h127l137 471h-186z" />
    <glyph glyph-name="numbersign" unicode="#" horiz-adv-x="1441" 
d="M-39 -20l246 389h-211l55 241h301l86 138h-268l57 241h361l219 357h276l-219 -357h170l219 357h277l-219 -357h213l-58 -241h-305l-86 -138h273l-56 -241h-366l-240 -389h-276l239 389h-170l-239 -389h-279zM23 12h200l240 389h244l-240 -389h203l239 389h359l39 177
h-289l127 202h297l41 176h-230l220 357h-203l-219 -357h-244l219 357h-203l-219 -357h-352l-41 -176h285l-127 -202h-293l-39 -177h231zM571 578l127 202h244l-127 -202h-244zM629 610h170l86 138h-170z" />
    <glyph glyph-name="dollar" unicode="$" horiz-adv-x="1191" 
d="M303 -186l33 145q-118 15 -216.5 55t-142.5 92l64 267q75 -83 191.5 -130.5t242.5 -47.5q282 0 322 178q16 66 -34 109t-192 108q-67 31 -114.5 57.5t-90.5 59.5t-68 68t-40.5 78t-15 95t15.5 115q35 158 164.5 260t318.5 121l25 108h256l-27 -125q127 -29 207 -96
l-65 -282q-47 71 -139.5 112t-204.5 41q-114 -2 -187 -41t-86 -106q-5 -19 -5 -34.5t1 -28.5t10 -26.5t15.5 -22.5t24.5 -21.5t30 -20t40 -21t45 -21.5t54 -25q58 -26 101 -49t84 -50.5t67.5 -55t47.5 -61.5t29.5 -72t7.5 -84t-13 -100q-38 -161 -161.5 -267t-303.5 -134
l-35 -147h-256zM344 -154h191l30 144q181 22 302.5 123t158.5 258q13 58 13.5 105t-13.5 86t-37.5 70t-65 61.5t-87.5 55.5t-113 56q-40 18 -61.5 28t-52 26t-45.5 26.5t-34.5 26.5t-27.5 31t-15 33.5t-6.5 40t6.5 46.5q19 80 99.5 125.5t206.5 46.5q97 0 182.5 -30.5
t144.5 -86.5l45 201q-88 62 -211 84l27 117h-190l-25 -107q-187 -12 -314 -108t-161 -250q-14 -58 -15 -105t12.5 -86.5t36 -71t62.5 -62t85.5 -56t111.5 -56.5q74 -33 117 -56.5t79.5 -54t47.5 -64.5t1 -78q-50 -203 -354 -203q-116 0 -225 38.5t-191 108.5l-45 -194
q48 -47 148.5 -82.5t214.5 -44.5z" />
    <glyph glyph-name="percent" unicode="%" horiz-adv-x="1476" 
d="M489 817q-130 0 -202 93.5t-41 224.5q29 129 141.5 221t241.5 92q132 0 204.5 -94.5t43.5 -227.5q-31 -129 -144 -219t-244 -90zM84 -49l1143 1493h237l-1142 -1493h-238zM489 850q119 0 223 83.5t132 201.5q26 117 -36.5 198.5t-178.5 81.5q-117 0 -220.5 -85.5
t-129.5 -203.5q-28 -115 33 -195.5t177 -80.5zM150 -16h155l1094 1427h-156zM522 961q-71 0 -110.5 52t-22.5 122q15 69 76.5 119.5t130.5 50.5q72 0 112 -52.5t25 -126.5q-17 -69 -78.5 -117t-132.5 -48zM522 993q58 0 111 42.5t67 99.5q12 57 -18.5 97t-85.5 40
q-58 0 -110 -43.5t-64 -102.5q-14 -56 15.5 -94.5t84.5 -38.5zM924 -49q-131 0 -203 93.5t-43 223.5q31 131 142.5 222.5t240.5 91.5q132 0 205.5 -95t42.5 -227q-29 -128 -142 -218.5t-243 -90.5zM924 -16q119 0 222.5 83.5t129.5 200.5q28 117 -35 199t-180 82
t-219.5 -84.5t-130.5 -204.5q-26 -116 36 -196t177 -80zM956 94q-70 0 -110 51.5t-25 122.5q17 71 77.5 120.5t129.5 49.5q72 0 113 -53t24 -125q-15 -68 -77 -117t-132 -49zM956 127q59 0 112 42t65 99q14 57 -17 97.5t-88 40.5t-109 -43t-65 -103q-12 -56 17.5 -94.5
t84.5 -38.5z" />
    <glyph glyph-name="ampersand" unicode="&#x26;" horiz-adv-x="1452" 
d="M422 -47q-214 0 -330 104q-111 111 -67 299q28 119 120.5 211t266.5 176q-51 92 -65.5 167.5t3.5 152.5q41 178 168.5 277.5t315.5 99.5q181 0 262.5 -92.5t46.5 -257.5q-23 -98 -123.5 -202t-255.5 -192l197 -280l315 258l-66 -287l-139 -121l209 -282h-319
q-15 17 -33 47q-9 14 -29 39.5t-25 33.5q-204 -151 -452 -151zM422 -14q255 0 457 164q18 -19 75 -101q3 -5 11.5 -16t11.5 -17h237l-188 254l156 133l41 185l-271 -221l-237 342q160 84 266 188.5t129 200.5q34 147 -38.5 228t-237.5 81q-175 0 -294 -92.5t-157 -259.5
q-18 -77 -1.5 -151t75.5 -177q-183 -82 -278.5 -172t-121.5 -207q-40 -172 58 -266q110 -96 307 -96zM655 803q-58 77 -74.5 141t1.5 135q19 78 73 122t133 44q83 0 120 -46t20 -128q-34 -141 -273 -268zM666 846q201 110 229 233q15 64 -13 98.5t-94 34.5q-68 0 -113.5 -37
t-60.5 -104q-15 -60 -3 -111t55 -114zM496 147q-134 0 -199 55t-43 152q19 85 88.5 156.5t175.5 114.5l281 -371q-150 -107 -303 -107zM496 180q129 0 256 82l-246 322q-88 -40 -146 -103t-73 -135q-19 -78 35.5 -122t173.5 -44z" />
    <glyph glyph-name="quotesingle" unicode="'" horiz-adv-x="456" 
d="M106 807l220 639h303l-312 -639h-211zM152 840h145l278 573h-225z" />
    <glyph glyph-name="parenleft" unicode="(" horiz-adv-x="753" 
d="M168 -258q-5 19 -12 53.5t-21 140.5t-19 210.5t4 249.5t38 272q30 127 84.5 264.5t111.5 242.5t110 191.5t86 133.5l34 46l12 6h240l12 -26q-13 -17 -35.5 -48t-83.5 -127t-113 -193.5t-107.5 -235t-84.5 -263.5q-29 -125 -37.5 -264.5t-0.5 -249.5t21 -202t25 -143
l12 -50l-16 -20h-244zM197 -238h211q-10 40 -20 92.5t-22 152t-16 198t5.5 224.5t35.5 239q25 110 71 229t92 210.5t99.5 182.5t87 141t62.5 89h-199q-21 -28 -50.5 -71t-85 -135.5t-104 -187.5t-98 -222.5t-76.5 -244.5q-33 -140 -41.5 -292.5t4.5 -285t22.5 -196
t21.5 -123.5z" />
    <glyph glyph-name="parenright" unicode=")" horiz-adv-x="733" 
d="M-49 -244q14 19 37.5 53t87 138t117.5 207t111.5 245.5t86.5 268.5t37 261t-1 238.5t-22.5 188.5t-26.5 130l-13 46l16 20h219l16 -12q5 -17 13 -48.5t24 -129t22.5 -196.5t-1.5 -239t-37 -268q-30 -127 -85.5 -268.5t-113.5 -253.5t-112 -205.5t-88 -144.5l-35 -51
l-15 -6h-223zM-4 -238h184q29 42 72.5 113t116 200.5t137.5 289t98 303.5q26 114 35.5 238t5.5 214.5t-17 186t-21.5 135t-18.5 78.5h-185q14 -51 27 -121.5t27 -189.5t6.5 -265.5t-39.5 -284.5q-31 -136 -92 -285.5t-131.5 -276t-117 -201.5t-87.5 -134z" />
    <glyph glyph-name="asterisk" unicode="*" horiz-adv-x="874" 
d="M375 684l69 234l-225 -130l-59 173l235 106l-188 107l135 165l168 -131l41 238h194l-67 -236l225 131l60 -172l-238 -106l190 -107l-135 -163l-168 133l-43 -242h-194zM420 717h121l47 266l188 -145l90 110l-215 119l271 119l-35 106l-262 -151l75 272h-120l-45 -266
l-189 147l-90 -112l213 -119l-268 -119l35 -106l262 149z" />
    <glyph glyph-name="plus" unicode="+" horiz-adv-x="1386" 
d="M477 188l96 416h-426l58 244h426l96 416h272l-96 -416h426l-57 -244h-426l-96 -416h-273zM518 221h207l96 416h426l41 178h-426l96 416h-206l-97 -416h-426l-41 -178h426z" />
    <glyph glyph-name="comma" unicode="," horiz-adv-x="681" 
d="M-182 -326l325 557h314l-394 -557h-245zM-125 -293h172l348 492h-231z" />
    <glyph glyph-name="hyphen" unicode="-" horiz-adv-x="1052" 
d="M119 483l55 242h795l-56 -242h-794zM160 516h729l39 176h-729z" />
    <glyph glyph-name="period" unicode="." horiz-adv-x="655" 
d="M203 -31q-78 0 -119.5 53.5t-24.5 131.5q17 74 81 125t139 51t116.5 -55t24.5 -130q-17 -74 -79.5 -125t-137.5 -51zM203 2q63 0 116.5 44.5t67.5 107.5q14 60 -17 101.5t-91 41.5q-63 0 -118.5 -44.5t-68.5 -107.5q-14 -63 17 -103t94 -40z" />
    <glyph glyph-name="slash" unicode="/" horiz-adv-x="931" 
d="M-180 -133l1052 1583h299l-1052 -1583h-299zM-119 -100h221l1008 1517h-221z" />
    <glyph glyph-name="zero" unicode="0" horiz-adv-x="1228" 
d="M487 -47q-250 -4 -348.5 200t-13.5 547q74 337 261.5 536.5t436.5 203.5q164 -3 265 -96.5t124 -258.5t-30 -393q-74 -342 -262.5 -542.5t-432.5 -196.5zM487 -14q232 -4 411.5 190t250.5 524q80 323 -7.5 513t-318.5 194q-236 -5 -415.5 -197.5t-249.5 -517.5
q-82 -326 7 -518t322 -188zM537 164q-150 0 -197 138t14 398q62 260 168.5 395.5t251.5 135.5q150 0 194.5 -139t-16.5 -400q-122 -528 -415 -528zM537 197q268 0 383 503q57 244 20.5 371t-166.5 127q-133 0 -231.5 -129t-155.5 -377q-57 -243 -19.5 -369t169.5 -126z" />
    <glyph glyph-name="one" unicode="1" horiz-adv-x="1087" 
d="M0 -16l53 229h328l223 967h-328l54 227h583l-276 -1194h291l-54 -229h-874zM41 16h809l37 164h-291l276 1194h-518l-37 -162h328l-239 -1032h-328z" />
    <glyph glyph-name="two" unicode="2" horiz-adv-x="1226" 
d="M51 -16l4 2h-94l596 563q-162 29 -243.5 156t-43.5 294q43 186 210.5 317.5t359.5 131.5q128 0 222.5 -61t134 -166.5t11.5 -229.5q-42 -174 -188 -299l-514 -479h514l-53 -229h-916zM190 16h752l37 164h-555l575 537q138 120 177 282q26 113 -9.5 208.5t-122 151.5
t-204.5 56q-182 0 -339.5 -124.5t-197.5 -299.5q-40 -171 55.5 -292t274.5 -124l-590 -557h152zM686 754q-104 0 -158.5 71t-29.5 174q23 101 107.5 169.5t185.5 68.5q103 0 158 -71.5t32 -174.5q-25 -101 -110 -169t-185 -68zM686 786q89 0 164.5 61t97.5 152
q20 88 -24.5 146.5t-132.5 58.5q-90 0 -165.5 -61.5t-95.5 -151.5q-22 -88 23 -146.5t133 -58.5z" />
    <glyph glyph-name="three" unicode="3" horiz-adv-x="1200" 
d="M492 -47q-137 0 -238 66t-140.5 179.5t-4.5 245.5h266q-34 -102 15 -172.5t151 -70.5q98 0 180.5 66.5t105.5 164.5q22 97 -27.5 161t-146.5 64q-55 0 -116 -18l-19 25l289 516h-475l53 227h832l-310 -539h-26l6 -2q126 -55 181.5 -175.5t23.5 -266.5
q-46 -196 -221 -333.5t-379 -137.5zM492 -14q192 0 358 130t209 316q31 134 -18.5 243.5t-163.5 160.5h-27l309 538h-749l-37 -162h491l-299 -532q48 10 88 10q112 0 172 -76.5t35 -189.5q-26 -109 -118 -182.5t-201 -73.5q-107 0 -166.5 70.5t-42.5 173.5h-199
q-35 -179 68.5 -302.5t290.5 -123.5z" />
    <glyph glyph-name="four" unicode="4" horiz-adv-x="1175" 
d="M631 -14l106 463h-684l758 958h301l-573 -733h522l-158 -688h-272zM672 18h207l141 623h-547l574 733h-220l-704 -893h655z" />
    <glyph glyph-name="five" unicode="5" horiz-adv-x="1159" 
d="M451 -47q-137 0 -238 66t-140.5 179.5t-4.5 245.5h266q-34 -102 15 -172.5t151 -70.5q98 0 180.5 66.5t105.5 164.5q22 97 -27.5 161t-146.5 64q-64 0 -123 -30l-114 51l168 729h719l-54 -227h-463l-61 -275q88 -3 162 -39q126 -55 181.5 -175.5t23.5 -266.5
q-46 -196 -221 -333.5t-379 -137.5zM451 -14q192 0 358 130t209 316q31 134 -19 244.5t-165 161.5q-76 37 -191 34l78 340h463l37 162h-654l-155 -676l77 -34q60 26 123 26q112 0 172 -76.5t35 -189.5q-26 -109 -118 -182.5t-201 -73.5q-107 0 -166.5 70.5t-42.5 173.5h-199
q-35 -179 68.5 -302.5t290.5 -123.5z" />
    <glyph glyph-name="six" unicode="6" horiz-adv-x="1241" 
d="M492 -45q-101 0 -185 37.5t-135 103t-72 152.5t4 186q22 88 72.5 163t136.5 163l666 647h319l-512 -506q171 -29 258.5 -164t47.5 -311q-46 -196 -221 -333.5t-379 -137.5zM492 -12q192 0 358 130t209 316q27 118 -8.5 218.5t-124 160t-211.5 61.5l506 500h-230
l-653 -639q-84 -83 -133 -154t-68 -155q-28 -120 9.5 -221t129 -159t216.5 -58zM541 170q-112 0 -171 75.5t-34 188.5q25 109 117 183.5t202 74.5q113 0 171.5 -76t33.5 -190q-25 -108 -117 -182t-202 -74zM541 203q98 0 181 67t105 164t-27.5 161t-144.5 64
q-100 0 -182 -67.5t-104 -165.5q-22 -95 27.5 -159t144.5 -64z" />
    <glyph glyph-name="seven" unicode="7" horiz-adv-x="1085" 
d="M37 -16l725 1196h-486l54 227h860l-852 -1423h-301zM94 16h223l816 1358h-779l-37 -162h502z" />
    <glyph glyph-name="eight" unicode="8" horiz-adv-x="1159" 
d="M451 -45q-138 0 -240.5 62t-145.5 168.5t-14 232.5q25 104 96 197t177 157q-79 114 -43 272q25 109 101.5 201t183.5 145.5t220 53.5q115 0 199.5 -54.5t120 -148.5t10.5 -205q-39 -158 -168 -268q74 -65 102 -159t5 -199q-29 -124 -120 -228.5t-219.5 -165.5t-264.5 -61
zM451 -12q195 0 362.5 126t208.5 304q25 107 -8.5 199t-118.5 151q149 112 188 276q35 152 -52 259.5t-245 107.5q-160 0 -299 -110t-174 -265q-19 -80 -3 -150.5t63 -121.5q-112 -60 -189 -154t-100 -200q-41 -175 66.5 -298.5t300.5 -123.5zM655 838q-89 0 -136 59
t-27 147q20 87 91 144t158 57q89 0 136.5 -60.5t27.5 -148.5q-20 -85 -92 -141.5t-158 -56.5zM655 870q75 0 137.5 50t79.5 124q17 72 -20.5 120t-110.5 48q-75 0 -137.5 -50.5t-79.5 -125.5q-17 -70 21 -118t110 -48zM496 150q-119 0 -182.5 77t-37.5 189q25 108 120 181
t212 73q118 0 182 -76t39 -186q-26 -110 -121 -184t-212 -74zM496 182q104 0 191 67t110 167q22 95 -32 158t-157 63q-104 0 -190.5 -66t-108.5 -163q-23 -97 30.5 -161.5t156.5 -64.5z" />
    <glyph glyph-name="nine" unicode="9" horiz-adv-x="1159" 
d="M-39 -16l520 512q-166 32 -249.5 166t-45.5 307q46 196 221 333.5t379 137.5q101 0 185 -37.5t135 -103t72 -152.5t-4 -186q-27 -121 -117 -232h8l-768 -745h-336zM43 16h242l698 680h39l-12 27q103 112 131 246q28 120 -9.5 221t-129 159t-216.5 58q-192 0 -358 -130
t-209 -316q-26 -115 8 -214.5t120 -161t206 -67.5zM623 702q-112 0 -171 76.5t-34 190.5q25 108 117 182t202 74q112 0 171 -75.5t34 -188.5q-25 -109 -117 -184t-202 -75zM623 735q99 0 181.5 67.5t104.5 166.5q22 95 -27.5 159t-144.5 64q-98 0 -181 -67t-105 -164
t27.5 -161.5t144.5 -64.5z" />
    <glyph glyph-name="colon" unicode=":" horiz-adv-x="913" 
d="M485 637q-78 0 -119 53t-24 131q19 75 82 125.5t137 50.5q76 0 118 -54.5t23 -129.5q-17 -74 -79.5 -125t-137.5 -51zM485 670q63 0 117.5 44t67.5 107q15 60 -17 102t-92 42q-63 0 -117 -44t-69 -108q-14 -63 16.5 -103t93.5 -40zM332 -31q-78 0 -119.5 53.5
t-24.5 131.5q17 74 81 125t139 51t116.5 -55t24.5 -130q-17 -74 -79.5 -125t-137.5 -51zM332 2q63 0 116.5 44.5t67.5 107.5q14 60 -17 101.5t-91 41.5q-63 0 -118.5 -44.5t-68.5 -107.5q-14 -63 17 -103t94 -40z" />
    <glyph glyph-name="semicolon" unicode=";" horiz-adv-x="856" 
d="M485 637q-78 0 -119 53t-24 131q19 75 82 125.5t137 50.5q76 0 118 -54.5t23 -129.5q-17 -74 -79.5 -125t-137.5 -51zM485 670q63 0 117.5 44t67.5 107q15 60 -17 102t-92 42q-63 0 -117 -44t-69 -108q-14 -63 16.5 -103t93.5 -40zM-113 -326l326 557h313l-393 -557h-246
zM-55 -293h172l348 492h-232z" />
    <glyph glyph-name="less" unicode="&#x3c;" horiz-adv-x="1103" 
d="M889 -27l-809 531l35 153l1032 428l-55 -243l-697 -264l549 -365zM868 27l39 170l-581 389l737 280l39 166l-959 -399l-26 -113z" />
    <glyph glyph-name="equal" unicode="=" horiz-adv-x="1290" 
d="M229 788l58 242h952l-57 -242h-953zM270 821h887l41 176h-887zM133 369l55 241h953l-56 -241h-952zM174 401h887l39 177h-887z" />
    <glyph glyph-name="greater" unicode="&#x3e;" horiz-adv-x="1103" 
d="M-45 -31l57 246l719 367l-571 262l55 239l832 -430l-35 -151zM4 31l979 491l27 115l-774 397l-39 -170l608 -282l-764 -387z" />
    <glyph glyph-name="question" unicode="?" horiz-adv-x="727" 
d="M143 436l82 350q92 -4 172 57.5t103 155.5q22 93 -30 152.5t-148 52.5l57 244q131 3 228.5 -57.5t139 -167t13.5 -232.5q-29 -120 -115.5 -224.5t-206.5 -164.5l-41 -166h-254zM184 469h189l37 158q118 54 203.5 154.5t113.5 217.5q26 111 -8.5 205.5t-118 151
t-197.5 59.5l-41 -178q94 -8 143 -78t27 -168q-25 -98 -105 -165t-177 -72zM162 -31q-78 0 -119.5 53.5t-24.5 131.5q17 74 81 125t139 51t116.5 -55t24.5 -130q-17 -74 -79.5 -125t-137.5 -51zM162 2q63 0 116.5 44.5t67.5 107.5q14 60 -17 101.5t-91 41.5
q-63 0 -118.5 -44.5t-68.5 -107.5q-14 -63 17 -103t94 -40z" />
    <glyph glyph-name="at" unicode="@" horiz-adv-x="1742" 
d="M694 -365q-113 -1 -215 26.5t-181 79.5t-140.5 125t-93.5 162t-40 192t19 214q49 213 199 395.5t359.5 289t426.5 106.5q138 0 255 -36.5t199 -103.5t135 -161t63 -209t-17 -248q-44 -193 -172 -311.5t-291 -118.5q-72 0 -120.5 27.5t-61.5 76.5q-56 -46 -131 -76
t-137 -30q-178 0 -273 120.5t-55 295.5q38 170 185.5 287.5t322.5 117.5q119 0 190 -65l10 45h209l-122 -533q-9 -41 -2.5 -57.5t32.5 -16.5q60 0 114.5 74t72.5 150q60 254 -62.5 402.5t-388.5 148.5q-114 0 -230.5 -46.5t-210.5 -124t-164 -184.5t-97 -223
q-20 -96 -12.5 -182.5t48 -158.5t101 -124t145.5 -79.5t182 -24.5zM670 -332l35 156q-161 5 -279.5 88t-166.5 222t-11 300q28 122 101 233t171.5 192t220 129t242.5 48q282 0 414 -161t69 -431q-18 -81 -81.5 -164t-137.5 -83q-88 0 -63 114l114 492h-143l-22 -103
q-4 53 -63.5 88t-139.5 35q-164 0 -302 -110.5t-173 -270.5q-37 -158 48.5 -266t246.5 -108q73 0 162.5 43t134.5 102q-11 -67 29 -105t124 -38q152 0 270.5 111t159.5 294q47 206 -13.5 370t-214.5 255.5t-374 91.5q-157 0 -314.5 -61t-285.5 -164t-222.5 -244.5
t-129.5 -296.5q-26 -125 -16 -237t61 -207t128.5 -164t186 -108.5t234.5 -41.5zM786 207q-98 0 -150.5 71.5t-29.5 172.5q23 98 106.5 166.5t178.5 68.5q104 0 155.5 -68.5t26.5 -175.5q-26 -106 -105 -170.5t-182 -64.5zM786 240q92 0 161.5 58t92.5 153q22 92 -19 147
t-130 55q-85 0 -158.5 -61.5t-93.5 -149.5q-20 -85 22.5 -143.5t124.5 -58.5z" />
    <glyph glyph-name="A" unicode="A" horiz-adv-x="1536" 
d="M-111 -16l961 1423h235l306 -1423h-295l-58 329h-632l-216 -329h-301zM-49 16h223l215 330h678l57 -330h226l-289 1358h-195zM502 522l416 629l120 -629h-536zM563 555h434l-96 510z" />
    <glyph glyph-name="B" unicode="B" horiz-adv-x="1363" 
d="M41 -16l330 1423h581q238 0 334 -94t53 -285q-23 -97 -85 -167.5t-152 -102.5q108 -32 154 -122.5t18 -217.5q-47 -207 -205 -320.5t-401 -113.5h-627zM82 16h586q230 0 379.5 107t193.5 303q31 132 -27.5 217.5t-187.5 95.5v33q106 17 181 87.5t100 176.5
q40 173 -46.5 255.5t-308.5 82.5h-557zM457 819l88 379h332q25 0 44 -0.5t41 -2t38 -4.5t34 -8t30 -12.5t23.5 -17.5t18 -24t11 -31t4 -38.5t-4.5 -47.5q-25 -103 -102 -148t-230 -45h-327zM498 852h286q142 0 209.5 37.5t89.5 128.5q4 23 4 41.5t-2.5 33t-10.5 25.5
t-17 18.5t-24.5 13t-29.5 8.5t-36.5 4.5t-42 2t-47.5 0.5h-308zM313 193l107 460h379q145 0 205 -58t34 -173q-52 -229 -338 -229h-387zM354 225h346q260 0 306 205q23 97 -27.5 144t-179.5 47h-355z" />
    <glyph glyph-name="C" unicode="C" horiz-adv-x="1441" 
d="M731 -47q-222 -3 -381.5 95t-222.5 270.5t-12 381.5q34 156 125 294t217.5 236.5t286 155t323.5 54.5q161 0 269.5 -40.5t170.5 -92.5l-57 -246h-33q-1 5 -19.5 19.5t-55 34.5t-82 38.5t-110.5 31.5t-132 13q-234 0 -410 -140t-229 -366q-52 -224 58 -359.5t343 -135.5
q155 0 304.5 47.5t246.5 130.5l-67 -293q-2 0 -25.5 -12.5t-68 -32t-104 -38.5t-149 -32.5t-186.5 -13.5zM731 -14q277 0 495 113q3 2 5 3l4 2l45 193q-103 -63 -234.5 -98t-265.5 -35q-249 0 -369 148.5t-65 387.5q56 237 241.5 384t430.5 147q132 0 239 -42.5t166 -90.5
l47 196q-151 113 -403 113q-159 2 -312.5 -52.5t-276 -149.5t-211 -228.5t-120.5 -284.5q-27 -122 -19 -229t57.5 -195.5t125.5 -151.5t184.5 -97.5t235.5 -32.5z" />
    <glyph glyph-name="D" unicode="D" horiz-adv-x="1556" 
d="M41 -16l330 1423h516q353 0 520 -195.5t92 -519.5q-48 -209 -182.5 -370t-330 -249.5t-421.5 -88.5h-524zM82 16h483q219 0 407.5 85.5t318 241t175.5 357.5q72 308 -85 491t-494 183h-492zM313 195l232 1003h276q270 0 386 -131.5t61 -374.5q-64 -243 -236 -370
t-434 -127h-285zM354 227h244q251 0 414 121t223 352q53 226 -53 345.5t-361 119.5h-252z" />
    <glyph glyph-name="E" unicode="E" horiz-adv-x="1314" 
d="M41 -16l330 1423h1048l-55 -242h-795l-69 -303h633l-58 -241h-631l-90 -396h805l-57 -241h-1061zM82 16h995l41 177h-805l107 460h631l41 176h-633l86 369h794l39 176h-983z" />
    <glyph glyph-name="F" unicode="F" horiz-adv-x="1277" 
d="M41 -16l330 1423h1048l-55 -242h-795l-69 -303h633l-58 -241h-631l-147 -637h-256zM82 16h190l148 637h631l41 176h-633l86 369h794l39 176h-983z" />
    <glyph glyph-name="G" unicode="G" horiz-adv-x="1589" 
d="M705 -47q-127 0 -235 37.5t-184 104.5t-124.5 160.5t-56.5 205.5t20 239q34 156 125 294t217.5 236.5t286 155t323.5 54.5q184 0 297 -45q135 -54 182 -90l-65 -281q-37 58 -172 121q-115 53 -291 53q-234 0 -410 -140t-229 -366q-51 -213 53 -355t310 -142
q204 0 391 118l63 275h-415l57 241h672l-197 -845h-256l12 57q-172 -88 -374 -88zM705 -14q110 0 222 31t201 87l-20 -88h190l181 781h-607l-41 -176h416l-76 -328q-81 -54 -192 -92.5t-227 -38.5q-146 0 -249.5 70t-142.5 193.5t-4 274.5q56 237 241.5 384t430.5 147
q192 0 303 -57q91 -40 142 -82l47 198q-52 34 -158 74q-113 43 -285 43q-159 2 -312.5 -52.5t-275.5 -149.5t-210.5 -228.5t-120.5 -284.5q-27 -121 -20 -227t52.5 -194t117.5 -151.5t174 -98.5t223 -35z" />
    <glyph glyph-name="H" unicode="H" horiz-adv-x="1544" 
d="M41 -16l330 1423h256l-127 -545h696l127 545h256l-330 -1423h-256l148 637h-697l-147 -637h-256zM82 16h190l148 637h762l-148 -637h191l313 1358h-190l-127 -545h-762l127 545h-191z" />
    <glyph glyph-name="I" unicode="I" horiz-adv-x="591" 
d="M41 -16l330 1423h256l-330 -1423h-256zM82 16h190l314 1358h-191z" />
    <glyph glyph-name="J" unicode="J" horiz-adv-x="1110" 
d="M340 -47q-64 0 -155.5 21.5t-159 52.5t-62.5 55l49 213l27 10q33 -25 130.5 -66.5t188.5 -41.5q163 0 247 62.5t118 209.5l217 938h256l-217 -942q-56 -238 -226 -375t-413 -137zM340 -14q232 0 393 129t213 358l209 901h-190l-209 -913q-37 -158 -130.5 -227.5
t-267.5 -69.5q-83 0 -171 32.5t-148 67.5l-43 -190l17 -8q17 -9 50.5 -22t74 -26t95 -22.5t107.5 -9.5z" />
    <glyph glyph-name="K" unicode="K" horiz-adv-x="1404" 
d="M41 -16l330 1423h254l-140 -604l764 604h365l-764 -596l422 -827h-285l-340 667l-241 -188l-111 -479h-254zM82 16h188l107 467l282 217l349 -684h211l-410 803l711 555h-258l-830 -653l152 653h-189z" />
    <glyph glyph-name="L" unicode="L" horiz-adv-x="1327" 
d="M41 -16l330 1423h254l-273 -1182h844l-57 -241h-1098zM82 16h1032l41 177h-844l273 1181h-189z" />
    <glyph glyph-name="M" unicode="M" horiz-adv-x="1693" 
d="M41 -16l330 1423h282l265 -631v37l522 594h289l-330 -1423h-254l233 1011l-420 -473h-221l-207 479l-235 -1017h-254zM82 16h188l252 1092l236 -553h184l498 559l-254 -1098h188l314 1358h-232l-571 -647v41l-252 606h-238z" />
    <glyph glyph-name="N" unicode="N" horiz-adv-x="1579" 
d="M41 -16l330 1423h278l475 -1010l236 1010h254l-330 -1423h-270l-479 1028l-240 -1028h-254zM82 16h188l252 1094l512 -1094h226l313 1358h-189l-247 -1075l-508 1075h-234z" />
    <glyph glyph-name="O" unicode="O" horiz-adv-x="1644" 
d="M692 -47q-125 -2 -232.5 35t-183 104.5t-124.5 161.5t-57 206.5t20 239.5q44 206 181.5 377t331.5 268.5t400 94.5q208 3 359.5 -96.5t211 -272.5t9.5 -379q-33 -153 -122.5 -291t-212 -237t-275 -156t-306.5 -55zM692 -14q197 -3 385.5 91.5t322 260t175.5 362.5
q48 195 -8 359t-199 257.5t-340 90.5q-149 2 -295.5 -53t-264 -150.5t-203.5 -229t-118 -282.5q-48 -196 7 -359.5t197.5 -256.5t340.5 -90zM741 164q-151 0 -254 68.5t-141 190.5t-2 277q54 232 232.5 381.5t402.5 149.5q228 0 339.5 -152t57.5 -387q-54 -233 -231 -380.5
t-404 -147.5zM741 197q216 0 383.5 139.5t218.5 363.5q52 220 -50 359t-314 139q-213 0 -382 -142t-220 -364q-51 -220 50.5 -357.5t313.5 -137.5z" />
    <glyph glyph-name="P" unicode="P" horiz-adv-x="1429" 
d="M41 -16l330 1423h665q223 0 337 -135t67 -342q-47 -205 -222 -337t-399 -132h-411l-111 -477h-256zM82 16h190l111 478h436q140 0 264 56.5t209.5 158t114.5 229.5q44 192 -60 314t-311 122h-641zM422 666l123 532h428q127 0 194 -77.5t41 -194.5q-26 -112 -126 -186
t-226 -74h-434zM463 698h393q114 0 205.5 67.5t114.5 168.5q23 100 -34 165.5t-169 65.5h-404z" />
    <glyph glyph-name="Q" unicode="Q" horiz-adv-x="1644" 
d="M692 -47q-125 -2 -232.5 35t-183 104.5t-124.5 161.5t-57 206.5t20 239.5q44 206 181.5 377t331.5 268.5t400 94.5q208 3 359.5 -96.5t211 -272.5t9.5 -379q-31 -139 -108 -267.5t-191 -229.5h233l-55 -242h-795zM692 -14h770l39 176h-284q139 103 232.5 243t125.5 295
q48 195 -8 359t-199 257.5t-340 90.5q-149 2 -295.5 -53t-264 -150.5t-203.5 -229t-118 -282.5q-48 -196 7 -359.5t197.5 -256.5t340.5 -90zM741 164q-151 0 -254 68.5t-141 190.5t-2 277q54 232 232.5 381.5t402.5 149.5q228 0 339.5 -152t57.5 -387q-54 -233 -231 -380.5
t-404 -147.5zM741 197q216 0 383.5 139.5t218.5 363.5q52 220 -50 359t-314 139q-213 0 -382 -142t-220 -364q-51 -220 50.5 -357.5t313.5 -137.5z" />
    <glyph glyph-name="R" unicode="R" horiz-adv-x="1411" 
d="M41 -16l330 1423h624q231 0 343.5 -122t66.5 -324q-35 -154 -145.5 -262.5t-274.5 -151.5l287 -563h-316l-272 538h-262l-125 -538h-256zM82 16h190l125 539h308l272 -539h242l-283 553q171 34 286 139t150 261q43 186 -59.5 295.5t-317.5 109.5h-600zM436 727l109 471
h387q135 0 202 -66t42 -176q-25 -106 -118.5 -167.5t-228.5 -61.5h-393zM477 760h352q124 0 208 55t106 150q22 94 -34 147t-177 53h-363z" />
    <glyph glyph-name="S" unicode="S" horiz-adv-x="1191" 
d="M469 -49q-156 0 -295.5 44t-196.5 111l64 267q75 -83 191.5 -130.5t242.5 -47.5q282 0 322 178q16 66 -34 109t-192 108q-67 31 -114.5 57.5t-90.5 59.5t-68 68t-40.5 78t-15 95t15.5 115q40 177 192.5 281t370.5 104q105 2 211 -30.5t170 -86.5l-65 -282
q-47 71 -139.5 112t-204.5 41q-114 -2 -187 -41t-86 -106q-5 -19 -5 -34.5t1 -28.5t10 -26.5t15.5 -22.5t24.5 -21.5t30 -20t40 -21t45 -21.5t54 -25q58 -26 101 -49t84 -50.5t67.5 -55t47.5 -61.5t29.5 -72t7.5 -84t-13 -100q-44 -190 -203 -300.5t-387 -110.5zM469 -16
q217 0 366.5 103.5t190.5 283.5q13 58 13.5 105t-13.5 86t-37.5 70t-65 61.5t-87.5 55.5t-113 56q-40 18 -61.5 28t-52 26t-45.5 26.5t-34.5 26.5t-27.5 31t-15 33.5t-6.5 40t6.5 46.5q19 80 99.5 125.5t206.5 46.5q97 0 182.5 -30.5t144.5 -86.5l45 201q-62 45 -156 71
t-188 25q-205 0 -349 -98t-181 -262q-14 -58 -15 -105t12.5 -86.5t36 -71t62.5 -62t85.5 -56t111.5 -56.5q74 -33 117 -56.5t79.5 -54t47.5 -64.5t1 -78q-50 -203 -354 -203q-116 0 -225 38.5t-191 108.5l-45 -194q55 -52 178.5 -91.5t276.5 -39.5z" />
    <glyph glyph-name="T" unicode="T" horiz-adv-x="1359" 
d="M426 -16l274 1181h-487l55 242h1229l-55 -242h-488l-274 -1181h-254zM467 16h188l275 1182h487l39 176h-1163l-39 -176h487z" />
    <glyph glyph-name="U" unicode="U" horiz-adv-x="1445" 
d="M594 -47q-283 0 -402 151.5t-55 430.5l203 872h256l-201 -877q-37 -157 28 -243t220 -86q170 0 271 83t141 255l200 868h256l-202 -881q-65 -277 -249.5 -425t-465.5 -148zM594 -14q268 0 444 141.5t238 407.5l194 839h-190l-193 -844q-43 -183 -152.5 -272.5
t-291.5 -89.5q-170 0 -245.5 99t-35.5 272l193 835h-190l-195 -848q-61 -262 48 -401t376 -139z" />
    <glyph glyph-name="V" unicode="V" horiz-adv-x="1437" 
d="M457 -16l-213 1423h280l144 -1038l620 1038h314l-873 -1423h-272zM485 16h228l831 1358h-235l-662 -1104l-151 1104h-215z" />
    <glyph glyph-name="W" unicode="W" horiz-adv-x="2117" 
d="M358 -16l-114 1423h278l64 -1024l512 1024h301l51 -1026l539 1026h290l-770 -1423h-284l-54 1026l-520 -1026h-293zM387 16h244l565 1117l61 -1117h232l737 1358h-217l-584 -1116l-59 1116h-248l-557 -1114l-72 1114h-208z" />
    <glyph glyph-name="X" unicode="X" horiz-adv-x="1456" 
d="M-98 -16l714 751l-350 672h307l224 -459l444 459h352l-671 -682l374 -741h-307l-256 514l-479 -514h-352zM-20 16h262l499 539l269 -539h233l-362 717l635 641h-263l-465 -483l-235 483h-234l338 -643z" />
    <glyph glyph-name="Y" unicode="Y" horiz-adv-x="1384" 
d="M436 -16l144 610l-365 813h287l243 -561l502 561h332l-743 -819l-142 -604h-258zM477 16h193l137 588l698 770h-241l-527 -590l-256 590h-217l348 -776z" />
    <glyph glyph-name="Z" unicode="Z" horiz-adv-x="1400" 
d="M10 -16l56 233l1003 948h-745l55 242h1102l-54 -233l-997 -949h805l-57 -241h-1168zM51 16h1102l41 177h-846l1051 997l41 184h-1037l-38 -176h786l-1057 -997z" />
    <glyph glyph-name="bracketleft" unicode="[" horiz-adv-x="768" 
d="M-59 -272l421 1822h515l-56 -241h-241l-310 -1342h242l-57 -239h-514zM-18 -240h448l41 174h-242l326 1407h242l39 177h-449z" />
    <glyph glyph-name="backslash" unicode="\" horiz-adv-x="931" 
d="M530 -133l-342 1583h273l342 -1583h-273zM555 -100h207l-326 1517h-207z" />
    <glyph glyph-name="bracketright" unicode="]" horiz-adv-x="768" 
d="M-59 -272l57 239h242l309 1342h-242l55 241h515l-422 -1822h-514zM-18 -240h448l406 1758h-449l-39 -177h242l-326 -1407h-241z" />
    <glyph glyph-name="asciicircum" unicode="^" horiz-adv-x="1263" 
d="M96 639l662 809h153l303 -809h-241l-199 535l-430 -535h-248zM166 672h162l458 567l211 -567h168l-278 743h-113z" />
    <glyph glyph-name="underscore" unicode="_" horiz-adv-x="1525" 
d="M-27 -143l37 159h1268l-37 -159h-1268zM14 -111h1203l20 95h-1202z" />
    <glyph glyph-name="grave" unicode="`" horiz-adv-x="538" 
d="M436 1184l-186 383h311l115 -383h-240zM457 1217h174l-94 317h-234z" />
    <glyph glyph-name="a" unicode="a" horiz-adv-x="1376" 
d="M506 -47q-161 0 -275 75.5t-158 208t-7 295.5q37 161 141.5 292.5t251 206.5t305.5 75q96 0 179.5 -30.5t137.5 -84.5l21 84h254l-258 -1091h-254l20 84q-162 -115 -358 -115zM506 -14q237 0 416 170l-37 -140h188l242 1026h-189l-30 -127q-38 72 -128 115t-204 43
q-229 0 -420.5 -158t-245.5 -391q-35 -151 5.5 -274.5t146.5 -193.5t256 -70zM567 150q-155 0 -236 111.5t-44 273.5q37 158 166.5 266t281.5 108q164 0 243.5 -106.5t41.5 -276.5q-38 -168 -164 -272t-289 -104zM567 182q152 0 268.5 97.5t151.5 255.5q37 154 -33 248
t-219 94q-141 0 -261.5 -101.5t-154.5 -249.5q-34 -145 38 -244.5t210 -99.5z" />
    <glyph glyph-name="b" unicode="b" horiz-adv-x="1376" 
d="M612 -47q-206 0 -313 119l-20 -88h-256l327 1421l262 43l-102 -453q75 52 170 81.5t190 29.5q161 0 275 -76t158.5 -209.5t7.5 -296.5q-57 -244 -257 -407.5t-442 -163.5zM612 -14q230 0 421 156.5t245 389.5q29 115 9.5 214t-72.5 171.5t-143 114t-202 41.5
q-116 0 -229.5 -45t-185.5 -119l116 498l-192 -31l-316 -1360h191l31 136q42 -80 125.5 -123t201.5 -43zM641 150q-166 0 -244.5 106.5t-40.5 278.5q40 167 165 270.5t288 103.5q157 0 240.5 -111.5t46.5 -271.5q-37 -158 -169 -267t-286 -109zM641 182q141 0 264.5 103
t157.5 250q34 142 -40 242t-214 100q-152 0 -268.5 -97t-151.5 -254q-35 -155 34 -249.5t218 -94.5z" />
    <glyph glyph-name="c" unicode="c" horiz-adv-x="1132" 
d="M553 -47q-281 0 -414 159.5t-73 422.5q37 162 144.5 292.5t260 204.5t320.5 74q120 0 218.5 -37t149.5 -102l-55 -236l-31 -4q-3 6 -10.5 16.5t-35 36.5t-61.5 46t-93.5 36.5t-127.5 16.5q-148 0 -273 -102t-159 -251q-37 -158 40.5 -252t244.5 -94q108 0 206 27.5
t142 54.5l45 27l27 -19l-49 -211q-78 -54 -196.5 -80t-219.5 -26zM553 -14q96 0 203.5 22.5t183.5 71.5l37 160q-166 -93 -379 -93q-183 0 -270 107t-47 281q38 160 171 268t293 108q214 0 334 -137l43 184q-47 54 -136 84.5t-195 30.5q-160 0 -306 -71t-249 -196.5
t-138 -279.5q-57 -246 66.5 -393t388.5 -147z" />
    <glyph glyph-name="d" unicode="d" horiz-adv-x="1376" 
d="M506 -47q-161 0 -275 75.5t-158 208t-7 295.5q37 161 141.5 292.5t251 206.5t305.5 75q96 0 179.5 -30.5t137.5 -84.5l95 414l264 43l-338 -1464h-258l20 84q-162 -115 -358 -115zM506 -14q237 0 416 170l-37 -140h192l322 1391l-195 -31l-106 -461q-40 72 -130 115
t-204 43q-229 0 -420.5 -158t-245.5 -391q-35 -151 5.5 -274.5t146.5 -193.5t256 -70zM567 150q-156 0 -239.5 112.5t-46.5 272.5q37 157 168.5 265.5t285.5 108.5q164 0 243.5 -106.5t41.5 -276.5q-38 -168 -164 -272t-289 -104zM567 182q152 0 268.5 97.5t151.5 255.5
q37 154 -33 248t-219 94q-141 0 -264.5 -102.5t-157.5 -248.5q-34 -143 40.5 -243.5t213.5 -100.5z" />
    <glyph glyph-name="e" unicode="e" horiz-adv-x="1220" 
d="M539 -47q-132 0 -235 43t-164 120.5t-83 184.5t9 234q37 161 143.5 291.5t257 205t315.5 74.5q142 0 242.5 -70t139 -192t3.5 -269l-28 -114h-842q-6 -132 70.5 -205.5t220.5 -73.5q51 0 103.5 6t94.5 16t81 22t68 23.5t51 21.5t34 16l12 6l17 -21l-45 -198l-7 -8
q-6 -5 -17.5 -12.5t-53 -27t-90 -34.5t-129 -27t-168.5 -12zM539 -14q94 0 175.5 12.5t135 32.5t79.5 32.5t44 24.5l35 158q-39 -20 -89 -38.5t-143.5 -38t-187.5 -19.5q-167 0 -253 91.5t-69 252.5h848l21 90q33 138 -1.5 250t-127 175.5t-224.5 63.5q-238 0 -434 -157
t-250 -390q-55 -241 67 -390.5t374 -149.5zM309 633q5 23 21.5 56t51 75.5t79 77.5t111 59.5t141.5 24.5q62 0 109.5 -16.5t74 -44t43 -58.5t21 -66.5t4.5 -60.5t-4 -47h-652zM356 666h576q2 29 -0.5 56t-15.5 59.5t-35.5 56t-65.5 39.5t-102 16q-72 0 -135 -22.5
t-106 -59.5t-70.5 -72.5t-45.5 -72.5z" />
    <glyph glyph-name="f" unicode="f" horiz-adv-x="1067" 
d="M25 -528l294 1269h-225l49 213h226q59 243 217 387t368 144q66 0 120 -12.5t83.5 -30.5t50 -35.5t26.5 -30.5l7 -12l2 -10l-45 -197l-29 -6q-3 4 -9 11t-27 25t-45 32t-64 25t-84 11q-125 0 -201 -72.5t-116 -228.5h477l-49 -213h-478l-294 -1269h-254zM66 -496h188
l295 1270h477l33 148h-477q40 188 127 277t231 89q142 0 234 -92l36 160q-7 12 -20 24.5t-41.5 30.5t-79 29.5t-115.5 11.5q-204 0 -355.5 -143.5t-205.5 -386.5h-225l-33 -148h225z" />
    <glyph glyph-name="g" unicode="g" horiz-adv-x="1320" 
d="M1102 1075h254l-228 -969q-65 -277 -262 -430t-491 -153q-89 0 -164 12t-118 28.5t-74 33.5t-43 29l-11 12l-4 14l45 198l27 9q5 -4 15 -11.5t46 -26t76.5 -32.5t106.5 -25.5t137 -11.5q367 0 450 314q-165 -113 -358 -113q-161 0 -275 75.5t-158 208t-7 295.5
q37 161 141.5 292.5t251 206.5t305.5 75q96 0 179.5 -30.5t137.5 -84.5zM1096 115l219 927h-189l-30 -127q-38 72 -128 115t-204 43q-229 0 -420.5 -158t-245.5 -391q-35 -151 5.5 -274.5t146.5 -193.5t256 -70q216 0 373 133l26 -15l-4 -26q-83 -359 -487 -359
q-94 0 -179.5 19.5t-127.5 39t-74 40.5l-37 -166q14 -12 34.5 -24t64.5 -30.5t117 -30t163 -11.5q283 0 471 146.5t250 412.5zM735 909q164 0 243.5 -106.5t41.5 -276.5q-38 -168 -164 -272t-289 -104q-155 0 -236 111.5t-44 273.5q37 158 166.5 266t281.5 108zM987 535
q37 154 -33 248t-219 94q-141 0 -261.5 -101.5t-154.5 -249.5q-34 -145 38 -244.5t210 -99.5q152 0 268.5 97.5t151.5 255.5z" />
    <glyph glyph-name="h" unicode="h" horiz-adv-x="1282" 
d="M20 -16l328 1421l264 43l-104 -461q136 121 334 121q202 0 295.5 -126t46.5 -335l-156 -663h-254l150 649q28 117 -14.5 181.5t-145.5 64.5q-120 0 -215 -74t-127 -193l-148 -628h-254zM61 16h189l139 605q37 129 141 209.5t234 80.5q120 0 171.5 -77t20.5 -209
l-141 -609h189l147 639q46 193 -37.5 306.5t-271.5 113.5q-65 0 -123 -14.5t-95.5 -33t-69 -43t-44.5 -39t-21 -25.5l-28 14l110 473l-194 -31z" />
    <glyph glyph-name="i" unicode="i" horiz-adv-x="579" 
d="M446 1194q-60 0 -93 42.5t-19 102.5q14 59 63 99.5t107 40.5q61 0 94.5 -43t19.5 -105q-13 -58 -63 -97.5t-109 -39.5zM446 1227q48 0 89 32.5t51 79.5q11 46 -12.5 76.5t-69.5 30.5t-86.5 -34t-50.5 -81q-11 -44 12 -74t67 -30zM45 -16l254 1093h254l-254 -1093h-254z
M86 16h188l238 1028h-188z" />
    <glyph glyph-name="j" unicode="j" horiz-adv-x="548" 
d="M434 1194q-60 0 -93 42.5t-19 102.5q14 59 63 99.5t107 40.5q61 0 94.5 -43t19.5 -105q-13 -58 -63 -97.5t-109 -39.5zM434 1227q47 0 88 32.5t51 79.5q11 46 -12 76.5t-69 30.5t-87 -34t-51 -81q-10 -44 13 -74t67 -30zM-152 -475q-67 0 -120.5 14.5t-82.5 34.5
t-49 40.5t-26 35.5l-6 14l-2 10l53 230l31 2q3 -6 8 -16.5t24 -36.5t42 -46t61.5 -36.5t81.5 -16.5q67 0 106.5 48t55.5 120l268 1155h254l-264 -1145q-46 -195 -159 -301t-276 -106zM-152 -442q76 0 139.5 25.5t105.5 64t75.5 92t51.5 101t30 100.5l256 1103h-189
l-260 -1130q-20 -91 -71 -142t-123 -51q-138 0 -225 134l-44 -183q4 -10 12 -21t28 -28.5t46 -31t70.5 -23.5t97.5 -10z" />
    <glyph glyph-name="k" unicode="k" horiz-adv-x="1179" 
d="M20 -16l328 1421l264 43l-161 -698l467 325h374l-592 -416l406 -675h-309l-310 526l-108 -76l-105 -450h-254zM61 16h189l100 439l150 104l317 -543h232l-394 652l535 374h-260l-529 -370l170 735l-194 -31z" />
    <glyph glyph-name="l" unicode="l" horiz-adv-x="548" 
d="M20 -16l328 1421l264 43l-338 -1464h-254zM61 16h189l321 1391l-194 -31z" />
    <glyph glyph-name="m" unicode="m" horiz-adv-x="1927" 
d="M33 -16l254 1091h254l-19 -82q120 115 301 115q109 0 185.5 -41t113.5 -119q68 77 170 118.5t226 41.5q195 0 277.5 -122t33.5 -339l-156 -663h-254l150 649q29 126 -2.5 186t-126.5 60q-111 0 -200.5 -80.5t-117.5 -206.5l-143 -608h-254l149 649q29 126 -2.5 186
t-126.5 60q-101 0 -187.5 -71t-121.5 -183l-149 -641h-254zM74 16h188l141 617q38 123 133.5 200.5t208.5 77.5q227 0 162 -286l-141 -609h188l136 584q31 137 129 224t221 87q227 0 162 -286l-142 -609h189l147 639q47 200 -25.5 310t-252.5 110q-136 0 -241.5 -50.5
t-164.5 -143.5q-22 95 -95.5 144.5t-193.5 49.5q-57 0 -109 -13.5t-85.5 -31t-61.5 -41t-40.5 -37.5t-20.5 -26l-31 12l25 104h-189z" />
    <glyph glyph-name="n" unicode="n" horiz-adv-x="1296" 
d="M33 -16l254 1091h254l-21 -90q133 123 336 123q202 0 295.5 -126t46.5 -335l-156 -663h-254l150 649q28 117 -14.5 181.5t-145.5 64.5q-126 0 -222.5 -79.5t-125.5 -207.5l-143 -608h-254zM74 16h188l135 584q32 138 137.5 224.5t243.5 86.5q120 0 172 -77t21 -209
l-142 -609h189l147 639q46 193 -37.5 306.5t-271.5 113.5q-67 0 -128.5 -16.5t-96.5 -34t-69.5 -46.5t-40.5 -36.5t-17 -21.5l-31 12l27 110h-189z" />
    <glyph glyph-name="o" unicode="o" horiz-adv-x="1323" 
d="M532 -47q-98 0 -183 29.5t-145.5 82.5t-101 125.5t-48.5 158.5t12 183q36 156 146 288t264 209t315 77q163 0 283.5 -78t169.5 -212t13 -292q-36 -156 -146 -287.5t-264 -207.5t-315 -76zM532 -14q115 0 230 43t208 116t161 174t94 213q34 147 -12 271.5t-158 197
t-264 72.5q-154 0 -301.5 -73.5t-252.5 -200t-139 -275.5q-34 -147 11.5 -271t157.5 -195.5t265 -71.5zM578 152q-163 0 -249.5 110t-49.5 270q37 158 171.5 266.5t294.5 108.5q162 0 249 -111.5t50 -271.5q-38 -157 -172.5 -264.5t-293.5 -107.5zM578 184q148 0 274 101
t160 247q34 145 -43.5 243.5t-223.5 98.5q-149 0 -274.5 -101t-159.5 -249q-34 -143 43.5 -241.5t223.5 -98.5z" />
    <glyph glyph-name="p" unicode="p" horiz-adv-x="1376" 
d="M-80 -451l354 1526h254l-18 -78q75 51 170 80t190 29q161 0 275 -76t158.5 -209.5t7.5 -296.5q-57 -244 -257 -407.5t-442 -163.5q-207 0 -315 123l-123 -527h-254zM-39 -418h189l133 576q40 -84 124 -128t205 -44q230 0 421 156.5t245 389.5q29 115 9.5 214t-72.5 171.5
t-143 114t-202 41.5q-117 0 -230 -45.5t-185 -120.5l32 135h-188zM662 150q-171 0 -257.5 107.5t-48.5 274.5q38 164 171 270.5t302 106.5q152 0 228.5 -110.5t38.5 -274.5q-38 -161 -161.5 -267.5t-272.5 -106.5zM662 182q138 0 252 99.5t149 250.5q35 149 -32 247t-202 98
q-158 0 -281.5 -99t-158.5 -254q-35 -152 41 -247t232 -95z" />
    <glyph glyph-name="q" unicode="q" horiz-adv-x="1370" 
d="M748 -451l120 521q-163 -117 -362 -117q-161 0 -275 75.5t-158 208t-7 295.5q37 161 141.5 292.5t251 206.5t305.5 75q96 0 179.5 -30.5t137.5 -84.5l21 84h254l-355 -1526h-253zM788 -418h189l338 1460h-189l-30 -127q-38 72 -128 115t-204 43q-229 0 -420.5 -158
t-245.5 -391q-35 -151 5.5 -274.5t146.5 -193.5t256 -70q245 0 418 176zM547 150q-152 0 -228 109t-38 273q38 163 161.5 270t272.5 107q171 0 257 -108.5t48 -276.5q-38 -164 -171 -269t-302 -105zM547 182q158 0 281.5 98t158.5 252q35 152 -41 248.5t-231 96.5
q-137 0 -252 -100.5t-150 -252.5q-35 -147 32 -244.5t202 -97.5z" />
    <glyph glyph-name="r" unicode="r" horiz-adv-x="839" 
d="M20 -16l254 1093h254l-34 -149q80 87 207.5 135.5t267.5 44.5l-49 -215q-195 3 -335.5 -96t-183.5 -271l-127 -542h-254zM61 16h189l119 519q46 177 188 282.5t338 108.5l33 149q-146 -4 -269.5 -66.5t-183.5 -160.5l-31 12l43 184h-188z" />
    <glyph glyph-name="s" unicode="s" horiz-adv-x="894" 
d="M287 -47q-52 0 -104.5 10.5t-90 26t-67.5 31t-45 25.5l-15 11l-6 17l51 217l29 6q4 -5 12.5 -12.5t35.5 -27.5t56.5 -35t74.5 -27.5t91 -12.5q96 0 154 26.5t69 74.5q9 44 -20 80.5t-123 95.5q-29 19 -41 26.5t-38 26t-37.5 29t-31.5 30t-28 35t-19 38.5t-13 45.5
t-1 50.5t8 59q32 137 146.5 222t267.5 85q97 0 181 -25.5t116 -54.5l-61 -268q-17 51 -85.5 85t-148.5 34q-155 0 -174 -82q-8 -35 19 -61t132 -95l12 -7.5t10.5 -7t12.5 -8.5q34 -23 58 -42t47 -43t36 -48.5t21 -54t7 -65t-11 -76.5q-37 -158 -165 -246t-322 -88zM287 -14
q183 0 302.5 81.5t151.5 227.5q9 38 10.5 69t-5 57t-17.5 47t-31 42t-42.5 38.5t-55.5 39.5q-18 12 -44 29t-39.5 26t-32.5 22.5t-28.5 21t-22 18t-18 18t-11.5 17.5t-7.5 19.5t-1.5 20.5t2 23q27 106 207 106q63 0 121 -19.5t96 -53.5l41 176q-38 25 -107.5 43t-152.5 18
q-142 0 -247.5 -78t-133.5 -204q-8 -34 -7.5 -64.5t5 -53t21 -46.5t29 -38.5t41 -36t44.5 -32t52 -33.5q94 -59 133 -105.5t26 -107.5q-13 -60 -80.5 -92t-175.5 -32q-88 0 -158 33t-114 73l-43 -180q140 -90 293 -90z" />
    <glyph glyph-name="t" unicode="t" horiz-adv-x="1028" 
d="M274 -16l211 907h-440l825 571l-82 -358h363l-49 -213h-363l-211 -907h-254zM315 16h189l211 908h362l33 147h-362l73 318l-669 -465h374z" />
    <glyph glyph-name="u" unicode="u" horiz-adv-x="1249" 
d="M496 -49q-30 0 -52.5 1t-62.5 5.5t-70.5 13t-68 26t-64 41t-50.5 60.5t-34.5 83t-9 110.5t19.5 140.5l150 643h254l-152 -657q-1 -5 -3 -13.5t-4 -33.5t0.5 -47.5t14 -50.5t31.5 -48t57.5 -33.5t88.5 -13.5q53 0 98 13.5t75 35.5t54.5 48.5t38 53t22.5 48.5t12 35l3 14
l151 649h254l-149 -651q-111 -473 -604 -473zM496 -16q39 0 69 1.5t84 11t97 26t95.5 49.5t92.5 79t76 118.5t57 162.5l141 610h-188l-143 -624q-1 -6 -3.5 -15.5t-13 -38t-25 -54.5t-42 -57.5t-60.5 -54t-83 -38t-109 -15.5q-60 0 -104.5 15.5t-67.5 40.5t-37 55
t-15.5 59.5t-0.5 54.5t4 40l4 16l143 616h-188l-142 -618q-16 -70 -18 -128.5t7 -100.5t30.5 -76t45 -55.5t57.5 -37.5t62 -23.5t65 -12t59 -5.5t51 -1z" />
    <glyph glyph-name="v" unicode="v" horiz-adv-x="1126" 
d="M414 -123l-301 1198h264l160 -669l462 669h273zM430 -45l776 1087h-190l-496 -714l-168 714h-198z" />
    <glyph glyph-name="w" unicode="w" horiz-adv-x="1529" 
d="M319 -131l-153 1206h264l66 -577l407 647l129 -651l318 581h270l-711 -1204l-135 709zM340 -37l451 703l135 -705l637 1081h-193l-354 -643l-129 660l-412 -660l-74 643h-198z" />
    <glyph glyph-name="x" unicode="x" horiz-adv-x="1275" 
d="M-113 -16l609 587l-310 504h306l186 -315l340 315h330l-549 -526l331 -565h-305l-207 378l-387 -378h-344zM-31 16h250l408 400l219 -400h227l-315 537l508 489h-236l-360 -335l-199 335h-227l293 -475z" />
    <glyph glyph-name="y" unicode="y" horiz-adv-x="1200" 
d="M-70 -442l437 594l-224 923h265l153 -653l457 653h297l-1084 -1517h-301zM-4 -410h219l1034 1452h-215l-489 -698l-162 698h-199l219 -899z" />
    <glyph glyph-name="z" unicode="z" horiz-adv-x="1179" 
d="M-41 -16l41 176l776 692h-575l53 225h946l-45 -196l-754 -672h619l-53 -225h-1008zM0 16h942l37 160h-664l811 721l33 147h-880l-37 -159h620l-833 -742z" />
    <glyph glyph-name="braceleft" unicode="{" horiz-adv-x="749" 
d="M436 -272q-200 0 -275.5 80t-35.5 251q73 316 80 359q13 83 -11 100q-16 12 -67 10l51 224q76 -4 104 56t88 322q15 64 23 99q40 170 151 247.5t314 75.5l-51 -221q-92 2 -131.5 -36t-67.5 -156q-8 -36 -20 -90.5t-19 -85.5t-18.5 -74.5t-21 -70t-24.5 -58t-32 -51.5
t-39.5 -39t-50.5 -31q22 -13 35.5 -33t20.5 -41t7.5 -53t-2 -59t-11 -70.5t-16 -75t-20 -85.5t-20.5 -89q-27 -118 -5 -152.5t117 -31.5zM412 -240l37 156q-86 4 -109.5 54.5t4.5 170.5q9 37 26 106q45 185 46 249q2 100 -71 130q-26 11 -62 15q32 4 58.5 13t47 20
t38.5 31.5t30.5 37.5t25 48t20.5 54.5t18.5 64.5t16.5 70t17.5 80.5t19.5 86.5q28 120 72.5 167t134.5 50l35 156q-171 -6 -263.5 -77t-127.5 -222q-10 -42 -27 -117q-55 -240 -87 -310t-109 -75l-35 -158q59 -5 70 -49q13 -48 -23 -214q-9 -37 -29 -125q-18 -78 -28 -122
q-35 -149 24.5 -218t229.5 -73z" />
    <glyph glyph-name="bar" unicode="|" horiz-adv-x="503" 
d="M-14 -119l381 1649h231l-381 -1649h-231zM27 -86h166l364 1583h-166z" />
    <glyph glyph-name="braceright" unicode="}" horiz-adv-x="749" 
d="M-59 -272l53 221q92 -2 131.5 36t67.5 156q8 34 20 90t18.5 85.5t18 74.5t21 70.5t25 58t32 52.5t39.5 39t51 32q-19 11 -32.5 26.5t-20.5 37t-10.5 42t-1 51.5t6 56.5t12 65t15 68.5t18.5 77t19 80q27 118 5 152.5t-118 31.5l51 221q201 0 277.5 -80t36.5 -251
q-70 -306 -78 -353q-13 -88 14 -107q16 -12 62 -9l-51 -224q-78 3 -105 -53t-89 -333q-14 -58 -21 -91q-40 -170 -151.5 -247.5t-315.5 -75.5zM-18 -240q173 6 265.5 77t127.5 222q69 301 82 346q32 108 74 137q25 17 67 19l35 158q-32 3 -48.5 17.5t-21.5 44t1 75t20 112
t34 154.5q16 69 25 107q35 150 -25 218.5t-231 72.5l-35 -156q86 -4 109.5 -54.5t-4.5 -170.5q-8 -34 -23 -96q-20 -78 -28 -114.5t-16.5 -92t-3 -80.5t18.5 -54.5t42.5 -42.5t74.5 -18q-57 -8 -98.5 -32t-66.5 -51.5t-47.5 -88.5t-33 -104t-30.5 -136q-13 -63 -21 -96
q-28 -120 -72.5 -167t-134.5 -50z" />
    <glyph glyph-name="asciitilde" unicode="~" horiz-adv-x="1120" 
d="M737 401q-42 0 -80.5 12t-101.5 39q-3 1 -4.5 2t-3.5 2t-4 1.5t-4 1.5q-3 1 -43 18q-64 31 -86 31q-16 0 -28.5 -5t-22 -16t-15 -20t-14 -27t-13.5 -26l-245 69q47 117 133.5 181.5t193.5 64.5q87 0 201 -57q5 -3 19 -10l20 -10t18 -8.5t19 -8.5t17 -6t18 -4.5t16 -1.5
q20 0 35.5 10t21.5 18.5t18.5 33.5t16.5 32l246 -70q-51 -118 -136.5 -182t-191.5 -64zM737 434q89 0 162.5 50t120.5 143l-184 51q-9 -20 -15.5 -31t-19.5 -26.5t-31.5 -23t-42.5 -7.5q-9 0 -19 1.5t-22 5.5l-19.5 6.5t-22.5 9.5t-19.5 9t-21.5 11t-19 10q-98 53 -185 53
q-89 0 -162.5 -50t-119.5 -142l184 -51q9 20 15.5 31t19.5 26.5t31.5 23t42.5 7.5q12 0 26 -3.5t23 -7t27.5 -12t23.5 -10.5q7 -4 41 -21q68 -29 107.5 -41t78.5 -12z" />
    <glyph glyph-name="exclamdown" unicode="&#xa1;" horiz-adv-x="704" 
d="M406 743q-77 0 -119 54.5t-25 130.5q19 77 81 126.5t138 49.5q77 0 119 -54t23 -130q-17 -74 -80.5 -125.5t-136.5 -51.5zM406 776q62 0 116.5 44.5t67.5 107.5q15 61 -16 102t-93 41q-65 0 -118 -42.5t-68 -108.5q-14 -62 18 -103t93 -41zM8 -375l215 930h273l-215 -930
h-273zM49 -342h207l199 864h-207z" />
    <glyph glyph-name="cent" unicode="&#xa2;" horiz-adv-x="1024" 
d="M276 -272l72 305q-135 73 -184.5 203t-9.5 305q40 173 149.5 302.5t278.5 203.5l80 344h247l-63 -273q68 8 149 8l-55 -239q-64 1 -129 -10t-130 -38t-118.5 -67.5t-94.5 -102t-58 -137.5q-20 -77 -5.5 -134.5t48 -97t87.5 -63.5t113.5 -34t126.5 -8l-55 -244
q-80 0 -143 8l-56 -231h-250zM317 -240h185l55 236q94 -12 143 -12l39 178q-202 6 -301 108.5t-61 270.5q23 95 80.5 170t134 118.5t158.5 66t165 24.5l39 174q-76 -3 -149 -17l63 281h-182l-76 -336q-169 -68 -277.5 -193t-146.5 -297q-40 -170 11 -293.5t188 -189.5z" />
    <glyph glyph-name="sterling" unicode="&#xa3;" horiz-adv-x="1314" 
d="M141 -16l148 634h-215l57 244h215l33 152q43 189 215 327t364 138q124 0 215.5 -62t128 -167t5.5 -226h-256q28 78 -13 135.5t-123 57.5q-72 0 -135 -46t-86 -114l-45 -195h385l-57 -244h-387l-90 -391h645l-60 -243h-944zM182 16h879l43 179h-645l106 456h387l41 178
h-385l45 195h19l-17 20q20 86 95.5 145.5t164.5 59.5q86 0 137 -56t42 -136h188q31 161 -63.5 275t-260.5 114q-182 0 -344 -131t-202 -309l-41 -177h-215l-41 -178h215z" />
    <glyph glyph-name="currency" unicode="&#xa4;" horiz-adv-x="1290" 
d="M252 164l-135 174l110 92q-36 97 -10 221q30 120 113 219l-70 91l209 169l74 -94q114 54 227 54q117 0 205 -54l117 94l135 -174l-111 -92q38 -103 10 -221q-27 -115 -112 -219l69 -90l-209 -170l-73 94q-111 -51 -228 -51q-113 0 -202 51zM256 209l111 90
q92 -59 206 -59q120 0 238 59l68 -90l159 129l-65 86q98 116 121 227q30 118 -19 223l107 87l-95 124l-110 -90q-84 62 -207 62q-117 0 -235 -62l-70 90l-160 -129l66 -86q-91 -100 -121 -227q-28 -126 18 -223l-106 -86zM621 408q-104 0 -161 71t-34 172q23 100 109.5 169
t189.5 69q104 0 160 -71.5t33 -174.5q-23 -98 -109.5 -166.5t-187.5 -68.5zM621 440q89 0 166.5 61.5t97.5 149.5q20 86 -26 145.5t-134 59.5q-91 0 -168.5 -62t-97.5 -151q-20 -85 27 -144t135 -59z" />
    <glyph glyph-name="yen" unicode="&#xa5;" horiz-adv-x="1337" 
d="M307 -16l86 184h-241l57 242h297l31 67h-314l58 242h286l-149 688h287l112 -561l631 561h336l-785 -688h150l-57 -242h-293l-31 -67h309l-57 -242h-365l-86 -184h-262zM360 16h189l86 185h360l41 176h-321l63 133h289l41 176h-195l785 688h-238l-663 -590l-121 590h-217
l149 -688h-303l-41 -176h326l-64 -133h-293l-40 -176h253z" />
    <glyph glyph-name="brokenbar" unicode="&#xa6;" horiz-adv-x="481" 
d="M190 768l177 762h211l-177 -762h-211zM231 801h146l160 696h-146zM-51 -272l178 761h211l-178 -761h-211zM-10 -240h145l162 697h-145z" />
    <glyph glyph-name="section" unicode="&#xa7;" horiz-adv-x="997" 
d="M229 -207q-83 0 -158 26.5t-109 52.5l-34 26l-6 16l51 217l29 6q4 -5 12.5 -12.5t35.5 -27t56.5 -34.5t74.5 -27.5t91 -12.5q96 0 154.5 26.5t69.5 73.5q4 19 -1.5 37t-26 40.5t-32 33.5t-43.5 38q-20 16 -33 29q-2 2 -25.5 22.5t-28.5 25t-26 25t-27 29t-22.5 29.5
t-21.5 34.5t-14 35.5t-10 40.5t-0.5 42.5t5.5 48q26 104 110.5 175t207.5 93q-67 61 -89.5 115.5t-8.5 118.5q32 138 154 225.5t282 87.5q60 0 117 -18.5t83 -37.5l27 -18l6 -16l-41 -176l-24 -11q-11 8 -30.5 19t-73.5 30t-99 19q-60 0 -99 -24.5t-48 -67.5
q-6 -23 10 -49.5t36 -45.5t60 -51q32 -23 41 -32q72 -62 97 -94q80 -102 50 -234q-22 -92 -105.5 -169.5t-176.5 -92.5q98 -94 63 -240q-37 -163 -172 -254.5t-338 -91.5zM229 -174q192 0 318 84.5t160 236.5q21 84 -8.5 148t-112.5 119q58 -21 133 9.5t133 93.5t74 132
t-3.5 128t-44 85.5t-76.5 71.5q-7 7 -11 10q-31 26 -41 33q-32 26 -48 40t-38.5 39t-30 49t-2.5 50q12 55 60 86t120 31q90 0 201 -60l32 144q-92 59 -198 59q-149 0 -262.5 -81.5t-141.5 -207.5q-15 -63 17 -118.5t129 -133.5q-142 -3 -240.5 -70.5t-124.5 -178.5
q-14 -63 8.5 -120.5t49 -86t82.5 -76.5q12 -11 18 -16q4 -4 10 -9t13.5 -11t11.5 -9q28 -23 44.5 -38.5t37 -40.5t28 -50.5t2.5 -52.5q-13 -60 -80.5 -92.5t-175.5 -32.5q-88 0 -158 33t-114 73l-43 -180q122 -90 272 -90zM745 616q-19 -82 -110 -109.5t-166 15.5t-55 131
q12 55 59 86t119 31q78 0 123 -45t30 -109zM713 625q12 47 -23 79.5t-98 32.5q-60 0 -98.5 -24t-47.5 -68q-16 -66 47 -98q58 -29 129 -8q74 22 90 83q1 2 1 3z" />
    <glyph glyph-name="dieresis" unicode="&#xa8;" horiz-adv-x="770" 
d="M350 1208q-55 0 -86.5 39.5t-19.5 93.5q12 53 57.5 90t99.5 37t84.5 -40t18.5 -95q-12 -52 -56.5 -88.5t-97.5 -36.5zM743 1208q-55 0 -86.5 39.5t-19.5 93.5q12 53 58 90t100 37t84 -39.5t18 -95.5q-12 -52 -56.5 -88.5t-97.5 -36.5zM350 1241q40 0 76 29.5t45 70.5
q9 40 -11.5 67.5t-58.5 27.5q-41 0 -78.5 -31t-46.5 -72q-9 -38 12.5 -65t61.5 -27zM743 1241q40 0 76 29.5t45 70.5q9 40 -11 67.5t-58 27.5q-41 0 -78.5 -31t-46.5 -72q-9 -38 12 -65t61 -27z" />
    <glyph glyph-name="copyright" unicode="&#xa9;" horiz-adv-x="1738" 
d="M715 -154q-122 0 -228 38.5t-181.5 106.5t-125 162t-59 206t15.5 237q35 152 126 289.5t213 237t273 158t302 58.5q123 0 229.5 -38.5t182 -107t125 -162.5t59 -206t-16.5 -237q-46 -202 -185 -372.5t-333 -270t-397 -99.5zM715 -121q195 0 382.5 96t321.5 261.5
t178 359.5q45 192 -12 356t-199 259.5t-335 95.5q-145 0 -291 -57t-263.5 -153t-205 -229.5t-121.5 -279.5q-36 -147 -8 -276.5t99.5 -225.5t190 -151.5t263.5 -55.5zM748 -14q-166 0 -288.5 81.5t-172 222t-11.5 306.5q38 165 150.5 304t270.5 219.5t323 80.5
q125 0 227.5 -48t164 -131t86 -194.5t-6.5 -238.5q-38 -164 -150.5 -302.5t-270 -219t-322.5 -80.5zM748 18q157 0 307.5 77.5t258.5 210.5t144 290q36 156 -9.5 287.5t-159 207.5t-269.5 76q-157 0 -307.5 -77t-259 -210.5t-144.5 -291.5q-36 -156 9.5 -287t159.5 -207
t270 -76zM821 133q-223 0 -328.5 126t-58.5 337q46 196 209.5 325.5t366.5 129.5q95 0 174.5 -30.5t120.5 -82.5l-43 -180l-31 -4q-3 5 -8.5 13t-26.5 28t-47.5 35.5t-72.5 28.5t-99 13q-117 0 -220.5 -83.5t-129.5 -200.5q-28 -123 35.5 -200t193.5 -77q84 0 160.5 21.5
t111.5 43.5l35 21l27 -18l-37 -160q-63 -43 -158.5 -64.5t-173.5 -21.5zM821 166q74 0 158.5 18t144.5 56l25 110q-120 -71 -293 -71q-146 0 -219.5 89.5t-42.5 227.5q29 127 142 218t241 91q167 0 260 -104l31 129q-39 40 -107.5 64t-150.5 24q-192 0 -346 -122t-197 -308
q-44 -194 51.5 -308t302.5 -114z" />
    <glyph glyph-name="ordfeminine" unicode="&#xaa;" horiz-adv-x="792" 
d="M385 487q-127 0 -213 87.5t-86 216.5q0 130 85.5 217.5t213.5 87.5q83 0 133 -41v24h189l-2 -575h-189v24q-47 -41 -131 -41zM385 520q48 0 85.5 17t49.5 45l31 -7l-2 -38h123l2 510h-123v-35l-31 -6q-12 25 -50 41t-85 16q-114 0 -190 -77.5t-76 -194.5
q0 -116 76 -193.5t190 -77.5zM393 635q-63 0 -106 46t-43 112t43 110.5t106 44.5q68 0 111 -43t43 -112q0 -70 -43 -114t-111 -44zM393 668q55 0 88 34t33 91q0 55 -33.5 88.5t-87.5 33.5q-50 0 -83.5 -35t-33.5 -87q0 -53 34 -89t83 -36z" />
    <glyph glyph-name="guillemotleft" unicode="&#xab;" horiz-adv-x="1032" 
d="M236 106l-179 439l369 409h287l-377 -417l176 -431h-276zM625 106l-179 439l369 409h287l-377 -417l176 -431h-276zM256 139h207l-164 406l340 377h-197l-348 -385zM645 139h207l-164 406l340 377h-197l-348 -385z" />
    <glyph glyph-name="logicalnot" unicode="&#xac;" horiz-adv-x="1110" 
d="M672 186l69 299h-665l55 242h938l-125 -541h-272zM713 219h207l108 475h-872l-39 -176h665z" />
    <glyph glyph-name="uni00AD" unicode="&#xad;" horiz-adv-x="1228" 
d="M119 483l55 242h795l-56 -242h-794zM160 516h729l39 176h-729z" />
    <glyph glyph-name="registered" unicode="&#xae;" horiz-adv-x="1738" 
d="M1051 1339q123 0 229.5 -38.5t182 -107t125 -162.5t59 -206t-16.5 -237q-46 -202 -185 -372.5t-333 -270t-397 -99.5q-122 0 -228 38.5t-181.5 106.5t-125 162t-59 206t15.5 237q35 152 126 289.5t213 237t273 158t302 58.5zM1597 596q45 192 -12 356t-199 259.5
t-335 95.5q-145 0 -291 -57t-263.5 -153t-205 -229.5t-121.5 -279.5q-36 -147 -8 -276.5t99.5 -225.5t190 -151.5t263.5 -55.5q195 0 382.5 96t321.5 261.5t178 359.5zM1020 1200q125 0 227.5 -48t164 -131t86 -194.5t-6.5 -238.5q-38 -164 -150.5 -302.5t-270 -219
t-322.5 -80.5q-166 0 -288.5 81.5t-172 222t-11.5 306.5q38 165 150.5 304t270.5 219.5t323 80.5zM1458 596q36 156 -9.5 287.5t-159 207.5t-269.5 76q-157 0 -307.5 -77t-259 -210.5t-144.5 -291.5q-36 -156 9.5 -287t159.5 -207t270 -76q216 0 411 142h-164l-94 280h-233
l-66 -280h-190l198 858h402q175 0 244.5 -72.5t37.5 -220.5q-19 -79 -74 -142.5t-139 -99.5l113 -297q98 79 167.5 185.5t96.5 224.5zM1155 193l-115 309q88 32 145.5 92.5t76.5 138.5q29 131 -31 191.5t-219 60.5h-377l-182 -792h125l65 280h283l94 -280h135zM1130 725
q-19 -77 -72 -113.5t-145 -36.5h-247l71 304h240q97 0 134.5 -37.5t18.5 -116.5zM913 608q82 0 126 29.5t59 95.5q14 63 -12.5 88t-108.5 25h-215l-55 -238h206z" />
    <glyph glyph-name="macron" unicode="&#xaf;" horiz-adv-x="608" 
d="M162 1214l51 218h600l-51 -218h-600zM203 1247h534l35 152h-534z" />
    <glyph glyph-name="degree" unicode="&#xb0;" horiz-adv-x="651" 
d="M420 920q-119 0 -185 85t-38 203q28 119 129.5 202t218.5 83q120 0 186.5 -86.5t38.5 -206.5q-28 -117 -130 -198.5t-220 -81.5zM420 952q106 0 199 75t118 181q25 104 -31.5 178t-160.5 74q-105 0 -198 -76.5t-118 -183.5q-25 -102 31.5 -175t159.5 -73zM449 1049
q-65 0 -100.5 46.5t-22.5 112.5q15 65 70 110.5t118 45.5q66 0 104 -49t23 -115q-13 -61 -70 -106t-122 -45zM449 1081q54 0 101 38t58 89q12 51 -15.5 87t-78.5 36t-97.5 -38.5t-58.5 -92.5q-10 -49 16.5 -84t74.5 -35z" />
    <glyph glyph-name="plusminus" unicode="&#xb1;" horiz-adv-x="1110" 
d="M385 391l49 213h-332l58 244h332l53 227h272l-53 -227h334l-58 -244h-333l-50 -213h-272zM426 424h207l49 213h334l41 178h-334l53 227h-207l-53 -227h-332l-41 -178h332zM-41 -16l57 241h938l-57 -241h-938zM0 16h872l41 177h-872z" />
    <glyph glyph-name="uni00B2" unicode="&#xb2;" horiz-adv-x="653" 
d="M92 733l283 268q-64 25 -94 85.5t-15 134.5q23 94 108.5 160.5t182.5 66.5q100 0 155.5 -70.5t32.5 -165.5q-15 -78 -88 -145l-180 -166h193l-39 -168h-539zM174 766h432l23 102h-238l246 224q64 61 76 129q20 80 -25.5 137t-130.5 57q-86 0 -162 -60t-96 -143
q-17 -75 23 -131.5t118 -62.5zM487 1120q-42 0 -64 29t-13 72q9 40 41.5 66t72.5 26q41 0 64 -30t14 -71q-9 -38 -42 -65t-73 -27zM487 1153q28 0 52 20t30 48q6 25 -7 42t-38 17q-28 0 -52 -19.5t-30 -48.5q-6 -26 6.5 -42.5t38.5 -16.5z" />
    <glyph glyph-name="uni00B3" unicode="&#xb3;" horiz-adv-x="610" 
d="M352 717q-103 0 -159 74t-27 176h178q-15 -37 -3.5 -59.5t42.5 -22.5q28 0 52 19.5t30 47.5q6 25 -7 42.5t-38 17.5h-86l147 229h-223l39 168h457l-185 -283q103 -52 72 -182q-22 -94 -106.5 -160.5t-182.5 -66.5zM352 750q86 0 161.5 59.5t94.5 142.5q31 132 -90 156
l174 268h-370l-23 -102h244l-148 -230h25q41 0 64 -29.5t14 -70.5q-9 -38 -42 -65t-73 -27q-38 0 -60 23t-20 59h-110q-12 -79 33 -131.5t126 -52.5z" />
    <glyph glyph-name="acute" unicode="&#xb4;" horiz-adv-x="538" 
d="M311 1184l379 383h324l-451 -383h-252zM389 1217h162l373 317h-222z" />
    <glyph glyph-name="uni00B5" unicode="&#xb5;" horiz-adv-x="1386" 
d="M-123 -459l356 1534h254l-161 -704v2q-15 -95 35 -145t159 -50q61 0 111 16t80.5 38.5t53.5 53.5t33 55.5t17 49.5l8 35l152 649h254l-152 -657q-23 -95 -19 -132q9 -85 127 -103q41 -6 97 -5l-53 -227q-47 0 -73.5 1t-72.5 4t-76 12t-65.5 23.5t-61.5 39t-44 57.5
q-139 -137 -361 -137q-146 0 -235 53l-109 -463h-254zM-82 -426h188l113 485q81 -75 256 -75q233 0 371 163q10 -33 27.5 -58.5t37 -42.5t48.5 -29t54.5 -18t62 -9.5t63 -4.5t65.5 -1l37 161q-54 2 -94 11.5t-63.5 25t-38 36t-18.5 44t-3 48.5t6 50.5t10 49.5q3 11 4 16
l144 616h-189l-143 -624l-8 -35q-6 -27 -18 -54t-37.5 -61.5t-60 -60.5t-90 -44t-122.5 -18q-124 0 -184 61.5t-43 170.5v2l153 663h-188z" />
    <glyph glyph-name="paragraph" unicode="&#xb6;" horiz-adv-x="1353" 
d="M412 -16l127 551q-212 6 -310 119.5t-55 303.5q47 207 203 328t377 121h635l-330 -1423h-254l274 1181h-139l-274 -1181h-254zM453 16h188l274 1182h205l-274 -1182h188l314 1358h-594q-210 0 -356.5 -113.5t-190.5 -310.5q-43 -184 56.5 -286t316.5 -97z" />
    <glyph glyph-name="periodcentered" unicode="&#xb7;" horiz-adv-x="655" 
d="M332 528q-78 0 -119.5 53.5t-24.5 131.5q17 74 81 125t139 51t116.5 -54.5t24.5 -129.5q-17 -74 -79.5 -125.5t-137.5 -51.5zM332 561q63 0 116.5 44.5t67.5 107.5q14 60 -17 101.5t-91 41.5q-63 0 -118.5 -44t-68.5 -107q-14 -63 17 -103.5t94 -40.5z" />
    <glyph glyph-name="cedilla" unicode="&#xb8;" horiz-adv-x="288" 
d="M-246 -459l37 152q52 -3 90.5 15t44.5 46q5 23 -16 37.5t-44 17.5l-24 3l-12 24l76 152h182l-63 -121q18 -5 34.5 -15t34.5 -26t25.5 -43t1.5 -59q-22 -89 -120 -137.5t-247 -45.5zM-205 -426q119 3 197.5 45.5t95.5 112.5q5 25 -2.5 45t-22 31t-30 19t-26.5 11l-11 2
l-10 25l49 90h-109l-57 -115q17 -3 32 -8.5t31.5 -16t24 -28.5t2.5 -41q-9 -35 -48.5 -59t-94.5 -27z" />
    <glyph glyph-name="uni00B9" unicode="&#xb9;" horiz-adv-x="616" 
d="M113 731l39 166h153l80 348h-154l37 164h350l-116 -512h135l-39 -166h-485zM154 764h419l23 100h-135l117 512h-285l-21 -98h154l-96 -414h-154z" />
    <glyph glyph-name="ordmasculine" unicode="&#xba;" horiz-adv-x="798" 
d="M399 492q-130 0 -221.5 88.5t-91.5 214.5q0 127 91 216t222 89q129 0 221.5 -89.5t92.5 -215.5q0 -124 -92.5 -213.5t-221.5 -89.5zM399 524q117 0 199 79t82 192q0 114 -82 193t-199 79t-198.5 -79t-81.5 -193q0 -113 81.5 -192t198.5 -79zM399 641q-66 0 -111.5 44.5
t-45.5 109.5q0 66 45.5 111.5t111.5 45.5t112 -45.5t46 -111.5q0 -64 -46 -109t-112 -45zM399 674q53 0 89 35t36 86q0 53 -36 89t-89 36q-54 0 -89.5 -35.5t-35.5 -89.5q0 -52 35.5 -86.5t89.5 -34.5z" />
    <glyph glyph-name="guillemotright" unicode="&#xbb;" horiz-adv-x="847" 
d="M-70 106l381 437l-180 411h277l182 -415l-373 -433h-287zM319 106l381 437l-180 411h277l182 -415l-373 -433h-287zM4 139h197l352 404l-166 379h-207l168 -383zM393 139h197l352 404l-166 379h-207l168 -383z" />
    <glyph glyph-name="onequarter" unicode="&#xbc;" horiz-adv-x="1304" 
d="M-55 -133l1300 1583h242l-1301 -1583h-241zM14 -100h156l1247 1517h-155zM113 731l39 166h153l80 348h-154l37 164h350l-116 -512h135l-39 -166h-485zM154 764h419l23 100h-135l117 512h-285l-21 -98h154l-96 -414h-154zM866 -16l52 223h-336l381 477h206l-239 -311h233
l-90 -389h-207zM907 16h142l73 324h-258l240 311h-125l-328 -411h307z" />
    <glyph glyph-name="onehalf" unicode="&#xbd;" horiz-adv-x="1402" 
d="M-33 -133l1301 1583h241l-1300 -1583h-242zM37 -100h156l1247 1517h-156zM113 731l39 166h153l80 348h-154l37 164h350l-116 -512h135l-39 -166h-485zM154 764h419l23 100h-135l117 512h-285l-21 -98h154l-96 -414h-154zM842 -14l282 268q-64 25 -93.5 85t-14.5 134
q23 94 108.5 160.5t182.5 66.5q100 0 155.5 -70t32.5 -165q-15 -79 -88 -146l-180 -165h192l-39 -168h-538zM924 18h432l22 103h-237l245 223q64 61 76 129q20 80 -25.5 137.5t-129.5 57.5q-86 0 -162 -60t-96 -143q-17 -76 23.5 -132.5t117.5 -62.5zM1237 373
q-43 0 -65 28.5t-13 71.5q9 40 42 66t73 26q41 0 64 -29.5t14 -70.5q-9 -38 -42 -65t-73 -27zM1237 406q28 0 52 19.5t30 47.5q6 25 -7 42t-38 17q-28 0 -52 -19t-30 -48q-6 -26 6.5 -42.5t38.5 -16.5z" />
    <glyph glyph-name="threequarters" unicode="&#xbe;" horiz-adv-x="1337" 
d="M-23 -133l1301 1583h242l-1301 -1583h-242zM47 -100h156l1247 1517h-156zM395 678q-135 0 -201 71t-34 185h209q-17 -40 -1.5 -64t58.5 -24q38 0 66 21t36 55q15 66 -22.5 86.5t-140.5 -0.5l165 229h-254l39 170h506l-200 -281q65 -23 98 -83t18 -130
q-25 -106 -119 -170.5t-223 -64.5zM395 711q117 0 202.5 58.5t107.5 152.5q15 68 -26 122.5t-114 61.5l191 268h-416l-23 -104h279l-160 -219q75 3 107.5 -32.5t17.5 -105.5q-10 -46 -47 -73t-88 -27q-47 0 -73.5 24t-24.5 64h-142q-15 -86 42 -138t167 -52zM895 -14l51 223
h-336l379 477h207l-238 -311h234l-90 -389h-207zM936 18h141l74 324h-258l237 311h-124l-326 -411h307z" />
    <glyph glyph-name="questiondown" unicode="&#xbf;" horiz-adv-x="1083" 
d="M655 743q-75 0 -117.5 55t-25.5 130q19 75 81.5 125.5t137.5 50.5q78 0 119 -53t22 -131q-17 -75 -79.5 -126t-137.5 -51zM655 776q63 0 117.5 44t67.5 108q15 63 -15.5 103t-93.5 40t-117 -43.5t-69 -107.5q-14 -60 18 -102t92 -42zM514 -375q-131 -3 -228.5 57.5
t-139 167t-13.5 232.5q29 120 115.5 224.5t206.5 164.5l39 166h254l-82 -350q-92 5 -171.5 -57t-101.5 -156q-22 -93 30 -152.5t148 -52.5zM489 -342l41 178q-94 8 -143 78t-27 168q23 97 103 165t178 72l66 285h-189l-35 -158q-118 -54 -203.5 -154.5t-113.5 -217.5
q-40 -169 55 -290t268 -126z" />
    <glyph glyph-name="Agrave" unicode="&#xc0;" horiz-adv-x="1536" 
d="M874 1516l-186 382h311l115 -382h-240zM895 1548h174l-94 318h-234zM-111 -16l961 1423h235l306 -1423h-295l-58 329h-632l-216 -329h-301zM-49 16h223l215 330h678l57 -330h226l-289 1358h-195zM502 522l416 629l120 -629h-536zM563 555h434l-96 510z" />
    <glyph glyph-name="Aacute" unicode="&#xc1;" horiz-adv-x="1536" 
d="M860 1516l289 382h319l-362 -382h-246zM926 1548h168l297 318h-226zM-111 -16l961 1423h235l306 -1423h-295l-58 329h-632l-216 -329h-301zM-49 16h223l215 330h678l57 -330h226l-289 1358h-195zM502 522l416 629l120 -629h-536zM563 555h434l-96 510z" />
    <glyph glyph-name="Acircumflex" unicode="&#xc2;" horiz-adv-x="1536" 
d="M625 1516l321 382h250l150 -382h-242l-78 157l-154 -157h-247zM694 1548h166l174 183l90 -183h172l-120 318h-213zM-111 -16l961 1423h235l306 -1423h-295l-58 329h-632l-216 -329h-301zM-49 16h223l215 330h678l57 -330h226l-289 1358h-195zM502 522l416 629l120 -629
h-536zM563 555h434l-96 510z" />
    <glyph glyph-name="Atilde" unicode="&#xc3;" horiz-adv-x="1536" 
d="M1137 1505q-77 0 -144 54h-35l3 2h36l-10 4q-59 51 -86 51q-14 0 -25.5 -10.5t-17.5 -21.5t-16 -34.5t-15 -33.5l-184 71q43 117 110.5 181.5t149.5 64.5q78 0 144 -53h34l-2 -2h-37l11 -4q60 -52 86 -52q14 0 25 10.5t17 22t15.5 34.5t15.5 34l185 -72
q-43 -117 -110.5 -181.5t-149.5 -64.5zM1137 1538q65 0 122 51t97 144l-127 49q-11 -28 -19 -44t-27 -32t-44 -16q-40 0 -103 55h-35l3 2h36l-10 4q-63 49 -127 49q-65 0 -122 -50.5t-97 -143.5l127 -50q11 28 19 44t27 32.5t44 16.5q39 0 103 -56h34l-2 -2h-37l11 -4
q63 -49 127 -49zM-111 -16l961 1423h235l306 -1423h-295l-58 329h-632l-216 -329h-301zM-49 16h223l215 330h678l57 -330h226l-289 1358h-195zM502 522l416 629l120 -629h-536zM563 555h434l-96 510z" />
    <glyph glyph-name="Adieresis" unicode="&#xc4;" horiz-adv-x="1536" 
d="M788 1540q-55 0 -86.5 39.5t-19.5 93.5q12 53 58 90t100 37t84 -39.5t18 -95.5q-12 -52 -56.5 -88.5t-97.5 -36.5zM1182 1540q-55 0 -87 39.5t-20 93.5q12 53 58 90t100 37t84 -39.5t18 -95.5q-12 -53 -56.5 -89t-96.5 -36zM788 1573q40 0 76 29.5t45 70.5q9 40 -11 67
t-58 27q-41 0 -78.5 -30.5t-46.5 -71.5q-9 -38 12 -65t61 -27zM1182 1573q40 0 76 29.5t45 70.5q9 40 -11.5 67t-58.5 27q-41 0 -78.5 -30.5t-46.5 -71.5q-9 -38 12.5 -65t61.5 -27zM-111 -16l961 1423h235l306 -1423h-295l-58 329h-632l-216 -329h-301zM-49 16h223l215 330
h678l57 -330h226l-289 1358h-195zM502 522l416 629l120 -629h-536zM563 555h434l-96 510z" />
    <glyph glyph-name="Aring" unicode="&#xc5;" horiz-adv-x="1536" 
d="M985 1505q-97 0 -147.5 66.5t-28.5 163.5q22 95 101 160t173 65q95 0 148 -68.5t31 -165.5q-22 -92 -102.5 -156.5t-174.5 -64.5zM985 1538q83 0 154 57.5t90 139.5q19 81 -23.5 136.5t-122.5 55.5q-83 0 -152.5 -58t-88.5 -143q-19 -80 22.5 -134t120.5 -54zM1020 1653
q-34 0 -52.5 24t-11.5 58t34 55.5t59 21.5q34 0 53 -25.5t12 -60.5q-8 -31 -35 -52t-59 -21zM1020 1686q20 0 38.5 14.5t22.5 34.5t-4.5 32.5t-27.5 12.5q-21 0 -38.5 -15.5t-21.5 -38.5q-4 -19 4 -29.5t27 -10.5zM-111 -16l961 1423h235l306 -1423h-295l-58 329h-632
l-216 -329h-301zM-49 16h223l215 330h678l57 -330h226l-289 1358h-195zM502 522l416 629l120 -629h-536zM563 555h434l-96 510z" />
    <glyph glyph-name="AE" unicode="&#xc6;" horiz-adv-x="2136" 
d="M-160 -16l1334 1423h1067l-56 -242h-794l-70 -303h633l-58 -241h-630l-90 -396h804l-57 -241h-1061l76 329h-469l-307 -329h-322zM-86 16h236l307 330h522l-76 -330h995l41 177h-804l106 460h631l41 176h-633l86 369h795l39 176h-1014zM623 522l530 568l-133 -568h-397z
M696 555h299l97 424z" />
    <glyph glyph-name="Ccedilla" unicode="&#xc7;" horiz-adv-x="1441" 
d="M498 -449l37 152q52 -3 90.5 15t44.5 46q5 23 -16 37.5t-44 17.5l-24 3l-13 24l58 111q-194 20 -328.5 122.5t-184.5 265.5t-3 355q34 156 125 294t217.5 236.5t286 155t323.5 54.5q161 0 269.5 -40.5t170.5 -92.5l-57 -246h-33q-1 5 -19.5 19.5t-55 34.5t-82 38.5
t-110.5 31.5t-132 13q-234 0 -410 -140t-229 -366q-52 -224 58 -359.5t343 -135.5q155 0 304.5 47.5t246.5 130.5l-67 -293q-2 0 -22 -11t-58 -28t-88.5 -35t-127 -33t-159.5 -20l-41 -78q18 -5 34.5 -15t34.5 -26t25.5 -43t1.5 -59q-22 -89 -120 -137.5t-246 -45.5z
M539 -416q119 3 197 45.5t95 112.5q5 25 -2.5 45t-22 31t-30 19t-26.5 11l-11 2l-10 25l59 113q242 11 447 116l45 193q-103 -63 -234.5 -98t-265.5 -35q-249 0 -369 148.5t-65 387.5q56 237 241.5 384t430.5 147q132 0 239 -42.5t166 -90.5l47 196q-151 113 -403 113
q-159 2 -312.5 -52.5t-276 -149.5t-211 -228.5t-120.5 -284.5q-46 -190 6.5 -348.5t191.5 -253.5t337 -104l-70 -136q17 -3 32 -8.5t31.5 -16t24 -28.5t2.5 -41q-9 -35 -48.5 -59t-94.5 -27z" />
    <glyph glyph-name="Egrave" unicode="&#xc8;" horiz-adv-x="1314" 
d="M772 1516l-186 382h311l115 -382h-240zM793 1548h174l-95 318h-233zM41 -16l330 1423h1048l-55 -242h-795l-69 -303h633l-58 -241h-631l-90 -396h805l-57 -241h-1061zM82 16h995l41 177h-805l107 460h631l41 176h-633l86 369h794l39 176h-983z" />
    <glyph glyph-name="Eacute" unicode="&#xc9;" horiz-adv-x="1314" 
d="M758 1516l289 382h319l-362 -382h-246zM823 1548h168l297 318h-225zM41 -16l330 1423h1048l-55 -242h-795l-69 -303h633l-58 -241h-631l-90 -396h805l-57 -241h-1061zM82 16h995l41 177h-805l107 460h631l41 176h-633l86 369h794l39 176h-983z" />
    <glyph glyph-name="Ecircumflex" unicode="&#xca;" horiz-adv-x="1314" 
d="M522 1516l322 382h250l149 -382h-242l-77 157l-154 -157h-248zM592 1548h166l174 183l90 -183h172l-121 318h-213zM41 -16l330 1423h1048l-55 -242h-795l-69 -303h633l-58 -241h-631l-90 -396h805l-57 -241h-1061zM82 16h995l41 177h-805l107 460h631l41 176h-633l86 369
h794l39 176h-983z" />
    <glyph glyph-name="Edieresis" unicode="&#xcb;" horiz-adv-x="1314" 
d="M686 1540q-55 0 -86.5 39.5t-19.5 93.5q12 53 57.5 90t99.5 37t84.5 -40t18.5 -95q-12 -52 -56.5 -88.5t-97.5 -36.5zM1079 1540q-55 0 -86.5 39.5t-19.5 93.5q12 53 57.5 90t99.5 37t84.5 -40t18.5 -95q-12 -52 -56.5 -88.5t-97.5 -36.5zM686 1573q40 0 76 29.5t45 70.5
q9 40 -11.5 67t-58.5 27q-41 0 -78.5 -30.5t-46.5 -71.5q-9 -38 12.5 -65t61.5 -27zM1079 1573q40 0 76 29.5t45 70.5q9 40 -11.5 67t-58.5 27q-41 0 -78 -30.5t-46 -71.5q-9 -38 12 -65t61 -27zM41 -16l330 1423h1048l-55 -242h-795l-69 -303h633l-58 -241h-631l-90 -396
h805l-57 -241h-1061zM82 16h995l41 177h-805l107 460h631l41 176h-633l86 369h794l39 176h-983z" />
    <glyph glyph-name="Igrave" unicode="&#xcc;" horiz-adv-x="591" 
d="M412 1516l-187 382h312l114 -382h-239zM432 1548h174l-94 318h-233zM41 -16l330 1423h256l-330 -1423h-256zM82 16h190l314 1358h-191z" />
    <glyph glyph-name="Iacute" unicode="&#xcd;" horiz-adv-x="591" 
d="M397 1516l289 382h320l-363 -382h-246zM463 1548h168l297 318h-226zM41 -16l330 1423h256l-330 -1423h-256zM82 16h190l314 1358h-191z" />
    <glyph glyph-name="Icircumflex" unicode="&#xce;" horiz-adv-x="591" 
d="M162 1516l321 382h250l150 -382h-242l-78 157l-153 -157h-248zM231 1548h166l174 183l91 -183h172l-121 318h-213zM41 -16l330 1423h256l-330 -1423h-256zM82 16h190l314 1358h-191z" />
    <glyph glyph-name="Idieresis" unicode="&#xcf;" horiz-adv-x="591" 
d="M326 1540q-55 0 -87 39.5t-20 93.5q12 53 58 90t100 37t84 -39.5t18 -95.5q-12 -53 -56.5 -89t-96.5 -36zM719 1540q-55 0 -87 39.5t-20 93.5q12 53 58 90t100 37t84 -39.5t18 -95.5q-12 -53 -56.5 -89t-96.5 -36zM326 1573q40 0 75.5 29.5t44.5 70.5q9 40 -11 67t-58 27
q-41 0 -78.5 -30.5t-46.5 -71.5q-9 -38 12.5 -65t61.5 -27zM719 1573q40 0 76 29.5t45 70.5q9 40 -11.5 67t-58.5 27q-41 0 -78.5 -30.5t-46.5 -71.5q-9 -38 12.5 -65t61.5 -27zM41 -16l330 1423h256l-330 -1423h-256zM82 16h190l314 1358h-191z" />
    <glyph glyph-name="Eth" unicode="&#xd0;" horiz-adv-x="1617" 
d="M102 -16l142 608h-264l51 217h262l139 598h516q353 0 520.5 -195.5t92.5 -519.5q-48 -209 -182.5 -370t-330 -249.5t-421.5 -88.5h-525zM143 16h484q219 0 407.5 85.5t318 241t175.5 357.5q72 308 -85.5 491t-494.5 183h-491l-140 -598h-262l-35 -151h265zM375 195
l100 430h223l35 151h-225l98 422h277q270 0 386 -131.5t60 -374.5q-64 -243 -236 -370t-434 -127h-284zM416 227h243q251 0 414 121t223 352q53 226 -52.5 345.5t-360.5 119.5h-252l-82 -356h225l-51 -217h-223z" />
    <glyph glyph-name="Ntilde" unicode="&#xd1;" horiz-adv-x="1579" 
d="M1167 1505q-76 0 -143 54h-35l2 2h37l-10 4q-59 51 -86 51q-14 0 -25.5 -10.5t-17.5 -21.5t-16 -34.5t-15 -33.5l-184 71q43 117 110.5 181.5t149.5 64.5q77 0 143 -53h35l-2 -2h-37l10 -4q60 -52 86 -52q14 0 25.5 10.5t17.5 22t16 34.5t15 34l184 -72
q-43 -117 -110.5 -181.5t-149.5 -64.5zM1167 1538q65 0 122 51t97 144l-126 49q-11 -27 -19.5 -43.5t-27.5 -32.5t-44 -16q-39 0 -102 55h-35l2 2h37l-10 4q-63 49 -127 49q-65 0 -122 -50.5t-97 -143.5l127 -50q11 28 19 44t27 32.5t44 16.5q38 0 102 -56h35l-2 -2h-37
l10 -4q63 -49 127 -49zM41 -16l330 1423h278l475 -1010l236 1010h254l-330 -1423h-270l-479 1028l-240 -1028h-254zM82 16h188l252 1094l512 -1094h226l313 1358h-189l-247 -1075l-508 1075h-234z" />
    <glyph glyph-name="Ograve" unicode="&#xd2;" horiz-adv-x="1644" 
d="M938 1516l-186 382h311l115 -382h-240zM958 1548h175l-95 318h-233zM692 -47q-125 -2 -232.5 35t-183 104.5t-124.5 161.5t-57 206.5t20 239.5q44 206 181.5 377t331.5 268.5t400 94.5q208 3 359.5 -96.5t211 -272.5t9.5 -379q-33 -153 -122.5 -291t-212 -237t-275 -156
t-306.5 -55zM692 -14q197 -3 385.5 91.5t322 260t175.5 362.5q48 195 -8 359t-199 257.5t-340 90.5q-149 2 -295.5 -53t-264 -150.5t-203.5 -229t-118 -282.5q-48 -196 7 -359.5t197.5 -256.5t340.5 -90zM741 164q-151 0 -254 68.5t-141 190.5t-2 277q54 232 232.5 381.5
t402.5 149.5q228 0 339.5 -152t57.5 -387q-54 -233 -231 -380.5t-404 -147.5zM741 197q216 0 383.5 139.5t218.5 363.5q52 220 -50 359t-314 139q-213 0 -382 -142t-220 -364q-51 -220 50.5 -357.5t313.5 -137.5z" />
    <glyph glyph-name="Oacute" unicode="&#xd3;" horiz-adv-x="1644" 
d="M924 1516l288 382h320l-363 -382h-245zM989 1548h168l297 318h-225zM692 -47q-125 -2 -232.5 35t-183 104.5t-124.5 161.5t-57 206.5t20 239.5q44 206 181.5 377t331.5 268.5t400 94.5q208 3 359.5 -96.5t211 -272.5t9.5 -379q-33 -153 -122.5 -291t-212 -237t-275 -156
t-306.5 -55zM692 -14q197 -3 385.5 91.5t322 260t175.5 362.5q48 195 -8 359t-199 257.5t-340 90.5q-149 2 -295.5 -53t-264 -150.5t-203.5 -229t-118 -282.5q-48 -196 7 -359.5t197.5 -256.5t340.5 -90zM741 164q-151 0 -254 68.5t-141 190.5t-2 277q54 232 232.5 381.5
t402.5 149.5q228 0 339.5 -152t57.5 -387q-54 -233 -231 -380.5t-404 -147.5zM741 197q216 0 383.5 139.5t218.5 363.5q52 220 -50 359t-314 139q-213 0 -382 -142t-220 -364q-51 -220 50.5 -357.5t313.5 -137.5z" />
    <glyph glyph-name="Ocircumflex" unicode="&#xd4;" horiz-adv-x="1644" 
d="M688 1516l322 382h250l149 -382h-242l-77 157l-154 -157h-248zM758 1548h166l174 183l90 -183h172l-121 318h-213zM692 -47q-125 -2 -232.5 35t-183 104.5t-124.5 161.5t-57 206.5t20 239.5q44 206 181.5 377t331.5 268.5t400 94.5q208 3 359.5 -96.5t211 -272.5
t9.5 -379q-33 -153 -122.5 -291t-212 -237t-275 -156t-306.5 -55zM692 -14q197 -3 385.5 91.5t322 260t175.5 362.5q48 195 -8 359t-199 257.5t-340 90.5q-149 2 -295.5 -53t-264 -150.5t-203.5 -229t-118 -282.5q-48 -196 7 -359.5t197.5 -256.5t340.5 -90zM741 164
q-151 0 -254 68.5t-141 190.5t-2 277q54 232 232.5 381.5t402.5 149.5q228 0 339.5 -152t57.5 -387q-54 -233 -231 -380.5t-404 -147.5zM741 197q216 0 383.5 139.5t218.5 363.5q52 220 -50 359t-314 139q-213 0 -382 -142t-220 -364q-51 -220 50.5 -357.5t313.5 -137.5z
" />
    <glyph glyph-name="Otilde" unicode="&#xd5;" horiz-adv-x="1644" 
d="M1200 1505q-76 0 -143 54h-35l2 2h37l-10 4q-59 51 -86 51q-14 0 -25.5 -10.5t-17.5 -21.5t-16 -34.5t-15 -33.5l-184 71q43 117 110.5 181.5t149.5 64.5q77 0 143 -53h35l-2 -2h-37l10 -4q60 -52 86 -52q14 0 25.5 10.5t17.5 22t16 34.5t15 34l184 -72
q-43 -117 -110.5 -181.5t-149.5 -64.5zM1200 1538q65 0 122 51t97 144l-127 49q-11 -28 -19 -44t-27 -32t-44 -16q-39 0 -102 55h-35l2 2h37l-10 4q-63 49 -127 49q-65 0 -122 -50.5t-97 -143.5l126 -50q11 27 19.5 43.5t27.5 33t44 16.5q38 0 102 -56h35l-2 -2h-37l10 -4
q63 -49 127 -49zM692 -47q-125 -2 -232.5 35t-183 104.5t-124.5 161.5t-57 206.5t20 239.5q44 206 181.5 377t331.5 268.5t400 94.5q208 3 359.5 -96.5t211 -272.5t9.5 -379q-33 -153 -122.5 -291t-212 -237t-275 -156t-306.5 -55zM692 -14q197 -3 385.5 91.5t322 260
t175.5 362.5q48 195 -8 359t-199 257.5t-340 90.5q-149 2 -295.5 -53t-264 -150.5t-203.5 -229t-118 -282.5q-48 -196 7 -359.5t197.5 -256.5t340.5 -90zM741 164q-151 0 -254 68.5t-141 190.5t-2 277q54 232 232.5 381.5t402.5 149.5q228 0 339.5 -152t57.5 -387
q-54 -233 -231 -380.5t-404 -147.5zM741 197q216 0 383.5 139.5t218.5 363.5q52 220 -50 359t-314 139q-213 0 -382 -142t-220 -364q-51 -220 50.5 -357.5t313.5 -137.5z" />
    <glyph glyph-name="Odieresis" unicode="&#xd6;" horiz-adv-x="1644" 
d="M852 1540q-55 0 -87 39.5t-20 93.5q12 53 58 90t100 37t84.5 -40t18.5 -95q-12 -52 -56.5 -88.5t-97.5 -36.5zM1245 1540q-55 0 -86.5 39.5t-19.5 93.5q12 53 57.5 90t99.5 37t84.5 -40t18.5 -95q-12 -52 -56.5 -88.5t-97.5 -36.5zM852 1573q40 0 76 29.5t45 70.5
q9 40 -11.5 67t-58.5 27q-41 0 -78.5 -30.5t-46.5 -71.5q-9 -38 12.5 -65t61.5 -27zM1245 1573q40 0 76 29.5t45 70.5q9 40 -11.5 67t-58.5 27q-41 0 -78.5 -30.5t-46.5 -71.5q-9 -38 12.5 -65t61.5 -27zM692 -47q-125 -2 -232.5 35t-183 104.5t-124.5 161.5t-57 206.5
t20 239.5q44 206 181.5 377t331.5 268.5t400 94.5q208 3 359.5 -96.5t211 -272.5t9.5 -379q-33 -153 -122.5 -291t-212 -237t-275 -156t-306.5 -55zM692 -14q197 -3 385.5 91.5t322 260t175.5 362.5q48 195 -8 359t-199 257.5t-340 90.5q-149 2 -295.5 -53t-264 -150.5
t-203.5 -229t-118 -282.5q-48 -196 7 -359.5t197.5 -256.5t340.5 -90zM741 164q-151 0 -254 68.5t-141 190.5t-2 277q54 232 232.5 381.5t402.5 149.5q228 0 339.5 -152t57.5 -387q-54 -233 -231 -380.5t-404 -147.5zM741 197q216 0 383.5 139.5t218.5 363.5q52 220 -50 359
t-314 139q-213 0 -382 -142t-220 -364q-51 -220 50.5 -357.5t313.5 -137.5z" />
    <glyph glyph-name="multiply" unicode="&#xd7;" horiz-adv-x="1386" 
d="M322 205l-136 174l383 311l-239 311l209 170l239 -311l383 311l135 -174l-383 -311l240 -311l-209 -170l-239 311zM326 250l383 311l239 -311l160 129l-240 311l383 311l-94 125l-383 -311l-239 311l-160 -129l239 -311l-383 -311z" />
    <glyph glyph-name="Oslash" unicode="&#xd8;" horiz-adv-x="1644" 
d="M692 -47q-259 -3 -426 147l-194 -149l-144 184l205 160q-72 185 -18 405q44 206 181.5 377t331.5 268.5t400 94.5q250 3 418 -142l207 160l143 -184l-213 -164q82 -193 25 -418q-33 -153 -122.5 -291t-212 -237t-275 -156t-306.5 -55zM692 -14q197 -3 385.5 91.5t322 260
t175.5 362.5q59 232 -33 418l209 160l-102 135l-203 -156q-165 153 -418 150q-149 2 -295.5 -53t-264 -150.5t-203.5 -229t-118 -282.5q-56 -223 27 -409l-201 -152l103 -135l194 149q153 -162 422 -159zM350 416q-41 127 -6 284q54 232 232.5 381.5t402.5 149.5
q185 0 297 -103zM369 473l854 655q-95 70 -244 70q-213 0 -382 -142t-220 -364q-26 -115 -8 -219zM741 164q-196 0 -303 110l930 711q46 -126 8 -293q-54 -233 -231 -380.5t-404 -147.5zM741 197q216 0 383.5 139.5t218.5 363.5q31 129 7 230l-861 -658q96 -75 252 -75z" />
    <glyph glyph-name="Ugrave" unicode="&#xd9;" horiz-adv-x="1445" 
d="M838 1516l-187 382h312l114 -382h-239zM858 1548h174l-94 318h-233zM594 -47q-283 0 -402 151.5t-55 430.5l203 872h256l-201 -877q-37 -157 28 -243t220 -86q170 0 271 83t141 255l200 868h256l-202 -881q-65 -277 -249.5 -425t-465.5 -148zM594 -14q268 0 444 141.5
t238 407.5l194 839h-190l-193 -844q-43 -183 -152.5 -272.5t-291.5 -89.5q-170 0 -245.5 99t-35.5 272l193 835h-190l-195 -848q-61 -262 48 -401t376 -139z" />
    <glyph glyph-name="Uacute" unicode="&#xda;" horiz-adv-x="1445" 
d="M823 1516l289 382h320l-363 -382h-246zM889 1548h168l297 318h-226zM594 -47q-283 0 -402 151.5t-55 430.5l203 872h256l-201 -877q-37 -157 28 -243t220 -86q170 0 271 83t141 255l200 868h256l-202 -881q-65 -277 -249.5 -425t-465.5 -148zM594 -14q268 0 444 141.5
t238 407.5l194 839h-190l-193 -844q-43 -183 -152.5 -272.5t-291.5 -89.5q-170 0 -245.5 99t-35.5 272l193 835h-190l-195 -848q-61 -262 48 -401t376 -139z" />
    <glyph glyph-name="Ucircumflex" unicode="&#xdb;" horiz-adv-x="1445" 
d="M588 1516l321 382h250l150 -382h-242l-78 157l-153 -157h-248zM657 1548h166l174 183l90 -183h173l-121 318h-213zM594 -47q-283 0 -402 151.5t-55 430.5l203 872h256l-201 -877q-37 -157 28 -243t220 -86q170 0 271 83t141 255l200 868h256l-202 -881
q-65 -277 -249.5 -425t-465.5 -148zM594 -14q268 0 444 141.5t238 407.5l194 839h-190l-193 -844q-43 -183 -152.5 -272.5t-291.5 -89.5q-170 0 -245.5 99t-35.5 272l193 835h-190l-195 -848q-61 -262 48 -401t376 -139z" />
    <glyph glyph-name="Udieresis" unicode="&#xdc;" horiz-adv-x="1445" 
d="M752 1540q-55 0 -87 39.5t-20 93.5q12 53 58 90t100 37t84 -39.5t18 -95.5q-12 -53 -56.5 -89t-96.5 -36zM1145 1540q-55 0 -87 39.5t-20 93.5q12 53 58 90t100 37t84 -39.5t18 -95.5q-12 -53 -56.5 -89t-96.5 -36zM752 1573q40 0 75.5 29.5t44.5 70.5q9 40 -11 67
t-58 27q-41 0 -78.5 -30.5t-46.5 -71.5q-9 -38 12.5 -65t61.5 -27zM1145 1573q40 0 76 29.5t45 70.5q9 40 -11.5 67t-58.5 27q-41 0 -78.5 -30.5t-46.5 -71.5q-9 -38 12.5 -65t61.5 -27zM594 -47q-283 0 -402 151.5t-55 430.5l203 872h256l-201 -877q-37 -157 28 -243
t220 -86q170 0 271 83t141 255l200 868h256l-202 -881q-65 -277 -249.5 -425t-465.5 -148zM594 -14q268 0 444 141.5t238 407.5l194 839h-190l-193 -844q-43 -183 -152.5 -272.5t-291.5 -89.5q-170 0 -245.5 99t-35.5 272l193 835h-190l-195 -848q-61 -262 48 -401t376 -139
z" />
    <glyph glyph-name="Yacute" unicode="&#xdd;" horiz-adv-x="1384" 
d="M793 1516l288 382h320l-363 -382h-245zM858 1548h168l297 318h-225zM436 -16l144 610l-365 813h287l243 -561l502 561h332l-743 -819l-142 -604h-258zM477 16h193l137 588l698 770h-241l-527 -590l-256 590h-217l348 -776z" />
    <glyph glyph-name="Thorn" unicode="&#xde;" horiz-adv-x="1429" 
d="M41 -16l330 1423h256l-43 -184h368q259 0 374 -140.5t58 -388.5q-56 -237 -238.5 -378.5t-432.5 -141.5h-371l-45 -190h-256zM82 16h190l45 191h396q238 0 413 135t226 360q54 230 -51.5 359t-348.5 129h-409l43 184h-191zM356 379l148 635h385q337 0 266 -324
q-74 -311 -405 -311h-394zM397 412h353q305 0 372 286q32 145 -24.5 214t-208.5 69h-361z" />
    <glyph glyph-name="germandbls" unicode="&#xdf;" horiz-adv-x="1243" 
d="M559 -43q-60 0 -106 10l53 223q62 -10 98 -10q41 0 81 9.5t81.5 31t73.5 64.5t45 102q25 102 -39.5 170t-183.5 68h-56l51 219q117 -3 201 54.5t107 158.5q40 176 -152 176q-101 0 -183 -75.5t-110 -194.5l-227 -979h-252l152 649h-164l47 209h164l24 108
q54 227 213.5 361.5t376.5 134.5q212 0 303.5 -103t48.5 -292q-23 -102 -93 -181t-169 -114q123 -40 177.5 -139.5t23.5 -231.5q-46 -194 -206 -311t-380 -117zM559 -10q209 0 359.5 110t193.5 293q37 155 -52.5 255t-273.5 100v18q141 -6 249.5 77.5t138.5 215.5
q40 173 -42 263.5t-278 90.5q-205 0 -355.5 -127t-201.5 -344l-33 -133h-164l-30 -143h163l-151 -650h186l219 955q31 129 122.5 212t203.5 83t159.5 -56.5t24.5 -160.5q-25 -106 -109.5 -170.5t-205.5 -67.5l-35 -154h15q134 0 209 -80t47 -198q-15 -65 -51.5 -112.5
t-83.5 -72t-92 -36t-87 -11.5q-23 0 -74 7l-36 -160q40 -4 65 -4z" />
    <glyph glyph-name="agrave" unicode="&#xe0;" horiz-adv-x="1376" 
d="M715 1182l-187 383h312l114 -383h-239zM735 1214h174l-94 318h-233zM506 -47q-161 0 -275 75.5t-158 208t-7 295.5q37 161 141.5 292.5t251 206.5t305.5 75q96 0 179.5 -30.5t137.5 -84.5l21 84h254l-258 -1091h-254l20 84q-162 -115 -358 -115zM506 -14q237 0 416 170
l-37 -140h188l242 1026h-189l-30 -127q-38 72 -128 115t-204 43q-229 0 -420.5 -158t-245.5 -391q-35 -151 5.5 -274.5t146.5 -193.5t256 -70zM567 150q-155 0 -236 111.5t-44 273.5q37 158 166.5 266t281.5 108q164 0 243.5 -106.5t41.5 -276.5q-38 -168 -164 -272
t-289 -104zM567 182q152 0 268.5 97.5t151.5 255.5q37 154 -33 248t-219 94q-141 0 -261.5 -101.5t-154.5 -249.5q-34 -145 38 -244.5t210 -99.5z" />
    <glyph glyph-name="aacute" unicode="&#xe1;" horiz-adv-x="1376" 
d="M700 1182l289 383h320l-363 -383h-246zM766 1214h168l297 318h-225zM506 -47q-161 0 -275 75.5t-158 208t-7 295.5q37 161 141.5 292.5t251 206.5t305.5 75q96 0 179.5 -30.5t137.5 -84.5l21 84h254l-258 -1091h-254l20 84q-162 -115 -358 -115zM506 -14q237 0 416 170
l-37 -140h188l242 1026h-189l-30 -127q-38 72 -128 115t-204 43q-229 0 -420.5 -158t-245.5 -391q-35 -151 5.5 -274.5t146.5 -193.5t256 -70zM567 150q-155 0 -236 111.5t-44 273.5q37 158 166.5 266t281.5 108q164 0 243.5 -106.5t41.5 -276.5q-38 -168 -164 -272
t-289 -104zM567 182q152 0 268.5 97.5t151.5 255.5q37 154 -33 248t-219 94q-141 0 -261.5 -101.5t-154.5 -249.5q-34 -145 38 -244.5t210 -99.5z" />
    <glyph glyph-name="acircumflex" unicode="&#xe2;" horiz-adv-x="1376" 
d="M465 1182l321 383h250l150 -383h-242l-78 157l-153 -157h-248zM535 1214h165l174 183l91 -183h172l-121 318h-213zM506 -47q-161 0 -275 75.5t-158 208t-7 295.5q37 161 141.5 292.5t251 206.5t305.5 75q96 0 179.5 -30.5t137.5 -84.5l21 84h254l-258 -1091h-254l20 84
q-162 -115 -358 -115zM506 -14q237 0 416 170l-37 -140h188l242 1026h-189l-30 -127q-38 72 -128 115t-204 43q-229 0 -420.5 -158t-245.5 -391q-35 -151 5.5 -274.5t146.5 -193.5t256 -70zM567 150q-155 0 -236 111.5t-44 273.5q37 158 166.5 266t281.5 108
q164 0 243.5 -106.5t41.5 -276.5q-38 -168 -164 -272t-289 -104zM567 182q152 0 268.5 97.5t151.5 255.5q37 154 -33 248t-219 94q-141 0 -261.5 -101.5t-154.5 -249.5q-34 -145 38 -244.5t210 -99.5z" />
    <glyph glyph-name="atilde" unicode="&#xe3;" horiz-adv-x="1376" 
d="M977 1171q-76 0 -143 54h-35l2 2h37l-11 4q-59 51 -86 51q-14 0 -25 -10.5t-17 -22t-15.5 -34t-15.5 -33.5l-185 71q43 117 110.5 181.5t149.5 64.5q78 0 144 -53h35l-2 -2h-37l10 -4q59 -51 86 -51q14 0 25.5 10.5t17.5 21.5t16 34.5t15 33.5l184 -72
q-43 -117 -110.5 -181.5t-149.5 -64.5zM977 1204q65 0 122 51t97 144l-127 49q-11 -28 -19 -44t-27 -32t-44 -16q-39 0 -102 55h-35l2 2h37l-11 4q-63 49 -127 49q-65 0 -122 -50.5t-97 -143.5l127 -49q11 28 19 44t27 32t44 16q40 0 103 -55h35l-2 -3h-37l10 -4
q63 -49 127 -49zM506 -47q-161 0 -275 75.5t-158 208t-7 295.5q37 161 141.5 292.5t251 206.5t305.5 75q96 0 179.5 -30.5t137.5 -84.5l21 84h254l-258 -1091h-254l20 84q-162 -115 -358 -115zM506 -14q237 0 416 170l-37 -140h188l242 1026h-189l-30 -127q-38 72 -128 115
t-204 43q-229 0 -420.5 -158t-245.5 -391q-35 -151 5.5 -274.5t146.5 -193.5t256 -70zM567 150q-155 0 -236 111.5t-44 273.5q37 158 166.5 266t281.5 108q164 0 243.5 -106.5t41.5 -276.5q-38 -168 -164 -272t-289 -104zM567 182q152 0 268.5 97.5t151.5 255.5
q37 154 -33 248t-219 94q-141 0 -261.5 -101.5t-154.5 -249.5q-34 -145 38 -244.5t210 -99.5z" />
    <glyph glyph-name="adieresis" unicode="&#xe4;" horiz-adv-x="1376" 
d="M629 1206q-55 0 -87 39.5t-20 93.5q12 53 58 90t100 37t84 -39.5t18 -95.5q-12 -53 -56.5 -89t-96.5 -36zM1022 1206q-55 0 -87 39.5t-20 93.5q12 53 58 90t100 37t84.5 -40t18.5 -95q-12 -52 -56.5 -88.5t-97.5 -36.5zM629 1239q40 0 76 29.5t45 70.5q9 40 -11.5 67.5
t-58.5 27.5q-41 0 -78.5 -31t-46.5 -72q-9 -38 12.5 -65t61.5 -27zM1022 1239q40 0 76 29.5t45 70.5q9 40 -11.5 67.5t-58.5 27.5q-41 0 -78.5 -31t-46.5 -72q-9 -38 12.5 -65t61.5 -27zM506 -47q-161 0 -275 75.5t-158 208t-7 295.5q37 161 141.5 292.5t251 206.5t305.5 75
q96 0 179.5 -30.5t137.5 -84.5l21 84h254l-258 -1091h-254l20 84q-162 -115 -358 -115zM506 -14q237 0 416 170l-37 -140h188l242 1026h-189l-30 -127q-38 72 -128 115t-204 43q-229 0 -420.5 -158t-245.5 -391q-35 -151 5.5 -274.5t146.5 -193.5t256 -70zM567 150
q-155 0 -236 111.5t-44 273.5q37 158 166.5 266t281.5 108q164 0 243.5 -106.5t41.5 -276.5q-38 -168 -164 -272t-289 -104zM567 182q152 0 268.5 97.5t151.5 255.5q37 154 -33 248t-219 94q-141 0 -261.5 -101.5t-154.5 -249.5q-34 -145 38 -244.5t210 -99.5z" />
    <glyph glyph-name="aring" unicode="&#xe5;" horiz-adv-x="1376" 
d="M825 1171q-97 0 -147.5 66.5t-28.5 163.5q22 95 101.5 160t173.5 65q95 0 147.5 -68t30.5 -165q-22 -92 -102.5 -157t-174.5 -65zM825 1204q83 0 154 57.5t90 139.5t-23 137t-122 55q-83 0 -153 -57.5t-89 -142.5q-19 -80 22.5 -134.5t120.5 -54.5zM860 1319
q-34 0 -52.5 24t-10.5 58q7 34 33.5 56t58.5 22q34 0 53 -25.5t12 -60.5q-8 -31 -35 -52.5t-59 -21.5zM860 1352q20 0 39 14.5t23 34.5t-5 32.5t-28 12.5q-21 0 -38.5 -15t-21.5 -38q-5 -19 3.5 -30t27.5 -11zM506 -47q-161 0 -275 75.5t-158 208t-7 295.5
q37 161 141.5 292.5t251 206.5t305.5 75q96 0 179.5 -30.5t137.5 -84.5l21 84h254l-258 -1091h-254l20 84q-162 -115 -358 -115zM506 -14q237 0 416 170l-37 -140h188l242 1026h-189l-30 -127q-38 72 -128 115t-204 43q-229 0 -420.5 -158t-245.5 -391q-35 -151 5.5 -274.5
t146.5 -193.5t256 -70zM567 150q-155 0 -236 111.5t-44 273.5q37 158 166.5 266t281.5 108q164 0 243.5 -106.5t41.5 -276.5q-38 -168 -164 -272t-289 -104zM567 182q152 0 268.5 97.5t151.5 255.5q37 154 -33 248t-219 94q-141 0 -261.5 -101.5t-154.5 -249.5
q-34 -145 38 -244.5t210 -99.5z" />
    <glyph glyph-name="ae" unicode="&#xe6;" horiz-adv-x="1992" 
d="M391 -47q-201 0 -306 105.5t-67 271.5q40 166 189.5 269t349.5 103q182 0 307 -61v6q26 116 -32.5 174t-204.5 58q-193 0 -381 -91l55 244q166 76 395 76q305 0 400 -170q208 168 458 168q142 0 242.5 -70t139 -192t3.5 -269l-28 -114h-834l-8 -35q6 -118 81 -181
t210 -63q51 0 103.5 6t94.5 16t81 22t68 23.5t51 21.5t34 16l12 6l17 -21l-45 -198l-7 -8q-6 -5 -17.5 -12.5t-53 -27t-90 -34.5t-129 -27t-168.5 -12q-145 0 -253 49.5t-169 144.5q-87 -95 -215.5 -144.5t-282.5 -49.5zM391 -14q161 0 290.5 56t211.5 161
q52 -106 159.5 -161.5t258.5 -55.5q94 0 175.5 12.5t135 32.5t79.5 32.5t44 24.5l35 158q-39 -20 -89 -38.5t-143.5 -38t-187.5 -19.5q-149 0 -234.5 73.5t-89.5 206.5l13 64h837l21 90q33 138 -1.5 250t-127 175.5t-224.5 63.5q-127 0 -248.5 -48t-222.5 -138
q-71 188 -387 188q-220 0 -366 -67l-39 -164q162 67 336 67q161 0 230 -70t40 -202l-12 -49q-54 37 -142 58.5t-186 21.5q-189 0 -330 -97t-176 -251q-35 -149 59.5 -242.5t280.5 -93.5zM1081 633q5 23 21.5 56t51 75.5t79 77.5t111 59.5t141.5 24.5q62 0 109.5 -16.5
t74 -44t43 -58.5t21 -66.5t4.5 -60.5t-4 -47h-652zM1128 666h576q2 29 -0.5 56t-15.5 59.5t-35.5 56t-65.5 39.5t-102 16q-72 0 -135 -22.5t-106 -59.5t-70.5 -72.5t-45.5 -72.5zM473 133q-129 0 -195.5 54t-46.5 143q20 88 108 140t216 52q149 0 219.5 -52.5t48.5 -147.5
q-22 -91 -113 -140t-237 -49zM473 166q134 0 216.5 43t101.5 121q19 77 -42 118t-194 41q-117 0 -195.5 -45t-95.5 -122q-17 -72 39.5 -114t169.5 -42z" />
    <glyph glyph-name="ccedilla" unicode="&#xe7;" horiz-adv-x="1132" 
d="M319 -449l37 152q52 -3 91 15t45 46q5 23 -16 37.5t-44 17.5l-24 3l-13 24l58 113q-232 29 -337 185.5t-50 390.5q37 162 144.5 292.5t260 204.5t320.5 74q120 0 218.5 -37t149.5 -102l-55 -236l-31 -4q-3 6 -10.5 16.5t-35 36.5t-61.5 46t-93.5 36.5t-127.5 16.5
q-148 0 -273 -102t-159 -251q-37 -158 40.5 -252t244.5 -94q108 0 206 27.5t142 54.5l45 27l27 -19l-49 -211q-125 -85 -336 -104l-43 -78q18 -5 34.5 -15t34.5 -26t25.5 -43t1.5 -59q-22 -89 -120 -137.5t-247 -45.5zM360 -416q119 3 197.5 45.5t95.5 112.5q5 25 -2.5 45
t-22 31t-30 19t-26.5 11l-11 2l-10 25l61 113q202 13 328 92l37 160q-166 -93 -379 -93q-183 0 -270 107t-47 281q38 160 171 268t293 108q214 0 334 -137l43 184q-47 54 -136 84.5t-195 30.5q-160 0 -306 -71t-249 -196.5t-138 -279.5q-56 -232 53.5 -378.5t350.5 -159.5
l-68 -138q17 -3 32 -8.5t31.5 -16t24 -28.5t2.5 -41q-9 -35 -48.5 -59t-94.5 -27z" />
    <glyph glyph-name="egrave" unicode="&#xe8;" horiz-adv-x="1220" 
d="M690 1182l-186 383h311l115 -383h-240zM711 1214h174l-94 318h-234zM539 -47q-132 0 -235 43t-164 120.5t-83 184.5t9 234q37 161 143.5 291.5t257 205t315.5 74.5q142 0 242.5 -70t139 -192t3.5 -269l-28 -114h-842q-6 -132 70.5 -205.5t220.5 -73.5q51 0 103.5 6
t94.5 16t81 22t68 23.5t51 21.5t34 16l12 6l17 -21l-45 -198l-7 -8q-6 -5 -17.5 -12.5t-53 -27t-90 -34.5t-129 -27t-168.5 -12zM539 -14q94 0 175.5 12.5t135 32.5t79.5 32.5t44 24.5l35 158q-39 -20 -89 -38.5t-143.5 -38t-187.5 -19.5q-167 0 -253 91.5t-69 252.5h848
l21 90q33 138 -1.5 250t-127 175.5t-224.5 63.5q-238 0 -434 -157t-250 -390q-55 -241 67 -390.5t374 -149.5zM309 633q5 23 21.5 56t51 75.5t79 77.5t111 59.5t141.5 24.5q62 0 109.5 -16.5t74 -44t43 -58.5t21 -66.5t4.5 -60.5t-4 -47h-652zM356 666h576q2 29 -0.5 56
t-15.5 59.5t-35.5 56t-65.5 39.5t-102 16q-72 0 -135 -22.5t-106 -59.5t-70.5 -72.5t-45.5 -72.5z" />
    <glyph glyph-name="eacute" unicode="&#xe9;" horiz-adv-x="1220" 
d="M676 1182l289 383h319l-362 -383h-246zM741 1214h168l297 318h-225zM539 -47q-132 0 -235 43t-164 120.5t-83 184.5t9 234q37 161 143.5 291.5t257 205t315.5 74.5q142 0 242.5 -70t139 -192t3.5 -269l-28 -114h-842q-6 -132 70.5 -205.5t220.5 -73.5q51 0 103.5 6
t94.5 16t81 22t68 23.5t51 21.5t34 16l12 6l17 -21l-45 -198l-7 -8q-6 -5 -17.5 -12.5t-53 -27t-90 -34.5t-129 -27t-168.5 -12zM539 -14q94 0 175.5 12.5t135 32.5t79.5 32.5t44 24.5l35 158q-39 -20 -89 -38.5t-143.5 -38t-187.5 -19.5q-167 0 -253 91.5t-69 252.5h848
l21 90q33 138 -1.5 250t-127 175.5t-224.5 63.5q-238 0 -434 -157t-250 -390q-55 -241 67 -390.5t374 -149.5zM309 633q5 23 21.5 56t51 75.5t79 77.5t111 59.5t141.5 24.5q62 0 109.5 -16.5t74 -44t43 -58.5t21 -66.5t4.5 -60.5t-4 -47h-652zM356 666h576q2 29 -0.5 56
t-15.5 59.5t-35.5 56t-65.5 39.5t-102 16q-72 0 -135 -22.5t-106 -59.5t-70.5 -72.5t-45.5 -72.5z" />
    <glyph glyph-name="ecircumflex" unicode="&#xea;" horiz-adv-x="1220" 
d="M440 1182l322 383h250l149 -383h-241l-78 157l-154 -157h-248zM510 1214h166l174 183l90 -183h172l-121 318h-213zM539 -47q-132 0 -235 43t-164 120.5t-83 184.5t9 234q37 161 143.5 291.5t257 205t315.5 74.5q142 0 242.5 -70t139 -192t3.5 -269l-28 -114h-842
q-6 -132 70.5 -205.5t220.5 -73.5q51 0 103.5 6t94.5 16t81 22t68 23.5t51 21.5t34 16l12 6l17 -21l-45 -198l-7 -8q-6 -5 -17.5 -12.5t-53 -27t-90 -34.5t-129 -27t-168.5 -12zM539 -14q94 0 175.5 12.5t135 32.5t79.5 32.5t44 24.5l35 158q-39 -20 -89 -38.5t-143.5 -38
t-187.5 -19.5q-167 0 -253 91.5t-69 252.5h848l21 90q33 138 -1.5 250t-127 175.5t-224.5 63.5q-238 0 -434 -157t-250 -390q-55 -241 67 -390.5t374 -149.5zM309 633q5 23 21.5 56t51 75.5t79 77.5t111 59.5t141.5 24.5q62 0 109.5 -16.5t74 -44t43 -58.5t21 -66.5
t4.5 -60.5t-4 -47h-652zM356 666h576q2 29 -0.5 56t-15.5 59.5t-35.5 56t-65.5 39.5t-102 16q-72 0 -135 -22.5t-106 -59.5t-70.5 -72.5t-45.5 -72.5z" />
    <glyph glyph-name="edieresis" unicode="&#xeb;" horiz-adv-x="1220" 
d="M604 1206q-55 0 -86.5 39.5t-19.5 93.5q12 53 57.5 90t99.5 37t84.5 -40t18.5 -95q-12 -52 -56.5 -88.5t-97.5 -36.5zM997 1206q-55 0 -86.5 39.5t-19.5 93.5q12 53 58 90t100 37t84 -39.5t18 -95.5q-12 -52 -56.5 -88.5t-97.5 -36.5zM604 1239q40 0 76 29.5t45 70.5
q9 40 -11.5 67.5t-58.5 27.5q-41 0 -78.5 -31t-46.5 -72q-9 -38 12.5 -65t61.5 -27zM997 1239q40 0 76 29.5t45 70.5q9 40 -11 67.5t-58 27.5q-41 0 -78.5 -31t-46.5 -72q-9 -38 12 -65t61 -27zM539 -47q-132 0 -235 43t-164 120.5t-83 184.5t9 234q37 161 143.5 291.5
t257 205t315.5 74.5q142 0 242.5 -70t139 -192t3.5 -269l-28 -114h-842q-6 -132 70.5 -205.5t220.5 -73.5q51 0 103.5 6t94.5 16t81 22t68 23.5t51 21.5t34 16l12 6l17 -21l-45 -198l-7 -8q-6 -5 -17.5 -12.5t-53 -27t-90 -34.5t-129 -27t-168.5 -12zM539 -14
q94 0 175.5 12.5t135 32.5t79.5 32.5t44 24.5l35 158q-39 -20 -89 -38.5t-143.5 -38t-187.5 -19.5q-167 0 -253 91.5t-69 252.5h848l21 90q33 138 -1.5 250t-127 175.5t-224.5 63.5q-238 0 -434 -157t-250 -390q-55 -241 67 -390.5t374 -149.5zM309 633q5 23 21.5 56
t51 75.5t79 77.5t111 59.5t141.5 24.5q62 0 109.5 -16.5t74 -44t43 -58.5t21 -66.5t4.5 -60.5t-4 -47h-652zM356 666h576q2 29 -0.5 56t-15.5 59.5t-35.5 56t-65.5 39.5t-102 16q-72 0 -135 -22.5t-106 -59.5t-70.5 -72.5t-45.5 -72.5z" />
    <glyph glyph-name="igrave" unicode="&#xec;" horiz-adv-x="561" 
d="M326 1182l-187 383h312l114 -383h-239zM346 1214h174l-94 318h-233zM33 -16l254 1091h254l-254 -1091h-254zM74 16h188l238 1026h-189z" />
    <glyph glyph-name="iacute" unicode="&#xed;" horiz-adv-x="561" 
d="M311 1182l289 383h320l-363 -383h-246zM377 1214h168l297 318h-226zM33 -16l254 1091h254l-254 -1091h-254zM74 16h188l238 1026h-189z" />
    <glyph glyph-name="icircumflex" unicode="&#xee;" horiz-adv-x="561" 
d="M76 1182l321 383h250l150 -383h-242l-78 157l-153 -157h-248zM145 1214h166l174 183l90 -183h173l-121 318h-213zM33 -16l254 1091h254l-254 -1091h-254zM74 16h188l238 1026h-189z" />
    <glyph glyph-name="idieresis" unicode="&#xef;" horiz-adv-x="561" 
d="M240 1206q-55 0 -87 39.5t-20 93.5q12 53 58 90t100 37t84 -39.5t18 -95.5q-12 -53 -56.5 -89t-96.5 -36zM633 1206q-55 0 -87 39.5t-20 93.5q12 53 58 90t100 37t84 -39.5t18 -95.5q-12 -53 -56.5 -89t-96.5 -36zM240 1239q40 0 75.5 29.5t44.5 70.5q9 40 -11 67.5
t-58 27.5q-41 0 -78.5 -31t-46.5 -72q-9 -38 12.5 -65t61.5 -27zM633 1239q40 0 76 29.5t45 70.5q9 40 -11.5 67.5t-58.5 27.5q-41 0 -78.5 -31t-46.5 -72q-9 -38 12.5 -65t61.5 -27zM33 -16l254 1091h254l-254 -1091h-254zM74 16h188l238 1026h-189z" />
    <glyph glyph-name="eth" unicode="&#xf0;" horiz-adv-x="1206" 
d="M475 -47q-243 0 -362 137.5t-68 358.5q53 220 225 354.5t402 134.5q90 0 166.5 -32t126.5 -89q-21 169 -125 254l-76 -113l-178 95l67 98q-125 25 -313 25l51 225q243 0 397 -51l68 98l174 -98l-61 -88q293 -212 178 -707q-65 -280 -244 -441t-428 -161zM475 -14
q237 0 407.5 153.5t231.5 423.5q118 495 -190 690l57 84l-117 66l-63 -94q-146 56 -385 59l-35 -160q215 -3 326 -37l-72 -106l117 -66l79 117q184 -118 166 -436q-19 101 -109.5 163t-215.5 62q-218 0 -381 -128t-213 -337q-47 -206 61.5 -330t335.5 -124zM520 150
q-142 0 -212.5 85t-39.5 220q31 129 129.5 207.5t229.5 78.5q155 0 231 -81.5t45 -213.5q-31 -126 -140.5 -211t-242.5 -85zM520 182q122 0 222 78.5t128 194.5q28 117 -38.5 185.5t-204.5 68.5q-120 0 -209 -72t-117 -191q-28 -120 32 -192t187 -72z" />
    <glyph glyph-name="ntilde" unicode="&#xf1;" horiz-adv-x="1296" 
d="M1014 1171q-77 0 -144 54h-34l2 2h36l-10 4q-59 51 -86 51q-14 0 -25 -10.5t-17 -22t-15.5 -34t-15.5 -33.5l-185 71q43 117 110.5 181.5t149.5 64.5q78 0 144 -53h34l-2 -2h-36l10 -4q59 -51 86 -51q14 0 25.5 10.5t17.5 21.5t16 34.5t15 33.5l184 -72
q-43 -117 -110.5 -181.5t-149.5 -64.5zM1014 1204q65 0 122 51t97 144l-127 49q-11 -28 -19 -44t-27 -32t-44 -16q-40 0 -103 55h-34l2 2h37l-11 4q-63 49 -127 49q-65 0 -122 -50.5t-97 -143.5l127 -49q11 28 19 44t27 32t44 16q40 0 103 -55h34l-2 -3h-36l10 -4
q63 -49 127 -49zM33 -16l254 1091h254l-21 -90q133 123 336 123q202 0 295.5 -126t46.5 -335l-156 -663h-254l150 649q28 117 -14.5 181.5t-145.5 64.5q-126 0 -222.5 -79.5t-125.5 -207.5l-143 -608h-254zM74 16h188l135 584q32 138 137.5 224.5t243.5 86.5q120 0 172 -77
t21 -209l-142 -609h189l147 639q46 193 -37.5 306.5t-271.5 113.5q-67 0 -128.5 -16.5t-96.5 -34t-69.5 -46.5t-40.5 -36.5t-17 -21.5l-31 12l27 110h-189z" />
    <glyph glyph-name="ograve" unicode="&#xf2;" horiz-adv-x="1323" 
d="M698 1182l-186 383h311l115 -383h-240zM719 1214h174l-94 318h-234zM532 -47q-98 0 -183 29.5t-145.5 82.5t-101 125.5t-48.5 158.5t12 183q36 156 146 288t264 209t315 77q163 0 283.5 -78t169.5 -212t13 -292q-36 -156 -146 -287.5t-264 -207.5t-315 -76zM532 -14
q115 0 230 43t208 116t161 174t94 213q34 147 -12 271.5t-158 197t-264 72.5q-154 0 -301.5 -73.5t-252.5 -200t-139 -275.5q-34 -147 11.5 -271t157.5 -195.5t265 -71.5zM578 152q-163 0 -249.5 110t-49.5 270q37 158 171.5 266.5t294.5 108.5q162 0 249 -111.5t50 -271.5
q-38 -157 -172.5 -264.5t-293.5 -107.5zM578 184q148 0 274 101t160 247q34 145 -43.5 243.5t-223.5 98.5q-149 0 -274.5 -101t-159.5 -249q-34 -143 43.5 -241.5t223.5 -98.5z" />
    <glyph glyph-name="oacute" unicode="&#xf3;" horiz-adv-x="1323" 
d="M684 1182l289 383h319l-362 -383h-246zM750 1214h168l296 318h-225zM532 -47q-98 0 -183 29.5t-145.5 82.5t-101 125.5t-48.5 158.5t12 183q36 156 146 288t264 209t315 77q163 0 283.5 -78t169.5 -212t13 -292q-36 -156 -146 -287.5t-264 -207.5t-315 -76zM532 -14
q115 0 230 43t208 116t161 174t94 213q34 147 -12 271.5t-158 197t-264 72.5q-154 0 -301.5 -73.5t-252.5 -200t-139 -275.5q-34 -147 11.5 -271t157.5 -195.5t265 -71.5zM578 152q-163 0 -249.5 110t-49.5 270q37 158 171.5 266.5t294.5 108.5q162 0 249 -111.5t50 -271.5
q-38 -157 -172.5 -264.5t-293.5 -107.5zM578 184q148 0 274 101t160 247q34 145 -43.5 243.5t-223.5 98.5q-149 0 -274.5 -101t-159.5 -249q-34 -143 43.5 -241.5t223.5 -98.5z" />
    <glyph glyph-name="ocircumflex" unicode="&#xf4;" horiz-adv-x="1323" 
d="M449 1182l321 383h250l149 -383h-241l-78 157l-154 -157h-247zM518 1214h166l174 183l90 -183h172l-121 318h-213zM532 -47q-98 0 -183 29.5t-145.5 82.5t-101 125.5t-48.5 158.5t12 183q36 156 146 288t264 209t315 77q163 0 283.5 -78t169.5 -212t13 -292
q-36 -156 -146 -287.5t-264 -207.5t-315 -76zM532 -14q115 0 230 43t208 116t161 174t94 213q34 147 -12 271.5t-158 197t-264 72.5q-154 0 -301.5 -73.5t-252.5 -200t-139 -275.5q-34 -147 11.5 -271t157.5 -195.5t265 -71.5zM578 152q-163 0 -249.5 110t-49.5 270
q37 158 171.5 266.5t294.5 108.5q162 0 249 -111.5t50 -271.5q-38 -157 -172.5 -264.5t-293.5 -107.5zM578 184q148 0 274 101t160 247q34 145 -43.5 243.5t-223.5 98.5q-149 0 -274.5 -101t-159.5 -249q-34 -143 43.5 -241.5t223.5 -98.5z" />
    <glyph glyph-name="otilde" unicode="&#xf5;" horiz-adv-x="1323" 
d="M961 1171q-77 0 -144 54h-35l2 2h37l-10 4q-59 51 -86 51q-14 0 -25.5 -10.5t-17.5 -21.5t-16 -34.5t-15 -33.5l-184 71q43 117 110.5 181.5t149.5 64.5q77 0 143 -53h35l-2 -2h-37l11 -4q59 -51 86 -51q14 0 25 10.5t17 22t15.5 34t15.5 33.5l185 -72
q-43 -117 -110.5 -181.5t-149.5 -64.5zM961 1204q65 0 122 51t97 144l-127 49q-11 -28 -19 -44t-27 -32t-44 -16q-40 0 -103 55h-35l2 2h37l-10 4q-63 49 -127 49q-65 0 -122 -50.5t-97 -143.5l127 -49q11 28 19 44t27 32t44 16q39 0 102 -55h35l-2 -3h-37l11 -4
q63 -49 127 -49zM532 -47q-98 0 -183 29.5t-145.5 82.5t-101 125.5t-48.5 158.5t12 183q36 156 146 288t264 209t315 77q163 0 283.5 -78t169.5 -212t13 -292q-36 -156 -146 -287.5t-264 -207.5t-315 -76zM532 -14q115 0 230 43t208 116t161 174t94 213q34 147 -12 271.5
t-158 197t-264 72.5q-154 0 -301.5 -73.5t-252.5 -200t-139 -275.5q-34 -147 11.5 -271t157.5 -195.5t265 -71.5zM578 152q-163 0 -249.5 110t-49.5 270q37 158 171.5 266.5t294.5 108.5q162 0 249 -111.5t50 -271.5q-38 -157 -172.5 -264.5t-293.5 -107.5zM578 184
q148 0 274 101t160 247q34 145 -43.5 243.5t-223.5 98.5q-149 0 -274.5 -101t-159.5 -249q-34 -143 43.5 -241.5t223.5 -98.5z" />
    <glyph glyph-name="odieresis" unicode="&#xf6;" horiz-adv-x="1323" 
d="M612 1206q-55 0 -86.5 39.5t-19.5 93.5q12 53 58 90t100 37t84 -39.5t18 -95.5q-12 -52 -56.5 -88.5t-97.5 -36.5zM1006 1206q-55 0 -87 39.5t-20 93.5q12 53 58 90t100 37t84 -39.5t18 -95.5q-12 -53 -56.5 -89t-96.5 -36zM612 1239q40 0 76 29.5t45 70.5q9 40 -11 67.5
t-58 27.5q-41 0 -78.5 -31t-46.5 -72q-9 -38 12 -65t61 -27zM1006 1239q40 0 75.5 29.5t44.5 70.5q9 40 -11 67.5t-58 27.5q-41 0 -78.5 -31t-46.5 -72q-9 -38 12.5 -65t61.5 -27zM532 -47q-98 0 -183 29.5t-145.5 82.5t-101 125.5t-48.5 158.5t12 183q36 156 146 288
t264 209t315 77q163 0 283.5 -78t169.5 -212t13 -292q-36 -156 -146 -287.5t-264 -207.5t-315 -76zM532 -14q115 0 230 43t208 116t161 174t94 213q34 147 -12 271.5t-158 197t-264 72.5q-154 0 -301.5 -73.5t-252.5 -200t-139 -275.5q-34 -147 11.5 -271t157.5 -195.5
t265 -71.5zM578 152q-163 0 -249.5 110t-49.5 270q37 158 171.5 266.5t294.5 108.5q162 0 249 -111.5t50 -271.5q-38 -157 -172.5 -264.5t-293.5 -107.5zM578 184q148 0 274 101t160 247q34 145 -43.5 243.5t-223.5 98.5q-149 0 -274.5 -101t-159.5 -249
q-34 -143 43.5 -241.5t223.5 -98.5z" />
    <glyph glyph-name="divide" unicode="&#xf7;" horiz-adv-x="1198" 
d="M647 719q-78 0 -119 53t-22 131q17 75 79.5 125.5t137.5 50.5t117.5 -54.5t25.5 -129.5q-19 -75 -81.5 -125.5t-137.5 -50.5zM647 752q63 0 117.5 43.5t69.5 107.5q14 60 -18.5 102t-92.5 42q-63 0 -117 -44t-67 -108q-15 -63 15 -103t93 -40zM100 406l56 241h940
l-56 -241h-940zM141 438h875l39 176h-875zM475 -31q-78 0 -119 53.5t-24 131.5q17 74 80.5 125t138.5 51t116.5 -55t24.5 -130q-17 -74 -79.5 -125t-137.5 -51zM475 2q63 0 116.5 44.5t67.5 107.5q14 60 -17 101.5t-91 41.5q-63 0 -118 -44.5t-68 -107.5q-14 -63 16.5 -103
t93.5 -40z" />
    <glyph glyph-name="oslash" unicode="&#xf8;" horiz-adv-x="1323" 
d="M111 -53l-144 184l119 94q-58 137 -20 307q36 156 146 288t264 209t315 77q173 0 301 -90l120 96l144 -184l-119 -94q59 -138 20 -310q-36 -156 -146 -287.5t-264 -207.5t-315 -76q-176 0 -301 90zM115 -8l116 92q121 -98 301 -98q115 0 230 43t208 116t161 174t94 213
q41 174 -29 310l115 90l-103 135l-116 -92q-128 98 -301 98q-154 0 -301.5 -73.5t-252.5 -200t-139 -275.5q-41 -171 29 -307l-115 -90zM287 340q-31 89 -8 192q37 158 171.5 266.5t294.5 108.5q112 0 191 -55zM305 397l572 451q-60 26 -132 26q-149 0 -274.5 -101
t-159.5 -249q-15 -64 -6 -127zM578 152q-112 0 -191 55l649 512q31 -99 8 -195q-38 -157 -172.5 -264.5t-293.5 -107.5zM578 184q148 0 274 101t160 247q15 65 6 130l-572 -451q62 -27 132 -27z" />
    <glyph glyph-name="ugrave" unicode="&#xf9;" horiz-adv-x="1249" 
d="M662 1182l-187 383h311l115 -383h-239zM682 1214h174l-94 318h-234zM496 -49q-30 0 -52.5 1t-62.5 5.5t-70.5 13t-68 26t-64 41t-50.5 60.5t-34.5 83t-9 110.5t19.5 140.5l150 643h254l-152 -657q-1 -5 -3 -13.5t-4 -33.5t0.5 -47.5t14 -50.5t31.5 -48t57.5 -33.5
t88.5 -13.5q53 0 98 13.5t75 35.5t54.5 48.5t38 53t22.5 48.5t12 35l3 14l151 649h254l-149 -651q-111 -473 -604 -473zM496 -16q39 0 69 1.5t84 11t97 26t95.5 49.5t92.5 79t76 118.5t57 162.5l141 610h-188l-143 -624q-1 -6 -3.5 -15.5t-13 -38t-25 -54.5t-42 -57.5
t-60.5 -54t-83 -38t-109 -15.5q-60 0 -104.5 15.5t-67.5 40.5t-37 55t-15.5 59.5t-0.5 54.5t4 40l4 16l143 616h-188l-142 -618q-16 -70 -18 -128.5t7 -100.5t30.5 -76t45 -55.5t57.5 -37.5t62 -23.5t65 -12t59 -5.5t51 -1z" />
    <glyph glyph-name="uacute" unicode="&#xfa;" horiz-adv-x="1249" 
d="M647 1182l289 383h319l-362 -383h-246zM713 1214h168l297 318h-226zM496 -49q-30 0 -52.5 1t-62.5 5.5t-70.5 13t-68 26t-64 41t-50.5 60.5t-34.5 83t-9 110.5t19.5 140.5l150 643h254l-152 -657q-1 -5 -3 -13.5t-4 -33.5t0.5 -47.5t14 -50.5t31.5 -48t57.5 -33.5
t88.5 -13.5q53 0 98 13.5t75 35.5t54.5 48.5t38 53t22.5 48.5t12 35l3 14l151 649h254l-149 -651q-111 -473 -604 -473zM496 -16q39 0 69 1.5t84 11t97 26t95.5 49.5t92.5 79t76 118.5t57 162.5l141 610h-188l-143 -624q-1 -6 -3.5 -15.5t-13 -38t-25 -54.5t-42 -57.5
t-60.5 -54t-83 -38t-109 -15.5q-60 0 -104.5 15.5t-67.5 40.5t-37 55t-15.5 59.5t-0.5 54.5t4 40l4 16l143 616h-188l-142 -618q-16 -70 -18 -128.5t7 -100.5t30.5 -76t45 -55.5t57.5 -37.5t62 -23.5t65 -12t59 -5.5t51 -1z" />
    <glyph glyph-name="ucircumflex" unicode="&#xfb;" horiz-adv-x="1249" 
d="M412 1182l321 383h250l150 -383h-242l-78 157l-154 -157h-247zM481 1214h166l174 183l90 -183h172l-120 318h-213zM496 -49q-30 0 -52.5 1t-62.5 5.5t-70.5 13t-68 26t-64 41t-50.5 60.5t-34.5 83t-9 110.5t19.5 140.5l150 643h254l-152 -657q-1 -5 -3 -13.5t-4 -33.5
t0.5 -47.5t14 -50.5t31.5 -48t57.5 -33.5t88.5 -13.5q53 0 98 13.5t75 35.5t54.5 48.5t38 53t22.5 48.5t12 35l3 14l151 649h254l-149 -651q-111 -473 -604 -473zM496 -16q39 0 69 1.5t84 11t97 26t95.5 49.5t92.5 79t76 118.5t57 162.5l141 610h-188l-143 -624
q-1 -6 -3.5 -15.5t-13 -38t-25 -54.5t-42 -57.5t-60.5 -54t-83 -38t-109 -15.5q-60 0 -104.5 15.5t-67.5 40.5t-37 55t-15.5 59.5t-0.5 54.5t4 40l4 16l143 616h-188l-142 -618q-16 -70 -18 -128.5t7 -100.5t30.5 -76t45 -55.5t57.5 -37.5t62 -23.5t65 -12t59 -5.5t51 -1z
" />
    <glyph glyph-name="udieresis" unicode="&#xfc;" horiz-adv-x="1249" 
d="M575 1206q-55 0 -86.5 39.5t-19.5 93.5q12 53 58 90t100 37t84 -39.5t18 -95.5q-12 -52 -56.5 -88.5t-97.5 -36.5zM969 1206q-55 0 -87 39.5t-20 93.5q12 53 58 90t100 37t84 -39.5t18 -95.5q-12 -53 -56.5 -89t-96.5 -36zM575 1239q40 0 76 29.5t45 70.5q9 40 -11 67.5
t-58 27.5q-41 0 -78.5 -31t-46.5 -72q-9 -38 12 -65t61 -27zM969 1239q40 0 76 29.5t45 70.5q9 40 -11.5 67.5t-58.5 27.5q-41 0 -78.5 -31t-46.5 -72q-9 -38 12.5 -65t61.5 -27zM496 -49q-30 0 -52.5 1t-62.5 5.5t-70.5 13t-68 26t-64 41t-50.5 60.5t-34.5 83t-9 110.5
t19.5 140.5l150 643h254l-152 -657q-1 -5 -3 -13.5t-4 -33.5t0.5 -47.5t14 -50.5t31.5 -48t57.5 -33.5t88.5 -13.5q53 0 98 13.5t75 35.5t54.5 48.5t38 53t22.5 48.5t12 35l3 14l151 649h254l-149 -651q-111 -473 -604 -473zM496 -16q39 0 69 1.5t84 11t97 26t95.5 49.5
t92.5 79t76 118.5t57 162.5l141 610h-188l-143 -624q-1 -6 -3.5 -15.5t-13 -38t-25 -54.5t-42 -57.5t-60.5 -54t-83 -38t-109 -15.5q-60 0 -104.5 15.5t-67.5 40.5t-37 55t-15.5 59.5t-0.5 54.5t4 40l4 16l143 616h-188l-142 -618q-16 -70 -18 -128.5t7 -100.5t30.5 -76
t45 -55.5t57.5 -37.5t62 -23.5t65 -12t59 -5.5t51 -1z" />
    <glyph glyph-name="yacute" unicode="&#xfd;" horiz-adv-x="1200" 
d="M623 1182l288 383h320l-363 -383h-245zM688 1214h168l297 318h-225zM-70 -442l437 594l-224 923h265l153 -653l457 653h297l-1084 -1517h-301zM-4 -410h219l1034 1452h-215l-489 -698l-162 698h-199l219 -899z" />
    <glyph glyph-name="thorn" unicode="&#xfe;" horiz-adv-x="1378" 
d="M-78 -451l428 1856l264 43l-102 -453q75 52 170 81.5t190 29.5q161 0 275 -76t158.5 -209.5t7.5 -296.5q-57 -244 -257 -407.5t-442 -163.5q-207 0 -315 123l-123 -527h-254zM-37 -418h189l133 576q40 -84 124 -128t205 -44q230 0 421 156.5t245 389.5q29 115 9.5 214
t-72.5 171.5t-143 114t-202 41.5q-116 0 -229.5 -45t-185.5 -119l116 498l-194 -31zM664 150q-171 0 -257.5 107.5t-48.5 274.5q38 164 171 270.5t302 106.5q152 0 228.5 -110.5t38.5 -274.5q-38 -161 -161.5 -267.5t-272.5 -106.5zM664 182q138 0 252 99.5t149 250.5
q35 149 -32 247t-202 98q-158 0 -281.5 -99t-158.5 -254q-35 -152 41 -247t232 -95z" />
    <glyph glyph-name="ydieresis" unicode="&#xff;" horiz-adv-x="1200" 
d="M551 1206q-55 0 -87 39.5t-20 93.5q12 53 58 90t100 37t84.5 -40t18.5 -95q-12 -52 -56.5 -88.5t-97.5 -36.5zM944 1206q-55 0 -86.5 39.5t-19.5 93.5q12 53 57.5 90t99.5 37t84.5 -40t18.5 -95q-12 -52 -56.5 -88.5t-97.5 -36.5zM551 1239q40 0 76 29.5t45 70.5
q9 40 -11.5 67.5t-58.5 27.5q-41 0 -78.5 -31t-46.5 -72q-9 -38 12.5 -65t61.5 -27zM944 1239q40 0 76 29.5t45 70.5q9 40 -11.5 67.5t-58.5 27.5q-41 0 -78.5 -31t-46.5 -72q-9 -38 12.5 -65t61.5 -27zM-70 -442l437 594l-224 923h265l153 -653l457 653h297l-1084 -1517
h-301zM-4 -410h219l1034 1452h-215l-489 -698l-162 698h-199l219 -899z" />
    <glyph glyph-name="Amacron" unicode="&#x100;" horiz-adv-x="1536" 
d="M692 1546l51 217h600l-51 -217h-600zM733 1579h535l35 152h-535zM-111 -16l961 1423h235l306 -1423h-295l-58 329h-632l-216 -329h-301zM-49 16h223l215 330h678l57 -330h226l-289 1358h-195zM502 522l416 629l120 -629h-536zM563 555h434l-96 510z" />
    <glyph glyph-name="amacron" unicode="&#x101;" horiz-adv-x="1376" 
d="M532 1212l52 218h600l-51 -218h-601zM573 1245h535l35 152h-535zM506 -47q-161 0 -275 75.5t-158 208t-7 295.5q37 161 141.5 292.5t251 206.5t305.5 75q96 0 179.5 -30.5t137.5 -84.5l21 84h254l-258 -1091h-254l20 84q-162 -115 -358 -115zM506 -14q237 0 416 170
l-37 -140h188l242 1026h-189l-30 -127q-38 72 -128 115t-204 43q-229 0 -420.5 -158t-245.5 -391q-35 -151 5.5 -274.5t146.5 -193.5t256 -70zM567 150q-155 0 -236 111.5t-44 273.5q37 158 166.5 266t281.5 108q164 0 243.5 -106.5t41.5 -276.5q-38 -168 -164 -272
t-289 -104zM567 182q152 0 268.5 97.5t151.5 255.5q37 154 -33 248t-219 94q-141 0 -261.5 -101.5t-154.5 -249.5q-34 -145 38 -244.5t210 -99.5z" />
    <glyph glyph-name="Abreve" unicode="&#x102;" horiz-adv-x="1536" 
d="M989 1516q-160 0 -233 107.5t-29 274.5h242q-11 -29 -13 -66.5t16 -70t58 -32.5q41 0 75.5 32t52 69t22.5 68h241q-12 -65 -45 -129.5t-85 -122.5t-131 -94t-171 -36zM989 1548q79 0 147.5 28t115.5 75t79 101.5t49 113.5h-174q-10 -36 -31.5 -72.5t-61 -67t-83.5 -30.5
q-45 0 -71 30t-32 66t-1 74h-174q-7 -46 -8.5 -91.5t14.5 -86.5t43 -72t75.5 -49.5t112.5 -18.5zM-111 -16l961 1423h235l306 -1423h-295l-58 329h-632l-216 -329h-301zM-49 16h223l215 330h678l57 -330h226l-289 1358h-195zM502 522l416 629l120 -629h-536zM563 555h434
l-96 510z" />
    <glyph glyph-name="abreve" unicode="&#x103;" horiz-adv-x="1376" 
d="M829 1182q-159 0 -232.5 107.5t-29.5 275.5h242q-11 -29 -13 -66.5t16 -70.5t58 -33q41 0 75.5 32.5t52 69.5t22.5 68h242q-12 -65 -45 -129.5t-85.5 -123t-131.5 -94.5t-171 -36zM829 1214q79 0 147.5 28t116 75t79.5 101.5t49 113.5h-174q-7 -26 -22 -53.5t-37 -54.5
t-53 -44.5t-65 -17.5q-45 0 -71 30t-32 66t-1 74h-174q-7 -46 -8.5 -91.5t14.5 -86.5t43 -72t75.5 -49.5t112.5 -18.5zM506 -47q-161 0 -275 75.5t-158 208t-7 295.5q37 161 141.5 292.5t251 206.5t305.5 75q96 0 179.5 -30.5t137.5 -84.5l21 84h254l-258 -1091h-254l20 84
q-162 -115 -358 -115zM506 -14q237 0 416 170l-37 -140h188l242 1026h-189l-30 -127q-38 72 -128 115t-204 43q-229 0 -420.5 -158t-245.5 -391q-35 -151 5.5 -274.5t146.5 -193.5t256 -70zM567 150q-155 0 -236 111.5t-44 273.5q37 158 166.5 266t281.5 108
q164 0 243.5 -106.5t41.5 -276.5q-38 -168 -164 -272t-289 -104zM567 182q152 0 268.5 97.5t151.5 255.5q37 154 -33 248t-219 94q-141 0 -261.5 -101.5t-154.5 -249.5q-34 -145 38 -244.5t210 -99.5z" />
    <glyph glyph-name="Aogonek" unicode="&#x104;" horiz-adv-x="1536" 
d="M1384 -12q-14 -13 -34.5 -33.5t-58 -70t-44.5 -81.5q-9 -41 13 -55t96 -12l-51 -213q-33 -1 -71.5 5t-82 24t-75.5 46t-47 76t-1 107q26 105 139 203h-71l-58 329h-632l-216 -329h-301l961 1423h235l297 -1391h-10zM1315 -297q-62 3 -86.5 29t-14.5 80q19 73 140 194
l-293 1368h-195l-915 -1358h223l215 330h678l57 -330h93l8 -30q-5 -4 -14.5 -10.5t-34.5 -28t-45.5 -45t-41 -58.5t-28.5 -71q-13 -48 -2 -84.5t32.5 -61t56 -40t67 -23t65.5 -8.5zM502 522l416 629l120 -629h-536zM563 555h434l-96 510z" />
    <glyph glyph-name="aogonek" unicode="&#x105;" horiz-adv-x="1376" 
d="M1020 -477q-33 -1 -71.5 5t-82 24t-75.5 46t-47 76t-1 107q26 104 140 203h-39l20 84q-162 -115 -358 -115q-161 0 -275 75.5t-158 208t-7 295.5q37 161 141.5 292.5t251 206.5t305.5 75q96 0 179.5 -30.5t137.5 -84.5l21 84h254l-250 -1059h-19l13 -28
q-14 -13 -34.5 -33.5t-58 -70t-44.5 -81.5q-9 -41 13 -54.5t95 -12.5zM995 -444l35 147q-62 3 -86 29t-14 80q16 64 119 172h16l250 1058h-189l-30 -127q-38 72 -128 115t-204 43q-229 0 -420.5 -158t-245.5 -391q-35 -151 5.5 -274.5t146.5 -193.5t256 -70q237 0 416 170
l-37 -140h47l8 -30q-5 -4 -14.5 -10.5t-34.5 -28t-45.5 -45t-41 -58.5t-28.5 -71q-13 -48 -2 -84.5t32.5 -61t56 -40t67 -23t65.5 -8.5zM567 150q-155 0 -236 111.5t-44 273.5q37 158 166.5 266t281.5 108q164 0 243.5 -106.5t41.5 -276.5q-38 -168 -164 -272t-289 -104z
M567 182q152 0 268.5 97.5t151.5 255.5q37 154 -33 248t-219 94q-141 0 -261.5 -101.5t-154.5 -249.5q-34 -145 38 -244.5t210 -99.5z" />
    <glyph glyph-name="Cacute" unicode="&#x106;" horiz-adv-x="1441" 
d="M958 1516l289 382h320l-363 -382h-246zM1024 1548h168l297 318h-225zM731 -47q-222 -3 -381.5 95t-222.5 270.5t-12 381.5q34 156 125 294t217.5 236.5t286 155t323.5 54.5q161 0 269.5 -40.5t170.5 -92.5l-57 -246h-33q-1 5 -19.5 19.5t-55 34.5t-82 38.5t-110.5 31.5
t-132 13q-234 0 -410 -140t-229 -366q-52 -224 58 -359.5t343 -135.5q155 0 304.5 47.5t246.5 130.5l-67 -293q-2 0 -25.5 -12.5t-68 -32t-104 -38.5t-149 -32.5t-186.5 -13.5zM731 -14q277 0 495 113q3 2 5 3l4 2l45 193q-103 -63 -234.5 -98t-265.5 -35q-249 0 -369 148.5
t-65 387.5q56 237 241.5 384t430.5 147q132 0 239 -42.5t166 -90.5l47 196q-151 113 -403 113q-159 2 -312.5 -52.5t-276 -149.5t-211 -228.5t-120.5 -284.5q-27 -122 -19 -229t57.5 -195.5t125.5 -151.5t184.5 -97.5t235.5 -32.5z" />
    <glyph glyph-name="cacute" unicode="&#x107;" horiz-adv-x="1132" 
d="M686 1182l289 383h319l-362 -383h-246zM752 1214h168l297 318h-226zM553 -47q-281 0 -414 159.5t-73 422.5q37 162 144.5 292.5t260 204.5t320.5 74q120 0 218.5 -37t149.5 -102l-55 -236l-31 -4q-3 6 -10.5 16.5t-35 36.5t-61.5 46t-93.5 36.5t-127.5 16.5
q-148 0 -273 -102t-159 -251q-37 -158 40.5 -252t244.5 -94q108 0 206 27.5t142 54.5l45 27l27 -19l-49 -211q-78 -54 -196.5 -80t-219.5 -26zM553 -14q96 0 203.5 22.5t183.5 71.5l37 160q-166 -93 -379 -93q-183 0 -270 107t-47 281q38 160 171 268t293 108
q214 0 334 -137l43 184q-47 54 -136 84.5t-195 30.5q-160 0 -306 -71t-249 -196.5t-138 -279.5q-57 -246 66.5 -393t388.5 -147z" />
    <glyph glyph-name="Cdotaccent" unicode="&#x10a;" horiz-adv-x="1441" 
d="M1090 1526q-60 0 -93 42.5t-20 102.5q14 59 63 99t107 40q62 0 95 -43t20 -104q-13 -58 -63 -97.5t-109 -39.5zM1090 1559q47 0 88 32.5t51 79.5q11 46 -12.5 76.5t-69.5 30.5t-86.5 -34t-50.5 -81q-10 -44 13 -74t67 -30zM731 -47q-222 -3 -381.5 95t-222.5 270.5
t-12 381.5q34 156 125 294t217.5 236.5t286 155t323.5 54.5q161 0 269.5 -40.5t170.5 -92.5l-57 -246h-33q-1 5 -19.5 19.5t-55 34.5t-82 38.5t-110.5 31.5t-132 13q-234 0 -410 -140t-229 -366q-52 -224 58 -359.5t343 -135.5q155 0 304.5 47.5t246.5 130.5l-67 -293
q-2 0 -25.5 -12.5t-68 -32t-104 -38.5t-149 -32.5t-186.5 -13.5zM731 -14q277 0 495 113q3 2 5 3l4 2l45 193q-103 -63 -234.5 -98t-265.5 -35q-249 0 -369 148.5t-65 387.5q56 237 241.5 384t430.5 147q132 0 239 -42.5t166 -90.5l47 196q-151 113 -403 113
q-159 2 -312.5 -52.5t-276 -149.5t-211 -228.5t-120.5 -284.5q-27 -122 -19 -229t57.5 -195.5t125.5 -151.5t184.5 -97.5t235.5 -32.5z" />
    <glyph glyph-name="cdotaccent" unicode="&#x10b;" horiz-adv-x="1132" 
d="M817 1192q-60 0 -93 42.5t-19 102.5q14 59 62.5 99.5t106.5 40.5q61 0 95 -43t20 -105q-13 -58 -63 -97.5t-109 -39.5zM817 1225q47 0 88 32.5t51 79.5q11 46 -12.5 76.5t-69.5 30.5t-86.5 -34t-50.5 -81q-10 -44 13 -74t67 -30zM553 -47q-281 0 -414 159.5t-73 422.5
q37 162 144.5 292.5t260 204.5t320.5 74q120 0 218.5 -37t149.5 -102l-55 -236l-31 -4q-3 6 -10.5 16.5t-35 36.5t-61.5 46t-93.5 36.5t-127.5 16.5q-148 0 -273 -102t-159 -251q-37 -158 40.5 -252t244.5 -94q108 0 206 27.5t142 54.5l45 27l27 -19l-49 -211
q-78 -54 -196.5 -80t-219.5 -26zM553 -14q96 0 203.5 22.5t183.5 71.5l37 160q-166 -93 -379 -93q-183 0 -270 107t-47 281q38 160 171 268t293 108q214 0 334 -137l43 184q-47 54 -136 84.5t-195 30.5q-160 0 -306 -71t-249 -196.5t-138 -279.5q-57 -246 66.5 -393
t388.5 -147z" />
    <glyph glyph-name="Ccaron" unicode="&#x10c;" horiz-adv-x="1441" 
d="M963 1516l-150 382h242l80 -157l151 157h248l-322 -382h-249zM983 1548h213l268 318h-166l-172 -183l-92 183h-172zM731 -47q-222 -3 -381.5 95t-222.5 270.5t-12 381.5q34 156 125 294t217.5 236.5t286 155t323.5 54.5q161 0 269.5 -40.5t170.5 -92.5l-57 -246h-33
q-1 5 -19.5 19.5t-55 34.5t-82 38.5t-110.5 31.5t-132 13q-234 0 -410 -140t-229 -366q-52 -224 58 -359.5t343 -135.5q155 0 304.5 47.5t246.5 130.5l-67 -293q-2 0 -25.5 -12.5t-68 -32t-104 -38.5t-149 -32.5t-186.5 -13.5zM731 -14q277 0 495 113q3 2 5 3l4 2l45 193
q-103 -63 -234.5 -98t-265.5 -35q-249 0 -369 148.5t-65 387.5q56 237 241.5 384t430.5 147q132 0 239 -42.5t166 -90.5l47 196q-151 113 -403 113q-159 2 -312.5 -52.5t-276 -149.5t-211 -228.5t-120.5 -284.5q-27 -122 -19 -229t57.5 -195.5t125.5 -151.5t184.5 -97.5
t235.5 -32.5z" />
    <glyph glyph-name="ccaron" unicode="&#x10d;" horiz-adv-x="1132" 
d="M690 1182l-149 383h241l80 -158l152 158h248l-322 -383h-250zM711 1214h213l268 318h-166l-172 -182l-92 182h-172zM553 -47q-281 0 -414 159.5t-73 422.5q37 162 144.5 292.5t260 204.5t320.5 74q120 0 218.5 -37t149.5 -102l-55 -236l-31 -4q-3 6 -10.5 16.5t-35 36.5
t-61.5 46t-93.5 36.5t-127.5 16.5q-148 0 -273 -102t-159 -251q-37 -158 40.5 -252t244.5 -94q108 0 206 27.5t142 54.5l45 27l27 -19l-49 -211q-78 -54 -196.5 -80t-219.5 -26zM553 -14q96 0 203.5 22.5t183.5 71.5l37 160q-166 -93 -379 -93q-183 0 -270 107t-47 281
q38 160 171 268t293 108q214 0 334 -137l43 184q-47 54 -136 84.5t-195 30.5q-160 0 -306 -71t-249 -196.5t-138 -279.5q-57 -246 66.5 -393t388.5 -147z" />
    <glyph glyph-name="Dcaron" unicode="&#x10e;" horiz-adv-x="1556" 
d="M883 1516l-150 382h242l80 -157l151 157h248l-321 -382h-250zM903 1548h213l268 318h-165l-172 -183l-93 183h-172zM41 -16l330 1423h516q353 0 520 -195.5t92 -519.5q-48 -209 -182.5 -370t-330 -249.5t-421.5 -88.5h-524zM82 16h483q219 0 407.5 85.5t318 241
t175.5 357.5q72 308 -85 491t-494 183h-492zM313 195l232 1003h276q270 0 386 -131.5t61 -374.5q-64 -243 -236 -370t-434 -127h-285zM354 227h244q251 0 414 121t223 352q53 226 -53 345.5t-361 119.5h-252z" />
    <glyph glyph-name="dcaron" unicode="&#x10f;" horiz-adv-x="1536" 
d="M506 -47q-161 0 -275 75.5t-158 208t-7 295.5q37 161 141.5 292.5t251 206.5t305.5 75q96 0 179.5 -30.5t137.5 -84.5l95 414l264 43l-338 -1464h-258l20 84q-162 -115 -358 -115zM1434 1092l137 352h264l-231 -352h-170zM1483 1124h104l187 287h-183zM506 -14
q237 0 416 170l-37 -140h192l322 1391l-195 -31l-106 -461q-40 72 -130 115t-204 43q-229 0 -420.5 -158t-245.5 -391q-35 -151 5.5 -274.5t146.5 -193.5t256 -70zM567 150q-156 0 -239.5 112.5t-46.5 272.5q37 157 168.5 265.5t285.5 108.5q164 0 243.5 -106.5t41.5 -276.5
q-38 -168 -164 -272t-289 -104zM567 182q152 0 268.5 97.5t151.5 255.5q37 154 -33 248t-219 94q-141 0 -264.5 -102.5t-157.5 -248.5q-34 -143 40.5 -243.5t213.5 -100.5z" />
    <glyph glyph-name="Dcroat" unicode="&#x110;" horiz-adv-x="1617" 
d="M102 -16l142 608h-264l51 217h262l139 598h516q353 0 520.5 -195.5t92.5 -519.5q-48 -209 -182.5 -370t-330 -249.5t-421.5 -88.5h-525zM143 16h484q219 0 407.5 85.5t318 241t175.5 357.5q72 308 -85.5 491t-494.5 183h-491l-140 -598h-262l-35 -151h265zM375 195
l100 430h223l35 151h-225l98 422h277q270 0 386 -131.5t60 -374.5q-64 -243 -236 -370t-434 -127h-284zM416 227h243q251 0 414 121t223 352q53 226 -52.5 345.5t-360.5 119.5h-252l-82 -356h225l-51 -217h-223z" />
    <glyph glyph-name="dcroat" unicode="&#x111;" horiz-adv-x="1359" 
d="M506 -47q-161 0 -275 75.5t-158 208t-7 295.5q37 161 141.5 292.5t251 206.5t305.5 75q96 0 179.5 -30.5t137.5 -84.5l21 92h-178l51 217h178l23 105l264 43l-33 -148h127l-51 -217h-127l-254 -1099h-258l20 84q-162 -115 -358 -115zM506 -14q237 0 416 170l-37 -140h192
l254 1100h127l35 152h-127l33 139l-195 -31l-26 -108h-179l-34 -152h178l-45 -201q-40 72 -130 115t-204 43q-229 0 -420.5 -158t-245.5 -391q-35 -151 5.5 -274.5t146.5 -193.5t256 -70zM567 150q-156 0 -239.5 112.5t-46.5 272.5q37 157 168.5 265.5t285.5 108.5
q164 0 243.5 -106.5t41.5 -276.5q-38 -168 -164 -272t-289 -104zM567 182q152 0 268.5 97.5t151.5 255.5q37 154 -33 248t-219 94q-141 0 -264.5 -102.5t-157.5 -248.5q-34 -143 40.5 -243.5t213.5 -100.5z" />
    <glyph glyph-name="Emacron" unicode="&#x112;" horiz-adv-x="1314" 
d="M590 1546l51 217h600l-51 -217h-600zM631 1579h534l35 152h-534zM41 -16l330 1423h1048l-55 -242h-795l-69 -303h633l-58 -241h-631l-90 -396h805l-57 -241h-1061zM82 16h995l41 177h-805l107 460h631l41 176h-633l86 369h794l39 176h-983z" />
    <glyph glyph-name="emacron" unicode="&#x113;" horiz-adv-x="1220" 
d="M508 1212l51 218h600l-51 -218h-600zM549 1245h534l35 152h-534zM539 -47q-132 0 -235 43t-164 120.5t-83 184.5t9 234q37 161 143.5 291.5t257 205t315.5 74.5q142 0 242.5 -70t139 -192t3.5 -269l-28 -114h-842q-6 -132 70.5 -205.5t220.5 -73.5q51 0 103.5 6t94.5 16
t81 22t68 23.5t51 21.5t34 16l12 6l17 -21l-45 -198l-7 -8q-6 -5 -17.5 -12.5t-53 -27t-90 -34.5t-129 -27t-168.5 -12zM539 -14q94 0 175.5 12.5t135 32.5t79.5 32.5t44 24.5l35 158q-39 -20 -89 -38.5t-143.5 -38t-187.5 -19.5q-167 0 -253 91.5t-69 252.5h848l21 90
q33 138 -1.5 250t-127 175.5t-224.5 63.5q-238 0 -434 -157t-250 -390q-55 -241 67 -390.5t374 -149.5zM309 633q5 23 21.5 56t51 75.5t79 77.5t111 59.5t141.5 24.5q62 0 109.5 -16.5t74 -44t43 -58.5t21 -66.5t4.5 -60.5t-4 -47h-652zM356 666h576q2 29 -0.5 56
t-15.5 59.5t-35.5 56t-65.5 39.5t-102 16q-72 0 -135 -22.5t-106 -59.5t-70.5 -72.5t-45.5 -72.5z" />
    <glyph glyph-name="Edotaccent" unicode="&#x116;" horiz-adv-x="1314" 
d="M889 1526q-60 0 -93 42.5t-20 102.5q14 59 63 99t107 40q62 0 95 -43t20 -104q-13 -58 -63 -97.5t-109 -39.5zM889 1559q47 0 88 32.5t51 79.5q11 46 -12.5 76.5t-69.5 30.5t-86.5 -34t-50.5 -81q-10 -44 13 -74t67 -30zM41 -16l330 1423h1048l-55 -242h-795l-69 -303
h633l-58 -241h-631l-90 -396h805l-57 -241h-1061zM82 16h995l41 177h-805l107 460h631l41 176h-633l86 369h794l39 176h-983z" />
    <glyph glyph-name="edotaccent" unicode="&#x117;" horiz-adv-x="1220" 
d="M807 1192q-60 0 -93 42.5t-20 102.5q14 59 63 99.5t107 40.5q61 0 95 -43t20 -105q-13 -58 -63 -97.5t-109 -39.5zM807 1225q47 0 88 32.5t51 79.5q11 46 -12.5 76.5t-69.5 30.5t-86.5 -34t-50.5 -81q-10 -44 13 -74t67 -30zM539 -47q-132 0 -235 43t-164 120.5
t-83 184.5t9 234q37 161 143.5 291.5t257 205t315.5 74.5q142 0 242.5 -70t139 -192t3.5 -269l-28 -114h-842q-6 -132 70.5 -205.5t220.5 -73.5q51 0 103.5 6t94.5 16t81 22t68 23.5t51 21.5t34 16l12 6l17 -21l-45 -198l-7 -8q-6 -5 -17.5 -12.5t-53 -27t-90 -34.5
t-129 -27t-168.5 -12zM539 -14q94 0 175.5 12.5t135 32.5t79.5 32.5t44 24.5l35 158q-39 -20 -89 -38.5t-143.5 -38t-187.5 -19.5q-167 0 -253 91.5t-69 252.5h848l21 90q33 138 -1.5 250t-127 175.5t-224.5 63.5q-238 0 -434 -157t-250 -390q-55 -241 67 -390.5t374 -149.5
zM309 633q5 23 21.5 56t51 75.5t79 77.5t111 59.5t141.5 24.5q62 0 109.5 -16.5t74 -44t43 -58.5t21 -66.5t4.5 -60.5t-4 -47h-652zM356 666h576q2 29 -0.5 56t-15.5 59.5t-35.5 56t-65.5 39.5t-102 16q-72 0 -135 -22.5t-106 -59.5t-70.5 -72.5t-45.5 -72.5z" />
    <glyph glyph-name="Eogonek" unicode="&#x118;" horiz-adv-x="1314" 
d="M1024 -477q-27 -1 -58 3t-68 15.5t-67 30.5t-55 48t-31.5 69t3.5 92q26 105 139 203h-846l330 1423h1048l-55 -242h-795l-69 -303h633l-58 -241h-631l-90 -396h805l-49 -209h-18l12 -28q-14 -13 -34.5 -33.5t-58 -70t-44.5 -81.5q-9 -41 13 -54.5t95 -12.5zM999 -444
l35 147q-62 3 -86 29t-14 80q16 64 119 172h16l49 209h-805l107 460h631l41 176h-633l86 369h794l39 176h-983l-313 -1358h854l8 -30q-5 -4 -14.5 -10.5t-34.5 -28t-45.5 -45t-41 -58.5t-28.5 -71q-13 -48 -2 -84.5t32.5 -61t56 -40t67 -23t65.5 -8.5z" />
    <glyph glyph-name="eogonek" unicode="&#x119;" horiz-adv-x="1220" 
d="M782 1106q142 0 242.5 -70t139 -192t3.5 -269l-28 -114h-842q-6 -132 70.5 -205.5t220.5 -73.5q51 0 103.5 6t94.5 16t81 22t68 23.5t51 21.5t34 16l12 6l17 -21l-48 -202l-2 -7q-14 -13 -34.5 -33.5t-58 -69.5t-44.5 -81q-9 -41 13 -55t96 -12l-51 -213q-33 -1 -71.5 5
t-82 24t-75.5 46t-47 76t-1 107q11 50 49 104q-98 -8 -153 -8q-132 0 -235 43t-164 120.5t-83 184.5t9 234q37 161 143.5 291.5t257 205t315.5 74.5zM1135 584q33 138 -1.5 250t-127 175.5t-224.5 63.5q-238 0 -434 -157t-250 -390q-55 -241 67 -390.5t374 -149.5
q125 0 235 22q-79 -79 -98 -160q-13 -48 -2 -84.5t32.5 -61t56 -40t67 -23t65.5 -8.5l35 148q-62 3 -86.5 29t-14.5 79q16 64 119 172l25 27l35 160q-39 -20 -89 -38.5t-143.5 -38t-187.5 -19.5q-167 0 -253 91.5t-69 252.5h848zM713 926q62 0 109.5 -16.5t74 -44t43 -58.5
t21 -66.5t4.5 -60.5t-4 -47h-652q5 23 21.5 56t51 75.5t79 77.5t111 59.5t141.5 24.5zM932 666q2 29 -0.5 56t-15.5 59.5t-35.5 56t-65.5 39.5t-102 16q-72 0 -135 -22.5t-106 -59.5t-70.5 -72.5t-45.5 -72.5h576z" />
    <glyph glyph-name="Ecaron" unicode="&#x11a;" horiz-adv-x="1314" 
d="M762 1516l-150 382h242l80 -157l151 157h248l-321 -382h-250zM782 1548h213l269 318h-166l-172 -183l-92 183h-172zM41 -16l330 1423h1048l-55 -242h-795l-69 -303h633l-58 -241h-631l-90 -396h805l-57 -241h-1061zM82 16h995l41 177h-805l107 460h631l41 176h-633
l86 369h794l39 176h-983z" />
    <glyph glyph-name="ecaron" unicode="&#x11b;" horiz-adv-x="1220" 
d="M680 1182l-150 383h242l80 -158l152 158h247l-321 -383h-250zM700 1214h213l269 318h-166l-172 -182l-92 182h-172zM539 -47q-132 0 -235 43t-164 120.5t-83 184.5t9 234q37 161 143.5 291.5t257 205t315.5 74.5q142 0 242.5 -70t139 -192t3.5 -269l-28 -114h-842
q-6 -132 70.5 -205.5t220.5 -73.5q51 0 103.5 6t94.5 16t81 22t68 23.5t51 21.5t34 16l12 6l17 -21l-45 -198l-7 -8q-6 -5 -17.5 -12.5t-53 -27t-90 -34.5t-129 -27t-168.5 -12zM539 -14q94 0 175.5 12.5t135 32.5t79.5 32.5t44 24.5l35 158q-39 -20 -89 -38.5t-143.5 -38
t-187.5 -19.5q-167 0 -253 91.5t-69 252.5h848l21 90q33 138 -1.5 250t-127 175.5t-224.5 63.5q-238 0 -434 -157t-250 -390q-55 -241 67 -390.5t374 -149.5zM309 633q5 23 21.5 56t51 75.5t79 77.5t111 59.5t141.5 24.5q62 0 109.5 -16.5t74 -44t43 -58.5t21 -66.5
t4.5 -60.5t-4 -47h-652zM356 666h576q2 29 -0.5 56t-15.5 59.5t-35.5 56t-65.5 39.5t-102 16q-72 0 -135 -22.5t-106 -59.5t-70.5 -72.5t-45.5 -72.5z" />
    <glyph glyph-name="Gbreve" unicode="&#x11e;" horiz-adv-x="1589" 
d="M1024 1516q-160 0 -233 107.5t-29 274.5h242q-11 -29 -13 -66.5t16 -70t58 -32.5q41 0 75.5 32.5t51.5 69t22 67.5h242q-12 -65 -45 -129.5t-85 -122.5t-131 -94t-171 -36zM1024 1548q79 0 147.5 28t115.5 75t79 101.5t49 113.5h-174q-10 -36 -31.5 -72.5t-61 -67
t-83.5 -30.5q-45 0 -71 30t-32 66t-1 74h-175q-7 -46 -8 -91.5t15 -86.5t43 -72t75.5 -49.5t112.5 -18.5zM705 -47q-127 0 -235 37.5t-184 104.5t-124.5 160.5t-56.5 205.5t20 239q34 156 125 294t217.5 236.5t286 155t323.5 54.5q184 0 297 -45q135 -54 182 -90l-65 -281
q-37 58 -172 121q-115 53 -291 53q-234 0 -410 -140t-229 -366q-51 -213 53 -355t310 -142q204 0 391 118l63 275h-415l57 241h672l-197 -845h-256l12 57q-172 -88 -374 -88zM705 -14q110 0 222 31t201 87l-20 -88h190l181 781h-607l-41 -176h416l-76 -328
q-81 -54 -192 -92.5t-227 -38.5q-146 0 -249.5 70t-142.5 193.5t-4 274.5q56 237 241.5 384t430.5 147q192 0 303 -57q91 -40 142 -82l47 198q-52 34 -158 74q-113 43 -285 43q-159 2 -312.5 -52.5t-275.5 -149.5t-210.5 -228.5t-120.5 -284.5q-27 -121 -20 -227t52.5 -194
t117.5 -151.5t174 -98.5t223 -35z" />
    <glyph glyph-name="gbreve" unicode="&#x11f;" horiz-adv-x="1320" 
d="M809 1182q-159 0 -232.5 107.5t-29.5 275.5h241q-11 -29 -12.5 -67t16.5 -70.5t58 -32.5q41 0 75.5 32.5t51.5 69.5t22 68h242q-10 -51 -32 -103t-59.5 -102.5t-85.5 -90t-114.5 -63.5t-140.5 -24zM571 1532q-7 -46 -8 -91.5t15 -86.5t43 -72t75.5 -49.5t112.5 -18.5
q79 0 147.5 28t115.5 75t79 101.5t49 113.5h-174q-10 -36 -31.5 -72.5t-61 -67t-83.5 -30.5q-45 0 -71 30t-32.5 66t-1.5 74h-174zM1102 1075h254l-228 -969q-65 -277 -262 -430t-491 -153q-89 0 -164 12t-118 28.5t-74 33.5t-43 29l-11 12l-4 14l45 198l27 9q5 -4 15 -11.5
t46 -26t76.5 -32.5t106.5 -25.5t137 -11.5q367 0 450 314q-165 -113 -358 -113q-161 0 -275 75.5t-158 208t-7 295.5q37 161 141.5 292.5t251 206.5t305.5 75q96 0 179.5 -30.5t137.5 -84.5zM1096 115l219 927h-189l-30 -127q-38 72 -128 115t-204 43q-229 0 -420.5 -158
t-245.5 -391q-35 -151 5.5 -274.5t146.5 -193.5t256 -70q216 0 373 133l26 -15l-4 -26q-83 -359 -487 -359q-94 0 -179.5 19.5t-127.5 39t-74 40.5l-37 -166q14 -12 34.5 -24t64.5 -30.5t117 -30t163 -11.5q283 0 471 146.5t250 412.5zM735 909q164 0 243.5 -106.5
t41.5 -276.5q-38 -168 -164 -272t-289 -104q-155 0 -236 111.5t-44 273.5q37 158 166.5 266t281.5 108zM987 535q37 154 -33 248t-219 94q-141 0 -261.5 -101.5t-154.5 -249.5q-34 -145 38 -244.5t210 -99.5q152 0 268.5 97.5t151.5 255.5z" />
    <glyph glyph-name="Gdotaccent" unicode="&#x120;" horiz-adv-x="1589" 
d="M1026 1526q-60 0 -93 42.5t-20 102.5q14 59 63 99t107 40q62 0 95 -43t20 -104q-13 -58 -63 -97.5t-109 -39.5zM1026 1559q47 0 88 32.5t51 79.5q11 46 -12.5 76.5t-69.5 30.5t-86.5 -34t-50.5 -81q-10 -44 13 -74t67 -30zM705 -47q-127 0 -235 37.5t-184 104.5
t-124.5 160.5t-56.5 205.5t20 239q34 156 125 294t217.5 236.5t286 155t323.5 54.5q184 0 297 -45q135 -54 182 -90l-65 -281q-37 58 -172 121q-115 53 -291 53q-234 0 -410 -140t-229 -366q-51 -213 53 -355t310 -142q204 0 391 118l63 275h-415l57 241h672l-197 -845h-256
l12 57q-172 -88 -374 -88zM705 -14q110 0 222 31t201 87l-20 -88h190l181 781h-607l-41 -176h416l-76 -328q-81 -54 -192 -92.5t-227 -38.5q-146 0 -249.5 70t-142.5 193.5t-4 274.5q56 237 241.5 384t430.5 147q192 0 303 -57q91 -40 142 -82l47 198q-52 34 -158 74
q-113 43 -285 43q-159 2 -312.5 -52.5t-275.5 -149.5t-210.5 -228.5t-120.5 -284.5q-27 -121 -20 -227t52.5 -194t117.5 -151.5t174 -98.5t223 -35z" />
    <glyph glyph-name="gdotaccent" unicode="&#x121;" horiz-adv-x="1320" 
d="M811 1192q-60 0 -93 42.5t-20 102.5q14 59 63 99.5t107 40.5q61 0 95 -43t20 -105q-13 -58 -63 -97.5t-109 -39.5zM731 1329q-10 -44 13 -74t67 -30q47 0 88 32.5t51 79.5q11 46 -12.5 76.5t-69.5 30.5t-86.5 -34t-50.5 -81zM1102 1075h254l-228 -969q-65 -277 -262 -430
t-491 -153q-89 0 -164 12t-118 28.5t-74 33.5t-43 29l-11 12l-4 14l45 198l27 9q5 -4 15 -11.5t46 -26t76.5 -32.5t106.5 -25.5t137 -11.5q367 0 450 314q-165 -113 -358 -113q-161 0 -275 75.5t-158 208t-7 295.5q37 161 141.5 292.5t251 206.5t305.5 75q96 0 179.5 -30.5
t137.5 -84.5zM1096 115l219 927h-189l-30 -127q-38 72 -128 115t-204 43q-229 0 -420.5 -158t-245.5 -391q-35 -151 5.5 -274.5t146.5 -193.5t256 -70q216 0 373 133l26 -15l-4 -26q-83 -359 -487 -359q-94 0 -179.5 19.5t-127.5 39t-74 40.5l-37 -166q14 -12 34.5 -24
t64.5 -30.5t117 -30t163 -11.5q283 0 471 146.5t250 412.5zM735 909q164 0 243.5 -106.5t41.5 -276.5q-38 -168 -164 -272t-289 -104q-155 0 -236 111.5t-44 273.5q37 158 166.5 266t281.5 108zM987 535q37 154 -33 248t-219 94q-141 0 -261.5 -101.5t-154.5 -249.5
q-34 -145 38 -244.5t210 -99.5q152 0 268.5 97.5t151.5 255.5z" />
    <glyph glyph-name="uni0122" unicode="&#x122;" horiz-adv-x="1589" 
d="M705 -47q-127 0 -235 37.5t-184 104.5t-124.5 160.5t-56.5 205.5t20 239q34 156 125 294t217.5 236.5t286 155t323.5 54.5q184 0 297 -45q135 -54 182 -90l-65 -281q-37 58 -172 121q-115 53 -291 53q-234 0 -410 -140t-229 -366q-51 -213 53 -355t310 -142
q204 0 391 118l63 275h-415l57 241h672l-197 -845h-256l12 57q-172 -88 -374 -88zM705 -14q110 0 222 31t201 87l-20 -88h190l181 781h-607l-41 -176h416l-76 -328q-81 -54 -192 -92.5t-227 -38.5q-146 0 -249.5 70t-142.5 193.5t-4 274.5q56 237 241.5 384t430.5 147
q192 0 303 -57q91 -40 142 -82l47 198q-52 34 -158 74q-113 43 -285 43q-159 2 -312.5 -52.5t-275.5 -149.5t-210.5 -228.5t-120.5 -284.5q-27 -121 -20 -227t52.5 -194t117.5 -151.5t174 -98.5t223 -35zM297 -465l289 383h278l-362 -383h-205zM362 -432h127l297 317h-184z
" />
    <glyph glyph-name="uni0123" unicode="&#x123;" horiz-adv-x="1320" 
d="M1245 1565l-289 -383h-319l362 383h246zM715 1214h225l240 318h-168zM1102 1075h254l-228 -969q-65 -277 -262 -430t-491 -153q-89 0 -164 12t-118 28.5t-74 33.5t-43 29l-11 12l-4 14l45 198l27 9q5 -4 15 -11.5t46 -26t76.5 -32.5t106.5 -25.5t137 -11.5q367 0 450 314
q-165 -113 -358 -113q-161 0 -275 75.5t-158 208t-7 295.5q37 161 141.5 292.5t251 206.5t305.5 75q96 0 179.5 -30.5t137.5 -84.5zM1096 115l219 927h-189l-30 -127q-38 72 -128 115t-204 43q-229 0 -420.5 -158t-245.5 -391q-35 -151 5.5 -274.5t146.5 -193.5t256 -70
q216 0 373 133l26 -15l-4 -26q-83 -359 -487 -359q-94 0 -179.5 19.5t-127.5 39t-74 40.5l-37 -166q14 -12 34.5 -24t64.5 -30.5t117 -30t163 -11.5q283 0 471 146.5t250 412.5zM735 909q164 0 243.5 -106.5t41.5 -276.5q-38 -168 -164 -272t-289 -104q-155 0 -236 111.5
t-44 273.5q37 158 166.5 266t281.5 108zM987 535q37 154 -33 248t-219 94q-141 0 -261.5 -101.5t-154.5 -249.5q-34 -145 38 -244.5t210 -99.5q152 0 268.5 97.5t151.5 255.5z" />
    <glyph glyph-name="Hbar" unicode="&#x126;" horiz-adv-x="1544" 
d="M41 -16l240 1032h-113l51 217h111l41 174h256l-41 -174h696l41 174h256l-41 -174h109l-52 -217h-106l-240 -1032h-256l148 637h-697l-147 -637h-256zM82 16h190l148 637h762l-148 -637h191l239 1033h107l35 151h-109l41 174h-190l-41 -174h-762l41 174h-191l-41 -174
h-110l-35 -151h113zM459 829l53 220h762l-53 -220h-762zM500 862h696l37 154h-696z" />
    <glyph glyph-name="hbar" unicode="&#x127;" horiz-adv-x="1249" 
d="M807 1108q202 0 295.5 -126t46.5 -335l-156 -663h-254l150 649q28 117 -14.5 181.5t-145.5 64.5q-120 0 -215 -74t-127 -193l-147 -628h-254l254 1099h-129l51 217h129l22 105l265 43l-33 -148h176l-49 -208q62 16 135 16zM1116 655q46 193 -37.5 306.5t-271.5 113.5
q-79 0 -147.5 -20t-110.5 -50t-62.5 -50t-31.5 -35l-29 14l43 182h176l35 152h-176l33 139l-195 -31l-27 -108h-129l-34 -152h129l-254 -1100h188l139 605q37 129 141 209.5t234 80.5q120 0 172 -77t21 -209l-142 -609h189zM643 1083h-149l-21 -96q75 66 170 96z" />
    <glyph glyph-name="Imacron" unicode="&#x12a;" horiz-adv-x="591" 
d="M229 1546l52 217h600l-52 -217h-600zM270 1579h535l35 152h-535zM41 -16l330 1423h256l-330 -1423h-256zM82 16h190l314 1358h-191z" />
    <glyph glyph-name="imacron" unicode="&#x12b;" horiz-adv-x="561" 
d="M143 1212l52 218h600l-52 -218h-600zM184 1245h535l35 152h-535zM33 -16l254 1091h254l-254 -1091h-254zM74 16h188l238 1026h-189z" />
    <glyph glyph-name="Iogonek" unicode="&#x12e;" horiz-adv-x="591" 
d="M211 -459q-33 -1 -71.5 5t-82 24t-75.5 46t-47 76t-1 107q22 96 119 185h-12l330 1423h256l-330 -1423h-31q-100 -112 -112 -162q-9 -41 13 -55t95 -13zM186 -426l35 147q-62 3 -86 29t-14 80q16 62 133 186h18l314 1358h-191l-313 -1358h16l11 -28q-120 -92 -142 -197
q-13 -48 -2 -84.5t32.5 -61t56 -40t67 -23t65.5 -8.5z" />
    <glyph glyph-name="iogonek" unicode="&#x12f;" horiz-adv-x="579" 
d="M446 1194q-60 0 -93 42.5t-19 102.5q14 59 63 99.5t107 40.5q61 0 94.5 -43t19.5 -105q-13 -58 -63 -97.5t-109 -39.5zM446 1227q48 0 89 32.5t51 79.5q11 46 -12.5 76.5t-69.5 30.5t-86.5 -34t-50.5 -81q-11 -44 12 -74t67 -30zM221 -477q-27 -1 -58 3t-68 15.5
t-67 30.5t-55 48t-31.5 69t3.5 92q26 105 139 203h-39l254 1093h254l-246 -1061h-18l12 -28q-14 -13 -34.5 -33.5t-58 -70t-44.5 -81.5q-9 -41 13 -54.5t95 -12.5zM197 -444l34 147q-62 3 -86 29t-14 80q16 64 119 172h16l246 1060h-188l-238 -1028h47l8 -30
q-5 -4 -14.5 -10.5t-34.5 -28t-45.5 -45t-41 -58.5t-28.5 -71q-14 -57 3 -101t55 -67.5t78.5 -35t83.5 -13.5z" />
    <glyph glyph-name="Idotaccent" unicode="&#x130;" horiz-adv-x="591" 
d="M528 1526q-60 0 -93 42.5t-19 102.5q14 59 63 99t107 40q61 0 94.5 -42.5t19.5 -104.5q-13 -58 -63 -97.5t-109 -39.5zM528 1559q48 0 89 32.5t51 79.5q11 46 -12.5 76.5t-69.5 30.5t-86.5 -34t-50.5 -81q-11 -44 12 -74t67 -30zM41 -16l330 1423h256l-330 -1423h-256z
M82 16h190l314 1358h-191z" />
    <glyph glyph-name="dotlessi" unicode="&#x131;" horiz-adv-x="561" 
d="M33 -16l254 1091h254l-254 -1091h-254zM74 16h188l238 1026h-189z" />
    <glyph glyph-name="uni0136" unicode="&#x136;" horiz-adv-x="1404" 
d="M41 -16l330 1423h254l-140 -604l764 604h365l-764 -596l422 -827h-285l-340 667l-241 -188l-111 -479h-254zM82 16h188l107 467l282 217l349 -684h211l-410 803l711 555h-258l-830 -653l152 653h-189zM156 -446l288 383h279l-363 -383h-204zM221 -414h127l297 318h-184z
" />
    <glyph glyph-name="uni0137" unicode="&#x137;" horiz-adv-x="1179" 
d="M20 -16l328 1421l264 43l-161 -698l467 325h374l-592 -416l406 -675h-309l-310 526l-108 -76l-105 -450h-254zM61 16h189l100 439l150 104l317 -543h232l-394 652l535 374h-260l-529 -370l170 735l-194 -31zM106 -446l289 383h279l-363 -383h-205zM172 -414h127l297 318
h-184z" />
    <glyph glyph-name="Lacute" unicode="&#x139;" horiz-adv-x="1327" 
d="M383 1516l289 382h319l-362 -382h-246zM449 1548h167l297 318h-225zM41 -16l330 1423h254l-273 -1182h844l-57 -241h-1098zM82 16h1032l41 177h-844l273 1181h-189z" />
    <glyph glyph-name="lacute" unicode="&#x13a;" horiz-adv-x="548" 
d="M391 1516l379 382h324l-451 -382h-252zM469 1548h162l373 318h-222zM20 -16l328 1421l264 43l-338 -1464h-254zM61 16h189l321 1391l-194 -31z" />
    <glyph glyph-name="uni013B" unicode="&#x13b;" horiz-adv-x="1327" 
d="M41 -16l330 1423h254l-273 -1182h844l-57 -241h-1098zM82 16h1032l41 177h-844l273 1181h-189zM127 -446l289 383h278l-362 -383h-205zM193 -414h126l297 318h-184z" />
    <glyph glyph-name="uni013C" unicode="&#x13c;" horiz-adv-x="548" 
d="M20 -16l328 1421l264 43l-338 -1464h-254zM61 16h189l321 1391l-194 -31zM-279 -446l289 383h279l-363 -383h-205zM-213 -414h127l297 318h-184z" />
    <glyph glyph-name="Lcaron" unicode="&#x13d;" horiz-adv-x="1327" 
d="M41 -16l330 1423h254l-273 -1182h844l-57 -241h-1098zM793 1055l137 352h264l-231 -352h-170zM82 16h1032l41 177h-844l273 1181h-189zM842 1087h104l187 287h-183z" />
    <glyph glyph-name="lcaron" unicode="&#x13e;" horiz-adv-x="710" 
d="M20 -16l328 1421l264 43l-338 -1464h-254zM608 1092l137 352h265l-232 -352h-170zM657 1124h105l186 287h-182zM61 16h189l321 1391l-194 -31z" />
    <glyph glyph-name="Ldot" unicode="&#x13f;" horiz-adv-x="1327" 
d="M41 -16l330 1423h254l-273 -1182h844l-57 -241h-1098zM82 16h1032l41 177h-844l273 1181h-189zM872 528q-78 0 -119 53.5t-24 131.5q17 74 80.5 125t138.5 51t117 -54.5t25 -129.5q-17 -74 -80 -125.5t-138 -51.5zM872 561q63 0 117.5 44.5t67.5 107.5q14 60 -17.5 101.5
t-91.5 41.5q-63 0 -118 -44t-68 -107q-14 -63 16.5 -103.5t93.5 -40.5z" />
    <glyph glyph-name="ldot" unicode="&#x140;" horiz-adv-x="837" 
d="M20 -16l328 1421l264 43l-338 -1464h-254zM61 16h189l321 1391l-194 -31zM637 528q-78 0 -119 53.5t-24 131.5q17 74 80.5 125t138.5 51t116.5 -54.5t24.5 -129.5q-17 -74 -79.5 -125.5t-137.5 -51.5zM637 561q63 0 116.5 44.5t67.5 107.5q14 60 -17 101.5t-91 41.5
q-63 0 -118.5 -44t-68.5 -107q-14 -63 17 -103.5t94 -40.5z" />
    <glyph glyph-name="Lslash" unicode="&#x141;" horiz-adv-x="1327" 
d="M41 -16l152 651h-244l51 217h242l129 555h254l-127 -555h245l-51 -217h-246l-94 -410h844l-57 -241h-1098zM82 16h1032l41 177h-844l111 475h246l34 151h-245l127 555h-189l-129 -555h-241l-35 -151h243z" />
    <glyph glyph-name="lslash" unicode="&#x142;" horiz-adv-x="548" 
d="M20 -16l130 559l-177 -117l-65 170l301 201l139 608l264 43l-104 -451l162 107l67 -170l-286 -191l-177 -759h-254zM61 16h189l172 748l274 182l-43 109l-194 -131l112 483l-194 -31l-139 -600l-289 -192l41 -109l209 141z" />
    <glyph glyph-name="Nacute" unicode="&#x143;" horiz-adv-x="1579" 
d="M891 1516l289 382h319l-362 -382h-246zM956 1548h168l297 318h-225zM41 -16l330 1423h278l475 -1010l236 1010h254l-330 -1423h-270l-479 1028l-240 -1028h-254zM82 16h188l252 1094l512 -1094h226l313 1358h-189l-247 -1075l-508 1075h-234z" />
    <glyph glyph-name="nacute" unicode="&#x144;" horiz-adv-x="1296" 
d="M737 1182l289 383h320l-363 -383h-246zM803 1214h168l297 318h-226zM33 -16l254 1091h254l-21 -90q133 123 336 123q202 0 295.5 -126t46.5 -335l-156 -663h-254l150 649q28 117 -14.5 181.5t-145.5 64.5q-126 0 -222.5 -79.5t-125.5 -207.5l-143 -608h-254zM74 16h188
l135 584q32 138 137.5 224.5t243.5 86.5q120 0 172 -77t21 -209l-142 -609h189l147 639q46 193 -37.5 306.5t-271.5 113.5q-67 0 -128.5 -16.5t-96.5 -34t-69.5 -46.5t-40.5 -36.5t-17 -21.5l-31 12l27 110h-189z" />
    <glyph glyph-name="uni0145" unicode="&#x145;" horiz-adv-x="1579" 
d="M41 -16l330 1423h278l475 -1010l236 1010h254l-330 -1423h-270l-479 1028l-240 -1028h-254zM82 16h188l252 1094l512 -1094h226l313 1358h-189l-247 -1075l-508 1075h-234zM254 -446l289 383h278l-362 -383h-205zM319 -414h127l297 318h-184z" />
    <glyph glyph-name="uni0146" unicode="&#x146;" horiz-adv-x="1296" 
d="M33 -16l254 1091h254l-21 -90q133 123 336 123q202 0 295.5 -126t46.5 -335l-156 -663h-254l150 649q28 117 -14.5 181.5t-145.5 64.5q-126 0 -222.5 -79.5t-125.5 -207.5l-143 -608h-254zM74 16h188l135 584q32 138 137.5 224.5t243.5 86.5q120 0 172 -77t21 -209
l-142 -609h189l147 639q46 193 -37.5 306.5t-271.5 113.5q-67 0 -128.5 -16.5t-96.5 -34t-69.5 -46.5t-40.5 -36.5t-17 -21.5l-31 12l27 110h-189zM106 -446l289 383h279l-363 -383h-205zM172 -414h127l297 318h-184z" />
    <glyph glyph-name="Ncaron" unicode="&#x147;" horiz-adv-x="1579" 
d="M895 1516l-150 382h242l80 -157l152 157h247l-321 -382h-250zM915 1548h213l269 318h-166l-172 -183l-92 183h-172zM41 -16l330 1423h278l475 -1010l236 1010h254l-330 -1423h-270l-479 1028l-240 -1028h-254zM82 16h188l252 1094l512 -1094h226l313 1358h-189
l-247 -1075l-508 1075h-234z" />
    <glyph glyph-name="ncaron" unicode="&#x148;" horiz-adv-x="1296" 
d="M741 1182l-149 383h242l79 -158l152 158h248l-322 -383h-250zM762 1214h213l268 318h-166l-172 -182l-92 182h-172zM33 -16l254 1091h254l-21 -90q133 123 336 123q202 0 295.5 -126t46.5 -335l-156 -663h-254l150 649q28 117 -14.5 181.5t-145.5 64.5
q-126 0 -222.5 -79.5t-125.5 -207.5l-143 -608h-254zM74 16h188l135 584q32 138 137.5 224.5t243.5 86.5q120 0 172 -77t21 -209l-142 -609h189l147 639q46 193 -37.5 306.5t-271.5 113.5q-67 0 -128.5 -16.5t-96.5 -34t-69.5 -46.5t-40.5 -36.5t-17 -21.5l-31 12l27 110
h-189z" />
    <glyph glyph-name="Eng" unicode="&#x14a;" horiz-adv-x="1579" 
d="M840 -475q-67 0 -120.5 14.5t-83 34.5t-49 40.5t-25.5 35.5l-7 14l-2 10l53 230l31 2q3 -6 8 -16.5t24 -36.5t42 -46t61.5 -36.5t81.5 -16.5q67 0 106.5 48t55.5 120l14 62h-16l-479 1028l-240 -1028h-254l330 1423h278l475 -1010l236 1010h254l-283 -1219h2l-59 -256
q-46 -195 -158.5 -301t-275.5 -106zM840 -442q76 0 139.5 25.5t105.5 64t75 92t51 101t30 100.5l51 215h-2l283 1218h-189l-247 -1075l-508 1075h-234l-313 -1358h188l252 1094l512 -1094h37l-22 -102q-20 -91 -71.5 -142t-123.5 -51q-138 0 -225 134l-43 -183q4 -10 12 -21
t28 -28.5t46 -31t70.5 -23.5t97.5 -10z" />
    <glyph glyph-name="eng" unicode="&#x14b;" horiz-adv-x="1296" 
d="M598 -475q-67 0 -120.5 14.5t-83 34.5t-49 40.5t-25.5 35.5l-7 14l-2 10l54 230l30 2q3 -6 8 -16.5t24 -36.5t42 -46t61.5 -36.5t81.5 -16.5q67 0 106.5 48t55.5 120l19 82l145 629q28 117 -14.5 181.5t-145.5 64.5q-126 0 -222.5 -79.5t-125.5 -207.5l-143 -608h-254
l254 1091h254l-21 -90q133 123 336 123q202 0 295.5 -126t46.5 -335l-45 -194l-121 -521q-46 -195 -158.5 -301t-275.5 -106zM598 -442q76 0 139.5 25.5t105.5 64t75 92t51 101t30 100.5l121 520l45 194q46 193 -37.5 306.5t-271.5 113.5q-67 0 -128.5 -16.5t-96.5 -34
t-69.5 -46.5t-40.5 -36.5t-17 -21.5l-31 12l27 110h-189l-237 -1026h188l135 584q32 138 137.5 224.5t243.5 86.5q120 0 172 -77t21 -209l-146 -629l-18 -82q-20 -91 -71.5 -142t-123.5 -51q-138 0 -225 134l-43 -183q4 -10 12 -21t28 -28.5t46 -31t70.5 -23.5t97.5 -10z
" />
    <glyph glyph-name="Omacron" unicode="&#x14c;" horiz-adv-x="1644" 
d="M756 1546l51 217h600l-51 -217h-600zM797 1579h534l35 152h-535zM692 -47q-125 -2 -232.5 35t-183 104.5t-124.5 161.5t-57 206.5t20 239.5q44 206 181.5 377t331.5 268.5t400 94.5q208 3 359.5 -96.5t211 -272.5t9.5 -379q-33 -153 -122.5 -291t-212 -237t-275 -156
t-306.5 -55zM692 -14q197 -3 385.5 91.5t322 260t175.5 362.5q48 195 -8 359t-199 257.5t-340 90.5q-149 2 -295.5 -53t-264 -150.5t-203.5 -229t-118 -282.5q-48 -196 7 -359.5t197.5 -256.5t340.5 -90zM741 164q-151 0 -254 68.5t-141 190.5t-2 277q54 232 232.5 381.5
t402.5 149.5q228 0 339.5 -152t57.5 -387q-54 -233 -231 -380.5t-404 -147.5zM741 197q216 0 383.5 139.5t218.5 363.5q52 220 -50 359t-314 139q-213 0 -382 -142t-220 -364q-51 -220 50.5 -357.5t313.5 -137.5z" />
    <glyph glyph-name="omacron" unicode="&#x14d;" horiz-adv-x="1323" 
d="M516 1212l51 218h600l-51 -218h-600zM557 1245h535l34 152h-534zM532 -47q-98 0 -183 29.5t-145.5 82.5t-101 125.5t-48.5 158.5t12 183q36 156 146 288t264 209t315 77q163 0 283.5 -78t169.5 -212t13 -292q-36 -156 -146 -287.5t-264 -207.5t-315 -76zM532 -14
q115 0 230 43t208 116t161 174t94 213q34 147 -12 271.5t-158 197t-264 72.5q-154 0 -301.5 -73.5t-252.5 -200t-139 -275.5q-34 -147 11.5 -271t157.5 -195.5t265 -71.5zM578 152q-163 0 -249.5 110t-49.5 270q37 158 171.5 266.5t294.5 108.5q162 0 249 -111.5t50 -271.5
q-38 -157 -172.5 -264.5t-293.5 -107.5zM578 184q148 0 274 101t160 247q34 145 -43.5 243.5t-223.5 98.5q-149 0 -274.5 -101t-159.5 -249q-34 -143 43.5 -241.5t223.5 -98.5z" />
    <glyph glyph-name="Ohungarumlaut" unicode="&#x150;" horiz-adv-x="1644" 
d="M741 1516l289 382h320l-363 -382h-246zM1108 1516l311 382h320l-383 -382h-248zM807 1548h168l297 318h-225zM1178 1548h165l318 318h-225zM692 -47q-125 -2 -232.5 35t-183 104.5t-124.5 161.5t-57 206.5t20 239.5q44 206 181.5 377t331.5 268.5t400 94.5
q208 3 359.5 -96.5t211 -272.5t9.5 -379q-33 -153 -122.5 -291t-212 -237t-275 -156t-306.5 -55zM692 -14q197 -3 385.5 91.5t322 260t175.5 362.5q48 195 -8 359t-199 257.5t-340 90.5q-149 2 -295.5 -53t-264 -150.5t-203.5 -229t-118 -282.5q-48 -196 7 -359.5
t197.5 -256.5t340.5 -90zM741 164q-151 0 -254 68.5t-141 190.5t-2 277q54 232 232.5 381.5t402.5 149.5q228 0 339.5 -152t57.5 -387q-54 -233 -231 -380.5t-404 -147.5zM741 197q216 0 383.5 139.5t218.5 363.5q52 220 -50 359t-314 139q-213 0 -382 -142t-220 -364
q-51 -220 50.5 -357.5t313.5 -137.5z" />
    <glyph glyph-name="ohungarumlaut" unicode="&#x151;" horiz-adv-x="1323" 
d="M502 1182l289 383h319l-362 -383h-246zM868 1182l312 383h319l-383 -383h-248zM567 1214h168l297 318h-225zM938 1214h166l317 318h-225zM532 -47q-98 0 -183 29.5t-145.5 82.5t-101 125.5t-48.5 158.5t12 183q36 156 146 288t264 209t315 77q163 0 283.5 -78t169.5 -212
t13 -292q-36 -156 -146 -287.5t-264 -207.5t-315 -76zM532 -14q115 0 230 43t208 116t161 174t94 213q34 147 -12 271.5t-158 197t-264 72.5q-154 0 -301.5 -73.5t-252.5 -200t-139 -275.5q-34 -147 11.5 -271t157.5 -195.5t265 -71.5zM578 152q-163 0 -249.5 110t-49.5 270
q37 158 171.5 266.5t294.5 108.5q162 0 249 -111.5t50 -271.5q-38 -157 -172.5 -264.5t-293.5 -107.5zM578 184q148 0 274 101t160 247q34 145 -43.5 243.5t-223.5 98.5q-149 0 -274.5 -101t-159.5 -249q-34 -143 43.5 -241.5t223.5 -98.5z" />
    <glyph glyph-name="OE" unicode="&#x152;" horiz-adv-x="2451" 
d="M692 -47q-125 -2 -232.5 35t-183 104.5t-124.5 161.5t-57 206.5t20 239.5q44 206 181.5 377t331.5 268.5t400 94.5q278 3 449 -168l30 135h1049l-55 -242h-795l-70 -303h633l-57 -241h-631l-90 -396h805l-58 -241h-1060l30 131q-246 -165 -516 -162zM692 -14
q149 -1 295.5 52.5t272.5 156.5l-41 -179h995l41 177h-805l106 460h631l41 176h-633l86 369h795l39 176h-983l-39 -174q-77 101 -197 154.5t-268 52.5q-149 2 -295.5 -53t-264 -150.5t-203.5 -229t-118 -282.5q-48 -196 7 -359.5t197.5 -256.5t340.5 -90zM741 164
q-151 0 -254 68.5t-141 190.5t-2 277q54 232 232.5 381.5t402.5 149.5q220 0 332 -141t71 -365l-14 -66q-63 -223 -236 -359t-391 -136zM741 197q208 0 372 129.5t222 341.5l15 63q38 209 -64.5 338t-306.5 129q-213 0 -382 -142t-220 -364q-51 -220 50.5 -357.5
t313.5 -137.5z" />
    <glyph glyph-name="oe" unicode="&#x153;" horiz-adv-x="2166" 
d="M1729 1106q142 0 242.5 -70t139 -192t3.5 -269l-29 -114h-842q-6 -132 70.5 -205.5t220.5 -73.5q51 0 103.5 6t94.5 16t81 22t68 23.5t51 21.5t34 16l12 6l17 -21l-45 -198l-6 -8q-6 -5 -17.5 -12.5t-53.5 -27t-90.5 -34.5t-129 -27t-168.5 -12q-154 0 -266.5 56.5
t-169.5 162.5q-107 -104 -243 -161.5t-274 -57.5q-98 0 -183 29.5t-145.5 82.5t-101 125.5t-48.5 158.5t12 183q36 156 146 288t264 209t315 77q138 0 247.5 -58t171.5 -163q105 105 241.5 163t277.5 58zM2081 584q33 138 -1.5 250t-126.5 175.5t-224 63.5
q-146 0 -284.5 -64t-242.5 -180q-52 115 -161 179.5t-250 64.5q-154 0 -301.5 -73.5t-252.5 -200t-139 -275.5q-34 -147 11.5 -271t157.5 -195.5t265 -71.5q142 0 282 63.5t245 177.5q46 -117 156 -179t270 -62q94 0 175.5 12.5t135 32.5t79.5 32.5t44 24.5l35 158
q-39 -20 -89 -38.5t-143.5 -38t-187.5 -19.5q-167 0 -253 91.5t-69 252.5h848zM1659 926q62 0 109.5 -16.5t74 -44t43 -58.5t21 -66.5t4.5 -60.5t-4 -47h-652q5 23 21.5 56t51 75.5t79 77.5t111 59.5t141.5 24.5zM745 907q159 0 246.5 -106.5t55.5 -261.5v-4
q-1 -2 -2.5 -6.5t-2.5 -6.5v-2q-2 -4 -2 -10q-41 -152 -174 -255t-288 -103q-163 0 -249.5 110t-49.5 270q37 158 171.5 266.5t294.5 108.5zM1878 666q2 29 -0.5 56t-15.5 59.5t-35.5 56t-65.5 39.5t-102 16q-72 0 -135 -22.5t-105.5 -59.5t-70 -72.5t-45.5 -72.5h575z
M1016 549q26 138 -52 231.5t-219 93.5q-149 0 -274.5 -101t-159.5 -249q-34 -143 43.5 -241.5t223.5 -98.5t270 97.5t162 240.5v4q1 2 2 6.5t2 6.5v2q0 2 1 4.5t1 3.5z" />
    <glyph glyph-name="Racute" unicode="&#x154;" horiz-adv-x="1411" 
d="M758 1516l289 382h319l-362 -382h-246zM823 1548h168l297 318h-225zM41 -16l330 1423h624q231 0 343.5 -122t66.5 -324q-35 -154 -145.5 -262.5t-274.5 -151.5l287 -563h-316l-272 538h-262l-125 -538h-256zM82 16h190l125 539h308l272 -539h242l-283 553q171 34 286 139
t150 261q43 186 -59.5 295.5t-317.5 109.5h-600zM436 727l109 471h387q135 0 202 -66t42 -176q-25 -106 -118.5 -167.5t-228.5 -61.5h-393zM477 760h352q124 0 208 55t106 150q22 94 -34 147t-177 53h-363z" />
    <glyph glyph-name="racute" unicode="&#x155;" horiz-adv-x="839" 
d="M483 1182l289 383h320l-363 -383h-246zM549 1214h168l297 318h-226zM20 -16l254 1093h254l-34 -149q80 87 207.5 135.5t267.5 44.5l-49 -215q-195 3 -335.5 -96t-183.5 -271l-127 -542h-254zM61 16h189l119 519q46 177 188 282.5t338 108.5l33 149q-146 -4 -269.5 -66.5
t-183.5 -160.5l-31 12l43 184h-188z" />
    <glyph glyph-name="uni0156" unicode="&#x156;" horiz-adv-x="1411" 
d="M41 -16l330 1423h624q231 0 343.5 -122t66.5 -324q-35 -154 -145.5 -262.5t-274.5 -151.5l287 -563h-316l-272 538h-262l-125 -538h-256zM82 16h190l125 539h308l272 -539h242l-283 553q171 34 286 139t150 261q43 186 -59.5 295.5t-317.5 109.5h-600zM436 727l109 471
h387q135 0 202 -66t42 -176q-25 -106 -118.5 -167.5t-228.5 -61.5h-393zM477 760h352q124 0 208 55t106 150q22 94 -34 147t-177 53h-363zM205 -446l289 383h278l-362 -383h-205zM270 -414h127l297 318h-184z" />
    <glyph glyph-name="uni0157" unicode="&#x157;" horiz-adv-x="839" 
d="M20 -16l254 1093h254l-34 -149q80 87 207.5 135.5t267.5 44.5l-49 -215q-195 3 -335.5 -96t-183.5 -271l-127 -542h-254zM61 16h189l119 519q46 177 188 282.5t338 108.5l33 149q-146 -4 -269.5 -66.5t-183.5 -160.5l-31 12l43 184h-188zM-276 -446l288 383h279
l-363 -383h-204zM-211 -414h127l297 318h-184z" />
    <glyph glyph-name="Rcaron" unicode="&#x158;" horiz-adv-x="1411" 
d="M762 1516l-150 382h242l80 -157l151 157h248l-321 -382h-250zM782 1548h213l269 318h-166l-172 -183l-92 183h-172zM41 -16l330 1423h624q231 0 343.5 -122t66.5 -324q-35 -154 -145.5 -262.5t-274.5 -151.5l287 -563h-316l-272 538h-262l-125 -538h-256zM82 16h190
l125 539h308l272 -539h242l-283 553q171 34 286 139t150 261q43 186 -59.5 295.5t-317.5 109.5h-600zM436 727l109 471h387q135 0 202 -66t42 -176q-25 -106 -118.5 -167.5t-228.5 -61.5h-393zM477 760h352q124 0 208 55t106 150q22 94 -34 147t-177 53h-363z" />
    <glyph glyph-name="rcaron" unicode="&#x159;" horiz-adv-x="839" 
d="M487 1182l-149 383h242l79 -158l152 158h248l-322 -383h-250zM508 1214h213l268 318h-166l-172 -182l-92 182h-172zM20 -16l254 1093h254l-34 -149q80 87 207.5 135.5t267.5 44.5l-49 -215q-195 3 -335.5 -96t-183.5 -271l-127 -542h-254zM61 16h189l119 519
q46 177 188 282.5t338 108.5l33 149q-146 -4 -269.5 -66.5t-183.5 -160.5l-31 12l43 184h-188z" />
    <glyph glyph-name="Sacute" unicode="&#x15a;" horiz-adv-x="1191" 
d="M639 1516l289 382h319l-362 -382h-246zM705 1548h167l297 318h-225zM469 -49q-156 0 -295.5 44t-196.5 111l64 267q75 -83 191.5 -130.5t242.5 -47.5q282 0 322 178q16 66 -34 109t-192 108q-67 31 -114.5 57.5t-90.5 59.5t-68 68t-40.5 78t-15 95t15.5 115
q40 177 192.5 281t370.5 104q105 2 211 -30.5t170 -86.5l-65 -282q-47 71 -139.5 112t-204.5 41q-114 -2 -187 -41t-86 -106q-5 -19 -5 -34.5t1 -28.5t10 -26.5t15.5 -22.5t24.5 -21.5t30 -20t40 -21t45 -21.5t54 -25q58 -26 101 -49t84 -50.5t67.5 -55t47.5 -61.5t29.5 -72
t7.5 -84t-13 -100q-44 -190 -203 -300.5t-387 -110.5zM469 -16q217 0 366.5 103.5t190.5 283.5q13 58 13.5 105t-13.5 86t-37.5 70t-65 61.5t-87.5 55.5t-113 56q-40 18 -61.5 28t-52 26t-45.5 26.5t-34.5 26.5t-27.5 31t-15 33.5t-6.5 40t6.5 46.5q19 80 99.5 125.5
t206.5 46.5q97 0 182.5 -30.5t144.5 -86.5l45 201q-62 45 -156 71t-188 25q-205 0 -349 -98t-181 -262q-14 -58 -15 -105t12.5 -86.5t36 -71t62.5 -62t85.5 -56t111.5 -56.5q74 -33 117 -56.5t79.5 -54t47.5 -64.5t1 -78q-50 -203 -354 -203q-116 0 -225 38.5t-191 108.5
l-45 -194q55 -52 178.5 -91.5t276.5 -39.5z" />
    <glyph glyph-name="sacute" unicode="&#x15b;" horiz-adv-x="894" 
d="M512 1182l289 383h319l-362 -383h-246zM578 1214h167l297 318h-225zM287 -47q-52 0 -104.5 10.5t-90 26t-67.5 31t-45 25.5l-15 11l-6 17l51 217l29 6q4 -5 12.5 -12.5t35.5 -27.5t56.5 -35t74.5 -27.5t91 -12.5q96 0 154 26.5t69 74.5q9 44 -20 80.5t-123 95.5
q-29 19 -41 26.5t-38 26t-37.5 29t-31.5 30t-28 35t-19 38.5t-13 45.5t-1 50.5t8 59q32 137 146.5 222t267.5 85q97 0 181 -25.5t116 -54.5l-61 -268q-17 51 -85.5 85t-148.5 34q-155 0 -174 -82q-8 -35 19 -61t132 -95l12 -7.5t10.5 -7t12.5 -8.5q34 -23 58 -42t47 -43
t36 -48.5t21 -54t7 -65t-11 -76.5q-37 -158 -165 -246t-322 -88zM287 -14q183 0 302.5 81.5t151.5 227.5q9 38 10.5 69t-5 57t-17.5 47t-31 42t-42.5 38.5t-55.5 39.5q-18 12 -44 29t-39.5 26t-32.5 22.5t-28.5 21t-22 18t-18 18t-11.5 17.5t-7.5 19.5t-1.5 20.5t2 23
q27 106 207 106q63 0 121 -19.5t96 -53.5l41 176q-38 25 -107.5 43t-152.5 18q-142 0 -247.5 -78t-133.5 -204q-8 -34 -7.5 -64.5t5 -53t21 -46.5t29 -38.5t41 -36t44.5 -32t52 -33.5q94 -59 133 -105.5t26 -107.5q-13 -60 -80.5 -92t-175.5 -32q-88 0 -158 33t-114 73
l-43 -180q140 -90 293 -90z" />
    <glyph glyph-name="Scedilla" unicode="&#x15e;" horiz-adv-x="1191" 
d="M178 -430l37 151q52 -3 90.5 15.5t44.5 46.5q5 23 -16 37t-44 17l-24 3l-12 25l49 100q-109 15 -197.5 53.5t-128.5 87.5l64 267q75 -83 191.5 -130.5t242.5 -47.5q282 0 322 178q16 66 -34 109t-192 108q-67 31 -114.5 57.5t-90.5 59.5t-68 68t-40.5 78t-15 95t15.5 115
q40 177 192.5 281t370.5 104q105 2 211 -30.5t170 -86.5l-65 -282q-47 71 -139.5 112t-204.5 41q-114 -2 -187 -41t-86 -106q-5 -19 -5 -34.5t1 -28.5t10 -26.5t15.5 -22.5t24.5 -21.5t30 -20t40 -21t45 -21.5t54 -25q58 -26 101 -49t84 -50.5t67.5 -55t47.5 -61.5t29.5 -72
t7.5 -84t-13 -100q-44 -190 -203 -300.5t-387 -110.5h8l-28 -55q18 -5 34.5 -15t34.5 -26.5t25.5 -43.5t1.5 -59q-22 -89 -120 -137t-247 -45zM219 -397q119 3 197.5 45t95.5 112q5 25 -2.5 45t-22 31.5t-30 19.5t-26.5 10l-11 3l-10 25l47 90h12q217 0 366.5 103.5
t190.5 283.5q13 58 13.5 105t-13.5 86t-37.5 70t-65 61.5t-87.5 55.5t-113 56q-40 18 -61.5 28t-52 26t-45.5 26.5t-34.5 26.5t-27.5 31t-15 33.5t-6.5 40t6.5 46.5q19 80 99.5 125.5t206.5 46.5q97 0 182.5 -30.5t144.5 -86.5l45 201q-62 45 -156 71t-188 25
q-205 0 -349 -98t-181 -262q-14 -58 -15 -105t12.5 -86.5t36 -71t62.5 -62t85.5 -56t111.5 -56.5q74 -33 117 -56.5t79.5 -54t47.5 -64.5t1 -78q-50 -203 -354 -203q-116 0 -225 38.5t-191 108.5l-45 -194q43 -43 137 -78t201 -45l-59 -123q17 -3 32 -8.5t31.5 -16t24 -28.5
t2.5 -41q-9 -35 -48.5 -59t-94.5 -27z" />
    <glyph glyph-name="scedilla" unicode="&#x15f;" horiz-adv-x="894" 
d="M33 -430l37 151q52 -3 90.5 15.5t44.5 46.5q5 23 -16 37t-45 17l-23 3l-12 25l51 104q-52 13 -101 35t-71 38l-23 15l-6 17l51 217l29 6q4 -5 12.5 -12.5t35.5 -27.5t56.5 -35t74.5 -27.5t91 -12.5q96 0 154 26.5t69 74.5q9 44 -20 80.5t-123 95.5q-29 19 -41 26.5
t-38 26t-37.5 29t-31.5 30t-28 35t-19 38.5t-13 45.5t-1 50.5t8 59q32 137 146.5 222t267.5 85q97 0 181 -25.5t116 -54.5l-61 -268q-17 51 -85.5 85t-148.5 34q-155 0 -174 -82q-8 -35 19 -61t132 -95l12 -7.5t10.5 -7t12.5 -8.5q34 -23 58 -42t47 -43t36 -48.5t21 -54
t7 -65t-11 -76.5q-34 -147 -149.5 -234.5t-290.5 -99.5l-31 -57q18 -5 34.5 -15t34.5 -26.5t25.5 -43.5t1.5 -59q-22 -89 -119.5 -137t-246.5 -45zM74 -397q119 3 197.5 45t95.5 112q5 25 -2.5 45t-22.5 31.5t-30 19.5t-26 10l-12 3l-10 25l49 92q173 6 285 87.5t143 221.5
q9 38 10.5 69t-5 57t-17.5 47t-31 42t-42.5 38.5t-55.5 39.5q-18 12 -44 29t-39.5 26t-32.5 22.5t-28.5 21t-22 18t-18 18t-11.5 17.5t-7.5 19.5t-1.5 20.5t2 23q27 106 207 106q63 0 121 -19.5t96 -53.5l41 176q-38 25 -107.5 43t-152.5 18q-142 0 -247.5 -78t-133.5 -204
q-8 -34 -7.5 -64.5t5 -53t21 -46.5t29 -38.5t41 -36t44.5 -32t52 -33.5q94 -59 133 -105.5t26 -107.5q-13 -60 -80.5 -92t-175.5 -32q-88 0 -158 33t-114 73l-43 -180q113 -67 215 -84l-62 -123q17 -3 32.5 -8.5t32 -16t24 -28.5t2.5 -41q-9 -35 -49 -59t-95 -27z" />
    <glyph glyph-name="Scaron" unicode="&#x160;" horiz-adv-x="1191" 
d="M643 1516l-149 382h241l80 -157l152 157h247l-321 -382h-250zM664 1548h213l268 318h-166l-172 -183l-92 183h-172zM469 -49q-156 0 -295.5 44t-196.5 111l64 267q75 -83 191.5 -130.5t242.5 -47.5q282 0 322 178q16 66 -34 109t-192 108q-67 31 -114.5 57.5t-90.5 59.5
t-68 68t-40.5 78t-15 95t15.5 115q40 177 192.5 281t370.5 104q105 2 211 -30.5t170 -86.5l-65 -282q-47 71 -139.5 112t-204.5 41q-114 -2 -187 -41t-86 -106q-5 -19 -5 -34.5t1 -28.5t10 -26.5t15.5 -22.5t24.5 -21.5t30 -20t40 -21t45 -21.5t54 -25q58 -26 101 -49
t84 -50.5t67.5 -55t47.5 -61.5t29.5 -72t7.5 -84t-13 -100q-44 -190 -203 -300.5t-387 -110.5zM469 -16q217 0 366.5 103.5t190.5 283.5q13 58 13.5 105t-13.5 86t-37.5 70t-65 61.5t-87.5 55.5t-113 56q-40 18 -61.5 28t-52 26t-45.5 26.5t-34.5 26.5t-27.5 31t-15 33.5
t-6.5 40t6.5 46.5q19 80 99.5 125.5t206.5 46.5q97 0 182.5 -30.5t144.5 -86.5l45 201q-62 45 -156 71t-188 25q-205 0 -349 -98t-181 -262q-14 -58 -15 -105t12.5 -86.5t36 -71t62.5 -62t85.5 -56t111.5 -56.5q74 -33 117 -56.5t79.5 -54t47.5 -64.5t1 -78
q-50 -203 -354 -203q-116 0 -225 38.5t-191 108.5l-45 -194q55 -52 178.5 -91.5t276.5 -39.5z" />
    <glyph glyph-name="scaron" unicode="&#x161;" horiz-adv-x="894" 
d="M516 1182l-149 383h241l80 -158l152 158h247l-321 -383h-250zM537 1214h213l268 318h-166l-172 -182l-92 182h-172zM287 -47q-52 0 -104.5 10.5t-90 26t-67.5 31t-45 25.5l-15 11l-6 17l51 217l29 6q4 -5 12.5 -12.5t35.5 -27.5t56.5 -35t74.5 -27.5t91 -12.5
q96 0 154 26.5t69 74.5q9 44 -20 80.5t-123 95.5q-29 19 -41 26.5t-38 26t-37.5 29t-31.5 30t-28 35t-19 38.5t-13 45.5t-1 50.5t8 59q32 137 146.5 222t267.5 85q97 0 181 -25.5t116 -54.5l-61 -268q-17 51 -85.5 85t-148.5 34q-155 0 -174 -82q-8 -35 19 -61t132 -95
l12 -7.5t10.5 -7t12.5 -8.5q34 -23 58 -42t47 -43t36 -48.5t21 -54t7 -65t-11 -76.5q-37 -158 -165 -246t-322 -88zM287 -14q183 0 302.5 81.5t151.5 227.5q9 38 10.5 69t-5 57t-17.5 47t-31 42t-42.5 38.5t-55.5 39.5q-18 12 -44 29t-39.5 26t-32.5 22.5t-28.5 21t-22 18
t-18 18t-11.5 17.5t-7.5 19.5t-1.5 20.5t2 23q27 106 207 106q63 0 121 -19.5t96 -53.5l41 176q-38 25 -107.5 43t-152.5 18q-142 0 -247.5 -78t-133.5 -204q-8 -34 -7.5 -64.5t5 -53t21 -46.5t29 -38.5t41 -36t44.5 -32t52 -33.5q94 -59 133 -105.5t26 -107.5
q-13 -60 -80.5 -92t-175.5 -32q-88 0 -158 33t-114 73l-43 -180q140 -90 293 -90z" />
    <glyph glyph-name="uni0162" unicode="&#x162;" horiz-adv-x="1359" 
d="M319 -430l37 151q52 -3 91 15.5t45 46.5q5 23 -16 37t-44 17l-24 3l-13 25l60 119h-29l274 1181h-487l55 242h1229l-55 -242h-488l-274 -1181h-43l-47 -88q18 -5 34.5 -15t34.5 -26.5t25.5 -43.5t1.5 -59q-22 -89 -120 -137t-247 -45zM360 -397q119 3 197.5 45t95.5 112
q5 25 -2.5 45t-22 31.5t-30 19.5t-26.5 10l-11 3l-10 25l65 122h39l275 1182h487l39 176h-1163l-39 -176h487l-274 -1182h41l-74 -147q17 -3 32 -8.5t31.5 -16t24 -28.5t2.5 -41q-9 -35 -48.5 -59t-94.5 -27z" />
    <glyph glyph-name="uni0163" unicode="&#x163;" horiz-adv-x="1028" 
d="M152 -430l36 151q52 -3 91 15.5t45 46.5q5 23 -16 37t-44 17l-24 3l-13 25l60 119h-13l211 907h-440l825 571l-82 -358h363l-49 -213h-363l-211 -907h-59l-47 -88q18 -5 34.5 -15t34.5 -26.5t25.5 -43.5t1.5 -59q-22 -89 -119.5 -137t-246.5 -45zM193 -397q119 3 197 45
t95 112q5 25 -2.5 45t-22 31.5t-30 19.5t-26.5 10l-11 3l-10 25l66 122h55l211 908h362l33 147h-362l73 318l-669 -465h374l-211 -908h25l-74 -147q17 -3 32 -8.5t31.5 -16t24 -28.5t2.5 -41q-9 -35 -48.5 -59t-94.5 -27z" />
    <glyph glyph-name="Tcaron" unicode="&#x164;" horiz-adv-x="1359" 
d="M784 1516l-149 382h242l79 -157l152 157h248l-322 -382h-250zM805 1548h213l268 318h-166l-172 -183l-92 183h-172zM426 -16l274 1181h-487l55 242h1229l-55 -242h-488l-274 -1181h-254zM467 16h188l275 1182h487l39 176h-1163l-39 -176h487z" />
    <glyph glyph-name="tcaron" unicode="&#x165;" horiz-adv-x="1028" 
d="M1249 1444l-223 -340h125l-49 -213h-363l-211 -907h-254l211 907h-440l825 571l-82 -358h64l133 340h264zM1006 1411l-109 -287h104l187 287h-182zM1077 924l33 147h-362l73 318l-669 -465h374l-211 -908h189l211 908h362z" />
    <glyph glyph-name="Tbar" unicode="&#x166;" horiz-adv-x="1359" 
d="M426 -16l180 772h-248l52 217h245l45 192h-487l55 242h1229l-55 -242h-488l-45 -192h244l-51 -217h-242l-180 -772h-254zM467 16h188l181 772h241l35 152h-244l62 258h487l39 176h-1163l-39 -176h487l-61 -258h-246l-35 -152h248z" />
    <glyph glyph-name="tbar" unicode="&#x167;" horiz-adv-x="1028" 
d="M274 -16l123 532h-233l51 217h234l36 158h-440l825 571l-82 -358h363l-49 -213h-363l-37 -158h256l-51 -217h-256l-123 -532h-254zM315 16h189l123 533h256l35 151h-256l53 224h362l33 147h-362l73 318l-669 -465h374l-53 -224h-233l-35 -151h233z" />
    <glyph glyph-name="Umacron" unicode="&#x16a;" horiz-adv-x="1445" 
d="M655 1546l52 217h600l-52 -217h-600zM696 1579h535l35 152h-535zM594 -47q-283 0 -402 151.5t-55 430.5l203 872h256l-201 -877q-37 -157 28 -243t220 -86q170 0 271 83t141 255l200 868h256l-202 -881q-65 -277 -249.5 -425t-465.5 -148zM594 -14q268 0 444 141.5
t238 407.5l194 839h-190l-193 -844q-43 -183 -152.5 -272.5t-291.5 -89.5q-170 0 -245.5 99t-35.5 272l193 835h-190l-195 -848q-61 -262 48 -401t376 -139z" />
    <glyph glyph-name="umacron" unicode="&#x16b;" horiz-adv-x="1249" 
d="M479 1212l51 218h600l-51 -218h-600zM520 1245h535l35 152h-535zM496 -49q-30 0 -52.5 1t-62.5 5.5t-70.5 13t-68 26t-64 41t-50.5 60.5t-34.5 83t-9 110.5t19.5 140.5l150 643h254l-152 -657q-1 -5 -3 -13.5t-4 -33.5t0.5 -47.5t14 -50.5t31.5 -48t57.5 -33.5
t88.5 -13.5q53 0 98 13.5t75 35.5t54.5 48.5t38 53t22.5 48.5t12 35l3 14l151 649h254l-149 -651q-111 -473 -604 -473zM496 -16q39 0 69 1.5t84 11t97 26t95.5 49.5t92.5 79t76 118.5t57 162.5l141 610h-188l-143 -624q-1 -6 -3.5 -15.5t-13 -38t-25 -54.5t-42 -57.5
t-60.5 -54t-83 -38t-109 -15.5q-60 0 -104.5 15.5t-67.5 40.5t-37 55t-15.5 59.5t-0.5 54.5t4 40l4 16l143 616h-188l-142 -618q-16 -70 -18 -128.5t7 -100.5t30.5 -76t45 -55.5t57.5 -37.5t62 -23.5t65 -12t59 -5.5t51 -1z" />
    <glyph glyph-name="Uring" unicode="&#x16e;" horiz-adv-x="1445" 
d="M948 1505q-97 0 -147.5 66.5t-28.5 163.5q22 95 101.5 160t173.5 65q95 0 147.5 -68.5t30.5 -165.5q-22 -92 -102.5 -156.5t-174.5 -64.5zM948 1538q83 0 154 57.5t90 139.5t-23 137t-122 55q-83 0 -153 -58t-89 -143q-19 -80 22.5 -134t120.5 -54zM983 1653
q-34 0 -52.5 24t-10.5 58q7 34 33.5 55.5t58.5 21.5q34 0 53 -25.5t12 -60.5q-8 -31 -35 -52t-59 -21zM983 1686q20 0 38.5 14.5t22.5 34.5t-4.5 32.5t-27.5 12.5q-21 0 -38.5 -15.5t-21.5 -38.5q-4 -19 4 -29.5t27 -10.5zM594 -47q-283 0 -402 151.5t-55 430.5l203 872h256
l-201 -877q-37 -157 28 -243t220 -86q170 0 271 83t141 255l200 868h256l-202 -881q-65 -277 -249.5 -425t-465.5 -148zM594 -14q268 0 444 141.5t238 407.5l194 839h-190l-193 -844q-43 -183 -152.5 -272.5t-291.5 -89.5q-170 0 -245.5 99t-35.5 272l193 835h-190
l-195 -848q-61 -262 48 -401t376 -139z" />
    <glyph glyph-name="uring" unicode="&#x16f;" horiz-adv-x="1249" 
d="M772 1171q-97 0 -147.5 66.5t-28.5 163.5q22 95 101 160t173 65q95 0 148 -68t31 -165q-22 -92 -102.5 -157t-174.5 -65zM772 1204q83 0 154 57.5t90 139.5q19 81 -23.5 136.5t-122.5 55.5q-83 0 -152.5 -57.5t-88.5 -142.5q-19 -80 22.5 -134.5t120.5 -54.5zM807 1319
q-34 0 -52.5 24t-11.5 58t34 56t59 22q34 0 53 -25.5t12 -60.5q-8 -31 -35 -52.5t-59 -21.5zM807 1352q20 0 38.5 14.5t22.5 34.5t-4.5 32.5t-27.5 12.5q-21 0 -38.5 -15t-21.5 -38q-5 -19 3.5 -30t27.5 -11zM496 -49q-30 0 -52.5 1t-62.5 5.5t-70.5 13t-68 26t-64 41
t-50.5 60.5t-34.5 83t-9 110.5t19.5 140.5l150 643h254l-152 -657q-1 -5 -3 -13.5t-4 -33.5t0.5 -47.5t14 -50.5t31.5 -48t57.5 -33.5t88.5 -13.5q53 0 98 13.5t75 35.5t54.5 48.5t38 53t22.5 48.5t12 35l3 14l151 649h254l-149 -651q-111 -473 -604 -473zM496 -16
q39 0 69 1.5t84 11t97 26t95.5 49.5t92.5 79t76 118.5t57 162.5l141 610h-188l-143 -624q-1 -6 -3.5 -15.5t-13 -38t-25 -54.5t-42 -57.5t-60.5 -54t-83 -38t-109 -15.5q-60 0 -104.5 15.5t-67.5 40.5t-37 55t-15.5 59.5t-0.5 54.5t4 40l4 16l143 616h-188l-142 -618
q-16 -70 -18 -128.5t7 -100.5t30.5 -76t45 -55.5t57.5 -37.5t62 -23.5t65 -12t59 -5.5t51 -1z" />
    <glyph glyph-name="Uhungarumlaut" unicode="&#x170;" horiz-adv-x="1445" 
d="M641 1516l289 382h319l-362 -382h-246zM1008 1516l311 382h319l-383 -382h-247zM707 1548h167l297 318h-225zM1077 1548h166l318 318h-226zM594 -47q-283 0 -402 151.5t-55 430.5l203 872h256l-201 -877q-37 -157 28 -243t220 -86q170 0 271 83t141 255l200 868h256
l-202 -881q-65 -277 -249.5 -425t-465.5 -148zM594 -14q268 0 444 141.5t238 407.5l194 839h-190l-193 -844q-43 -183 -152.5 -272.5t-291.5 -89.5q-170 0 -245.5 99t-35.5 272l193 835h-190l-195 -848q-61 -262 48 -401t376 -139z" />
    <glyph glyph-name="uhungarumlaut" unicode="&#x171;" horiz-adv-x="1249" 
d="M465 1182l289 383h319l-362 -383h-246zM831 1182l312 383h319l-383 -383h-248zM530 1214h168l297 318h-225zM901 1214h166l317 318h-225zM496 -49q-30 0 -52.5 1t-62.5 5.5t-70.5 13t-68 26t-64 41t-50.5 60.5t-34.5 83t-9 110.5t19.5 140.5l150 643h254l-152 -657
q-1 -5 -3 -13.5t-4 -33.5t0.5 -47.5t14 -50.5t31.5 -48t57.5 -33.5t88.5 -13.5q53 0 98 13.5t75 35.5t54.5 48.5t38 53t22.5 48.5t12 35l3 14l151 649h254l-149 -651q-111 -473 -604 -473zM496 -16q39 0 69 1.5t84 11t97 26t95.5 49.5t92.5 79t76 118.5t57 162.5l141 610
h-188l-143 -624q-1 -6 -3.5 -15.5t-13 -38t-25 -54.5t-42 -57.5t-60.5 -54t-83 -38t-109 -15.5q-60 0 -104.5 15.5t-67.5 40.5t-37 55t-15.5 59.5t-0.5 54.5t4 40l4 16l143 616h-188l-142 -618q-16 -70 -18 -128.5t7 -100.5t30.5 -76t45 -55.5t57.5 -37.5t62 -23.5t65 -12
t59 -5.5t51 -1z" />
    <glyph glyph-name="Uogonek" unicode="&#x172;" horiz-adv-x="1445" 
d="M662 -459q-33 -1 -71.5 5t-82 24t-75.5 46t-47 76t-1 107q20 82 96 162q-224 29 -312.5 177t-31.5 397l203 872h256l-201 -877q-37 -157 28 -243t220 -86q170 0 271 83t141 255l200 868h256l-202 -881q-58 -252 -215.5 -397.5t-399.5 -171.5q-82 -92 -90 -135
q-9 -41 13.5 -55t95.5 -13zM637 -426l35 147q-62 3 -86.5 29t-14.5 80q13 56 107 160q235 22 388 161t210 384l194 839h-190l-193 -844q-43 -183 -152.5 -272.5t-291.5 -89.5q-170 0 -245.5 99t-35.5 272l193 835h-190l-195 -848q-59 -254 39.5 -391.5t345.5 -146.5
q-114 -102 -137 -197q-13 -48 -2 -84.5t32.5 -61t56 -40t67 -23t65.5 -8.5z" />
    <glyph glyph-name="uogonek" unicode="&#x173;" horiz-adv-x="1249" 
d="M569 -492q-26 -1 -57.5 3.5t-68.5 15.5t-67.5 30.5t-54.5 48.5t-31 69t3 92q21 95 121 186q-203 17 -282 139t-28 340l150 643h254l-152 -657q-1 -5 -3 -13.5t-4 -33.5t0.5 -47.5t14 -50.5t31.5 -48t57.5 -33.5t88.5 -13.5q53 0 98 13.5t75 35.5t54.5 48.5t38 53
t22.5 48.5t12 35l3 14l151 649h254l-149 -651q-46 -200 -163.5 -317t-301.5 -146q-111 -118 -123 -172q-9 -41 13.5 -55t95.5 -13zM545 -459l35 148q-62 3 -86.5 29t-14.5 79q17 73 139 195q360 53 449 440l141 610h-188l-143 -624q-1 -6 -3.5 -15.5t-13 -38t-25 -54.5
t-42 -57.5t-60.5 -54t-83 -38t-109 -15.5q-60 0 -104.5 15.5t-67.5 40.5t-37 55t-15.5 59.5t-0.5 54.5t4 40l4 16l143 616h-188l-142 -618q-54 -225 37.5 -336t325.5 -108q0 -1 -16.5 -12.5t-38.5 -31t-46 -45t-44.5 -61t-28.5 -72.5q-13 -48 -2 -84.5t32.5 -61t56 -40
t67 -23t65.5 -8.5z" />
    <glyph glyph-name="Wcircumflex" unicode="&#x174;" horiz-adv-x="2117" 
d="M924 1516l321 382h250l150 -382h-242l-78 157l-154 -157h-247zM993 1548h166l174 183l90 -183h172l-120 318h-213zM358 -16l-114 1423h278l64 -1024l512 1024h301l51 -1026l539 1026h290l-770 -1423h-284l-54 1026l-520 -1026h-293zM387 16h244l565 1117l61 -1117h232
l737 1358h-217l-584 -1116l-59 1116h-248l-557 -1114l-72 1114h-208z" />
    <glyph glyph-name="wcircumflex" unicode="&#x175;" horiz-adv-x="1529" 
d="M553 1182l321 383h250l150 -383h-242l-78 157l-153 -157h-248zM623 1214h165l175 183l90 -183h172l-121 318h-213zM319 -131l-153 1206h264l66 -577l407 647l129 -651l318 581h270l-711 -1204l-135 709zM340 -37l451 703l135 -705l637 1081h-193l-354 -643l-129 660
l-412 -660l-74 643h-198z" />
    <glyph glyph-name="Ycircumflex" unicode="&#x176;" horiz-adv-x="1384" 
d="M557 1516l322 382h249l150 -382h-242l-78 157l-153 -157h-248zM627 1548h166l174 183l90 -183h172l-121 318h-213zM436 -16l144 610l-365 813h287l243 -561l502 561h332l-743 -819l-142 -604h-258zM477 16h193l137 588l698 770h-241l-527 -590l-256 590h-217l348 -776z
" />
    <glyph glyph-name="ycircumflex" unicode="&#x177;" horiz-adv-x="1200" 
d="M387 1182l322 383h249l150 -383h-242l-78 157l-153 -157h-248zM457 1214h166l174 183l90 -183h172l-121 318h-213zM-70 -442l437 594l-224 923h265l153 -653l457 653h297l-1084 -1517h-301zM-4 -410h219l1034 1452h-215l-489 -698l-162 698h-199l219 -899z" />
    <glyph glyph-name="Ydieresis" unicode="&#x178;" horiz-adv-x="1384" 
d="M721 1540q-55 0 -87 39.5t-20 93.5q12 53 58 90t100 37t84 -39.5t18 -95.5q-12 -53 -56.5 -89t-96.5 -36zM1114 1540q-55 0 -86.5 39.5t-19.5 93.5q12 53 57.5 90t99.5 37t84.5 -40t18.5 -95q-12 -52 -56.5 -88.5t-97.5 -36.5zM721 1573q40 0 76 29.5t45 70.5
q9 40 -11.5 67t-58.5 27q-41 0 -78.5 -30.5t-46.5 -71.5q-9 -38 12.5 -65t61.5 -27zM1114 1573q40 0 76 29.5t45 70.5q9 40 -11.5 67t-58.5 27q-41 0 -78.5 -30.5t-46.5 -71.5q-9 -38 12.5 -65t61.5 -27zM436 -16l144 610l-365 813h287l243 -561l502 561h332l-743 -819
l-142 -604h-258zM477 16h193l137 588l698 770h-241l-527 -590l-256 590h-217l348 -776z" />
    <glyph glyph-name="Zacute" unicode="&#x179;" horiz-adv-x="1400" 
d="M801 1516l289 382h319l-362 -382h-246zM866 1548h168l297 318h-225zM10 -16l56 233l1003 948h-745l55 242h1102l-54 -233l-997 -949h805l-57 -241h-1168zM51 16h1102l41 177h-846l1051 997l41 184h-1037l-38 -176h786l-1057 -997z" />
    <glyph glyph-name="zacute" unicode="&#x17a;" horiz-adv-x="1179" 
d="M612 1182l289 383h320l-363 -383h-246zM678 1214h168l297 318h-225zM-41 -16l41 176l776 692h-575l53 225h946l-45 -196l-754 -672h619l-53 -225h-1008zM0 16h942l37 160h-664l811 721l33 147h-880l-37 -159h620l-833 -742z" />
    <glyph glyph-name="Zdotaccent" unicode="&#x17b;" horiz-adv-x="1400" 
d="M932 1526q-60 0 -93 42.5t-20 102.5q14 59 63 99t107 40q62 0 95 -43t20 -104q-13 -58 -63 -97.5t-109 -39.5zM932 1559q47 0 88 32.5t51 79.5q11 46 -12.5 76.5t-69.5 30.5t-86.5 -34t-50.5 -81q-10 -44 13 -74t67 -30zM10 -16l56 233l1003 948h-745l55 242h1102
l-54 -233l-997 -949h805l-57 -241h-1168zM51 16h1102l41 177h-846l1051 997l41 184h-1037l-38 -176h786l-1057 -997z" />
    <glyph glyph-name="zdotaccent" unicode="&#x17c;" horiz-adv-x="1179" 
d="M743 1192q-60 0 -93 42.5t-19 102.5q14 59 63 99.5t107 40.5q61 0 94.5 -43t19.5 -105q-13 -58 -63 -97.5t-109 -39.5zM743 1225q48 0 89 32.5t51 79.5q11 46 -12.5 76.5t-69.5 30.5t-86.5 -34t-50.5 -81q-11 -44 12 -74t67 -30zM-41 -16l41 176l776 692h-575l53 225h946
l-45 -196l-754 -672h619l-53 -225h-1008zM0 16h942l37 160h-664l811 721l33 147h-880l-37 -159h620l-833 -742z" />
    <glyph glyph-name="Zcaron" unicode="&#x17d;" horiz-adv-x="1400" 
d="M805 1516l-150 382h242l80 -157l151 157h248l-321 -382h-250zM825 1548h213l269 318h-166l-172 -183l-92 183h-172zM10 -16l56 233l1003 948h-745l55 242h1102l-54 -233l-997 -949h805l-57 -241h-1168zM51 16h1102l41 177h-846l1051 997l41 184h-1037l-38 -176h786
l-1057 -997z" />
    <glyph glyph-name="zcaron" unicode="&#x17e;" horiz-adv-x="1179" 
d="M616 1182l-149 383h242l79 -158l152 158h248l-322 -383h-250zM637 1214h213l268 318h-166l-172 -182l-92 182h-172zM-41 -16l41 176l776 692h-575l53 225h946l-45 -196l-754 -672h619l-53 -225h-1008zM0 16h942l37 160h-664l811 721l33 147h-880l-37 -159h620l-833 -742z
" />
    <glyph glyph-name="florin" unicode="&#x192;" horiz-adv-x="1067" 
d="M-166 -451q-66 0 -120 12.5t-83.5 30.5t-50 35.5t-26.5 30.5l-7 12l-2 11l45 196l29 6q3 -4 9 -11t27.5 -25t46 -32t64.5 -25t84 -11q128 0 205 77t115 244l88 377h-260l57 242h260l50 223q57 249 216 396t373 147q66 0 120 -12.5t83.5 -30.5t50 -35.5t26.5 -30.5l7 -12
l2 -10l-45 -197l-29 -6q-3 4 -9 11t-27 25t-45 32t-64 25t-84 11q-129 0 -206.5 -77t-115.5 -244l-49 -215h355l-58 -242h-354l-88 -385q-57 -249 -216.5 -396t-373.5 -147zM-166 -418q201 0 352 140t205 378l96 410h355l41 176h-355l58 256q41 177 127.5 261.5t226.5 84.5
q142 0 234 -92l36 160q-7 12 -20 24.5t-41.5 30.5t-79 29.5t-115.5 11.5q-201 0 -352 -140t-205 -378l-57 -248h-260l-41 -176h260l-96 -418q-41 -177 -127.5 -261.5t-225.5 -84.5q-138 0 -235 92l-37 -160q7 -12 20 -24.5t41.5 -30.5t79 -29.5t115.5 -11.5z" />
    <glyph glyph-name="uni0218" unicode="&#x218;" horiz-adv-x="1191" 
d="M469 -49q-156 0 -295.5 44t-196.5 111l64 267q75 -83 191.5 -130.5t242.5 -47.5q282 0 322 178q16 66 -34 109t-192 108q-67 31 -114.5 57.5t-90.5 59.5t-68 68t-40.5 78t-15 95t15.5 115q40 177 192.5 281t370.5 104q105 2 211 -30.5t170 -86.5l-65 -282
q-47 71 -139.5 112t-204.5 41q-114 -2 -187 -41t-86 -106q-5 -19 -5 -34.5t1 -28.5t10 -26.5t15.5 -22.5t24.5 -21.5t30 -20t40 -21t45 -21.5t54 -25q58 -26 101 -49t84 -50.5t67.5 -55t47.5 -61.5t29.5 -72t7.5 -84t-13 -100q-44 -190 -203 -300.5t-387 -110.5zM469 -16
q217 0 366.5 103.5t190.5 283.5q13 58 13.5 105t-13.5 86t-37.5 70t-65 61.5t-87.5 55.5t-113 56q-40 18 -61.5 28t-52 26t-45.5 26.5t-34.5 26.5t-27.5 31t-15 33.5t-6.5 40t6.5 46.5q19 80 99.5 125.5t206.5 46.5q97 0 182.5 -30.5t144.5 -86.5l45 201q-62 45 -156 71
t-188 25q-205 0 -349 -98t-181 -262q-14 -58 -15 -105t12.5 -86.5t36 -71t62.5 -62t85.5 -56t111.5 -56.5q74 -33 117 -56.5t79.5 -54t47.5 -64.5t1 -78q-50 -203 -354 -203q-116 0 -225 38.5t-191 108.5l-45 -194q55 -52 178.5 -91.5t276.5 -39.5zM2 -446l289 383h278
l-362 -383h-205zM68 -414h127l297 318h-185z" />
    <glyph glyph-name="uni0219" unicode="&#x219;" horiz-adv-x="894" 
d="M287 -47q-52 0 -104.5 10.5t-90 26t-67.5 31t-45 25.5l-15 11l-6 17l51 217l29 6q4 -5 12.5 -12.5t35.5 -27.5t56.5 -35t74.5 -27.5t91 -12.5q96 0 154 26.5t69 74.5q9 44 -20 80.5t-123 95.5q-29 19 -41 26.5t-38 26t-37.5 29t-31.5 30t-28 35t-19 38.5t-13 45.5
t-1 50.5t8 59q32 137 146.5 222t267.5 85q97 0 181 -25.5t116 -54.5l-61 -268q-17 51 -85.5 85t-148.5 34q-155 0 -174 -82q-8 -35 19 -61t132 -95l12 -7.5t10.5 -7t12.5 -8.5q34 -23 58 -42t47 -43t36 -48.5t21 -54t7 -65t-11 -76.5q-37 -158 -165 -246t-322 -88zM287 -14
q183 0 302.5 81.5t151.5 227.5q9 38 10.5 69t-5 57t-17.5 47t-31 42t-42.5 38.5t-55.5 39.5q-18 12 -44 29t-39.5 26t-32.5 22.5t-28.5 21t-22 18t-18 18t-11.5 17.5t-7.5 19.5t-1.5 20.5t2 23q27 106 207 106q63 0 121 -19.5t96 -53.5l41 176q-38 25 -107.5 43t-152.5 18
q-142 0 -247.5 -78t-133.5 -204q-8 -34 -7.5 -64.5t5 -53t21 -46.5t29 -38.5t41 -36t44.5 -32t52 -33.5q94 -59 133 -105.5t26 -107.5q-13 -60 -80.5 -92t-175.5 -32q-88 0 -158 33t-114 73l-43 -180q140 -90 293 -90zM-143 -446l288 383h279l-363 -383h-204zM-78 -414h127
l297 318h-184z" />
    <glyph glyph-name="uni021A" unicode="&#x21a;" horiz-adv-x="1359" 
d="M426 -16l274 1181h-487l55 242h1229l-55 -242h-488l-274 -1181h-254zM467 16h188l275 1182h487l39 176h-1163l-39 -176h487zM143 -446l289 383h279l-363 -383h-205zM209 -414h127l297 318h-184z" />
    <glyph glyph-name="uni021B" unicode="&#x21b;" horiz-adv-x="1028" 
d="M274 -16l211 907h-440l825 571l-82 -358h363l-49 -213h-363l-211 -907h-254zM315 16h189l211 908h362l33 147h-362l73 318l-669 -465h374zM-25 -446l289 383h279l-363 -383h-205zM41 -414h127l297 318h-184z" />
    <glyph glyph-name="circumflex" unicode="&#x2c6;" horiz-adv-x="743" 
d="M162 1184l321 383h250l150 -383h-242l-78 157l-153 -157h-248zM231 1217h166l174 182l91 -182h172l-121 317h-213z" />
    <glyph glyph-name="caron" unicode="&#x2c7;" horiz-adv-x="743" 
d="M401 1184l-149 383h242l79 -158l152 158h248l-322 -383h-250zM422 1217h213l268 317h-166l-172 -182l-92 182h-172z" />
    <glyph glyph-name="breve" unicode="&#x2d8;" horiz-adv-x="743" 
d="M526 1184q-159 0 -232.5 107.5t-29.5 275.5h242q-11 -29 -13 -66.5t16 -70.5t58 -33q41 0 75.5 32.5t52 69.5t22.5 68h241q-10 -51 -32 -103t-59.5 -102.5t-85.5 -90t-114.5 -63.5t-140.5 -24zM526 1217q79 0 147.5 28t116 75t79.5 101t49 113h-175q-10 -36 -31.5 -72.5
t-61 -67t-83.5 -30.5q-45 0 -71 30t-32 66t-1 74h-174q-7 -46 -8.5 -91t14.5 -86t43 -72t75.5 -49.5t112.5 -18.5z" />
    <glyph glyph-name="dotaccent" unicode="&#x2d9;" horiz-adv-x="333" 
d="M317 1174q-69 0 -105.5 47.5t-21.5 117.5q15 67 72 113.5t123 46.5q69 0 107.5 -49.5t23.5 -118.5q-15 -66 -73 -111.5t-126 -45.5zM317 1206q57 0 105.5 39t60.5 94q12 54 -16 90.5t-82 36.5q-56 0 -103 -39t-59 -96q-12 -54 14.5 -89.5t79.5 -35.5z" />
    <glyph glyph-name="ring" unicode="&#x2da;" horiz-adv-x="501" 
d="M401 1174q-97 0 -147.5 66t-28.5 163q22 95 101.5 160t173.5 65q95 0 147.5 -68t30.5 -165q-22 -92 -102.5 -156.5t-174.5 -64.5zM401 1206q83 0 154 57.5t90 139.5t-23 137t-122 55q-83 0 -153 -57.5t-89 -142.5q-19 -80 22.5 -134.5t120.5 -54.5zM436 1321
q-34 0 -52.5 24t-10.5 58q7 34 33.5 56t58.5 22q34 0 53 -25.5t12 -60.5q-8 -31 -35 -52.5t-59 -21.5zM436 1354q20 0 39 14.5t23 34.5t-5 32.5t-28 12.5q-21 0 -38 -15t-21 -38q-5 -19 3 -30t27 -11z" />
    <glyph glyph-name="ogonek" unicode="&#x2db;" horiz-adv-x="303" 
d="M90 -461q-27 -1 -58 3t-68 15.5t-67 30.5t-55 48t-31.5 69t3.5 92q9 39 31 77.5t47 65.5t48 48.5t38 31.5l16 11l8 2h156l12 -29q-14 -13 -34.5 -33.5t-58 -69.5t-44.5 -81q-9 -41 13 -55t95 -13zM66 -428l34 147q-62 3 -86 29t-14 80q16 64 119 172h-113
q-15 -11 -32 -25t-45.5 -42t-51 -66t-31.5 -78q-14 -57 3 -101t55 -67.5t78.5 -35t83.5 -13.5z" />
    <glyph glyph-name="tilde" unicode="&#x2dc;" horiz-adv-x="901" 
d="M752 1174q-78 0 -144 53h-35l2 2h37l-10 4q-59 51 -86 51q-14 0 -25.5 -10.5t-17.5 -21.5t-16 -34.5t-15 -33.5l-184 71q43 117 110.5 181.5t149.5 64.5q78 0 144 -53h34l-2 -2h-37l11 -4q59 -51 86 -51q14 0 25 10.5t17 22t15.5 34t15.5 33.5l185 -72
q-43 -117 -110.5 -181t-149.5 -64zM752 1206q65 0 122 51t97 144l-127 49q-11 -28 -19 -44t-27 -32t-44 -16q-40 0 -103 55h-35l2 2h37l-10 4q-63 49 -127 49q-65 0 -122 -50.5t-97 -143.5l127 -49q11 28 19 44t27 32t44 16q39 0 102 -55h35l-2 -2h-37l11 -5q63 -49 127 -49
z" />
    <glyph glyph-name="hungarumlaut" unicode="&#x2dd;" horiz-adv-x="886" 
d="M164 1184l289 383h319l-362 -383h-246zM530 1184l312 383h319l-383 -383h-248zM229 1217h168l297 317h-225zM600 1217h166l317 317h-225z" />
    <glyph glyph-name="gravecomb" unicode="&#x300;" 
d="M-102 1184l-187 383h312l114 -383h-239zM-82 1217h174l-94 317h-234z" />
    <glyph glyph-name="acutecomb" unicode="&#x301;" 
d="M-375 1184l289 383h319l-362 -383h-246zM-309 1217h168l297 317h-226z" />
    <glyph glyph-name="uni0302" unicode="&#x302;" 
d="M-582 1184l322 383h250l149 -383h-241l-78 157l-154 -157h-248zM-512 1217h166l174 182l90 -182h172l-121 317h-213z" />
    <glyph glyph-name="tildecomb" unicode="&#x303;" 
d="M-150 1174q-77 0 -143 53h-35l2 2h37l-10 4q-59 51 -86 51q-14 0 -25.5 -10.5t-17.5 -21.5t-16 -34.5t-15 -33.5l-184 71q43 117 110.5 181.5t149.5 64.5q77 0 143 -53h35l-2 -2h-37l11 -4q59 -51 86 -51q14 0 25 10.5t17 22t15.5 34t15.5 33.5l185 -72
q-43 -117 -111 -181t-150 -64zM-150 1206q65 0 122.5 51t97.5 144l-127 49q-11 -28 -19 -44t-27 -32t-44 -16q-40 0 -103 55h-35l2 2h37l-10 4q-63 49 -127 49q-65 0 -122 -50.5t-97 -143.5l127 -49q11 28 19 44t27 32t44 16q39 0 102 -55h35l-2 -2h-37l11 -5
q63 -49 126 -49z" />
    <glyph glyph-name="uni0304" unicode="&#x304;" 
d="M-446 1214l51 218h600l-51 -218h-600zM-406 1247h535l35 152h-535z" />
    <glyph glyph-name="uni0306" unicode="&#x306;" 
d="M-217 1184q-159 0 -232.5 107.5t-29.5 275.5h241q-11 -29 -12.5 -67t16.5 -70.5t58 -32.5q41 0 75.5 32.5t51.5 69.5t22 68h242q-10 -51 -32 -103t-59.5 -102.5t-85.5 -90t-114.5 -63.5t-140.5 -24zM-217 1217q79 0 147.5 28t115.5 75t79 101t49 113h-174
q-10 -36 -31.5 -72.5t-61 -67t-83.5 -30.5q-45 0 -71 30t-32.5 66t-1.5 74h-174q-7 -46 -8 -91t15 -86t43 -72t75.5 -49.5t112.5 -18.5z" />
    <glyph glyph-name="uni0307" unicode="&#x307;" 
d="M-10 1194q-60 0 -93 42.5t-20 102.5q14 59 63 99.5t107 40.5q61 0 95 -43t20 -105q-13 -58 -63 -97.5t-109 -39.5zM-10 1227q47 0 88 32.5t51 79.5q11 46 -12.5 76.5t-69.5 30.5t-86.5 -34t-50.5 -81q-10 -44 13 -74t67 -30z" />
    <glyph glyph-name="uni0308" unicode="&#x308;" 
d="M-385 1208q-55 0 -87 39.5t-20 93.5q12 53 58 90t100 37t84.5 -40t18.5 -95q-12 -52 -56.5 -88.5t-97.5 -36.5zM8 1208q-55 0 -86.5 39.5t-19.5 93.5q12 53 57.5 90t99.5 37t84.5 -40t18.5 -95q-12 -52 -56.5 -88.5t-97.5 -36.5zM-385 1241q40 0 76 29.5t45 70.5
q9 40 -11.5 67.5t-58.5 27.5q-41 0 -78.5 -31t-46.5 -72q-9 -38 12.5 -65t61.5 -27zM8 1241q40 0 76 29.5t45 70.5q9 40 -11.5 67.5t-58.5 27.5q-41 0 -78.5 -31t-46.5 -72q-9 -38 12.5 -65t61.5 -27z" />
    <glyph glyph-name="uni030A" unicode="&#x30a;" 
d="M-100 1174q-97 0 -147.5 66t-28.5 163q22 95 101 160t173 65q95 0 147.5 -68t30.5 -165q-22 -92 -102 -156.5t-174 -64.5zM-100 1206q83 0 153.5 57.5t89.5 139.5t-23 137t-122 55q-83 0 -153 -57.5t-89 -142.5q-19 -80 23 -134.5t121 -54.5zM-66 1321q-34 0 -52.5 24
t-10.5 58q7 34 33.5 56t58.5 22q34 0 53.5 -25.5t12.5 -60.5q-8 -31 -35.5 -52.5t-59.5 -21.5zM-66 1354q20 0 39 14.5t23 34.5t-5 32.5t-28 12.5q-21 0 -38 -15t-21 -38q-5 -19 3 -30t27 -11z" />
    <glyph glyph-name="uni030B" unicode="&#x30b;" 
d="M-723 1184l289 383h319l-362 -383h-246zM-356 1184l311 383h319l-383 -383h-247zM-657 1217h168l296 317h-225zM-287 1217h166l318 317h-226z" />
    <glyph glyph-name="uni030C" unicode="&#x30c;" 
d="M-342 1184l-150 383h242l80 -158l152 158h247l-321 -383h-250zM-322 1217h213l269 317h-166l-172 -182l-92 182h-172z" />
    <glyph glyph-name="uni0312" unicode="&#x312;" 
d="M-252 1184l363 383h245l-288 -383h-320zM-174 1217h225l240 317h-168z" />
    <glyph glyph-name="uni0326" unicode="&#x326;" 
d="M-694 -430l288 383h279l-362 -383h-205zM-629 -397h127l297 317h-184z" />
    <glyph glyph-name="uni0327" unicode="&#x327;" 
d="M-535 -459l37 152q52 -3 91 15t45 46q5 23 -16 37.5t-44 17.5l-24 3l-13 24l76 152h182l-63 -121q18 -5 34.5 -15t34.5 -26t25.5 -43t1.5 -59q-22 -89 -120 -137.5t-247 -45.5zM-494 -426q119 3 197.5 45.5t95.5 112.5q5 25 -2.5 45t-22 31t-30 19t-26.5 11l-11 2l-10 25
l49 90h-108l-58 -115q17 -3 32 -8.5t31.5 -16t24 -28.5t2.5 -41q-9 -35 -48.5 -59t-94.5 -27z" />
    <glyph glyph-name="uni0328" unicode="&#x328;" 
d="M-213 -461q-27 -1 -58 3t-68 15.5t-67 30.5t-55 48t-31.5 69t3.5 92q9 39 31 77.5t47 65.5t48 48.5t39 31.5l15 11l8 2h156l12 -29q-14 -13 -34.5 -33.5t-58 -69.5t-44.5 -81q-9 -41 13 -55t95 -13zM-238 -428l35 147q-62 3 -86 29t-14 80q16 64 119 172h-113
q-15 -11 -32 -25t-45.5 -42t-51 -66t-31.5 -78q-13 -48 -2 -84.5t32.5 -61t56 -40t67 -23t65.5 -8.5z" />
    <glyph glyph-name="uni0335" unicode="&#x335;" 
d="M-772 516l51 217h744l-52 -217h-743zM-731 549h678l35 151h-678z" />
    <glyph glyph-name="uni0336" unicode="&#x336;" 
d="M-1210 958l51 218h1427l-51 -218h-1427zM-1169 991h1362l34 152h-1362z" />
    <glyph glyph-name="uni0337" unicode="&#x337;" 
d="M-709 201l-65 170l762 508l67 -170zM-692 250l706 471l-43 108l-704 -471z" />
    <glyph glyph-name="uni0338" unicode="&#x338;" 
d="M-1530 -53l-143 184l1724 1323l144 -184zM-1526 -8l1676 1282l-103 135l-1675 -1282z" />
    <glyph glyph-name="uni037E" unicode="&#x37e;" horiz-adv-x="856" 
d="M485 637q-78 0 -119 53t-24 131q19 75 82 125.5t137 50.5q76 0 118 -54.5t23 -129.5q-17 -74 -79.5 -125t-137.5 -51zM485 670q63 0 117.5 44t67.5 107q15 60 -17 102t-92 42q-63 0 -117 -44t-69 -108q-14 -63 16.5 -103t93.5 -40zM-113 -326l326 557h313l-393 -557h-246
zM-55 -293h172l348 492h-232z" />
    <glyph glyph-name="tonos" unicode="&#x384;" horiz-adv-x="854" 
d="M162 1214l55 238h846l-55 -238h-846zM203 1247h780l39 172h-780z" />
    <glyph glyph-name="dieresistonos" unicode="&#x385;" horiz-adv-x="702" 
d="M293 1575l55 237h600l-55 -237h-600zM334 1608h534l39 172h-534zM317 1208q-55 0 -86.5 39.5t-19.5 93.5q12 53 58 90t100 37t84 -39.5t18 -95.5q-12 -52 -56.5 -88.5t-97.5 -36.5zM711 1208q-55 0 -87 39.5t-20 93.5q12 53 58 90t100 37t84 -39.5t18 -95.5
q-12 -53 -56.5 -89t-96.5 -36zM317 1241q40 0 76 29.5t45 70.5q9 40 -11 67.5t-58 27.5q-41 0 -78.5 -31t-46.5 -72q-9 -38 12 -65t61 -27zM711 1241q40 0 75.5 29.5t44.5 70.5q9 40 -11 67.5t-58 27.5q-41 0 -78.5 -31t-46.5 -72q-9 -38 12.5 -65t61.5 -27z" />
    <glyph glyph-name="Alphatonos" unicode="&#x386;" horiz-adv-x="1536" 
d="M877 1516l378 382h324l-451 -382h-251zM954 1548h162l373 318h-221zM-111 -16l961 1423h235l306 -1423h-295l-58 329h-632l-216 -329h-301zM-49 16h223l215 330h678l57 -330h226l-289 1358h-195zM502 522l416 629l120 -629h-536zM563 555h434l-96 510z" />
    <glyph glyph-name="Epsilontonos" unicode="&#x388;" horiz-adv-x="1314" 
d="M774 1516l379 382h324l-451 -382h-252zM852 1548h162l372 318h-221zM41 -16l330 1423h1048l-55 -242h-795l-69 -303h633l-58 -241h-631l-90 -396h805l-57 -241h-1061zM82 16h995l41 177h-805l107 460h631l41 176h-633l86 369h794l39 176h-983z" />
    <glyph glyph-name="Etatonos" unicode="&#x389;" horiz-adv-x="1544" 
d="M887 1516l379 382h323l-450 -382h-252zM965 1548h161l373 318h-221zM41 -16l330 1423h256l-127 -545h696l127 545h256l-330 -1423h-256l148 637h-697l-147 -637h-256zM82 16h190l148 637h762l-148 -637h191l313 1358h-190l-127 -545h-762l127 545h-191z" />
    <glyph glyph-name="Iotatonos" unicode="&#x38a;" horiz-adv-x="591" 
d="M414 1516l379 382h323l-450 -382h-252zM492 1548h161l373 318h-221zM41 -16l330 1423h256l-330 -1423h-256zM82 16h190l314 1358h-191z" />
    <glyph glyph-name="Omicrontonos" unicode="&#x38c;" horiz-adv-x="1644" 
d="M940 1516l379 382h323l-450 -382h-252zM1018 1548h162l372 318h-221zM692 -47q-125 -2 -232.5 35t-183 104.5t-124.5 161.5t-57 206.5t20 239.5q44 206 181.5 377t331.5 268.5t400 94.5q208 3 359.5 -96.5t211 -272.5t9.5 -379q-33 -153 -122.5 -291t-212 -237t-275 -156
t-306.5 -55zM692 -14q197 -3 385.5 91.5t322 260t175.5 362.5q48 195 -8 359t-199 257.5t-340 90.5q-149 2 -295.5 -53t-264 -150.5t-203.5 -229t-118 -282.5q-48 -196 7 -359.5t197.5 -256.5t340.5 -90zM741 164q-151 0 -254 68.5t-141 190.5t-2 277q54 232 232.5 381.5
t402.5 149.5q228 0 339.5 -152t57.5 -387q-54 -233 -231 -380.5t-404 -147.5zM741 197q216 0 383.5 139.5t218.5 363.5q52 220 -50 359t-314 139q-213 0 -382 -142t-220 -364q-51 -220 50.5 -357.5t313.5 -137.5z" />
    <glyph glyph-name="Upsilontonos" unicode="&#x38e;" horiz-adv-x="1384" 
d="M809 1516l379 382h323l-450 -382h-252zM887 1548h162l372 318h-221zM436 -16l144 610l-365 813h287l243 -561l502 561h332l-743 -819l-142 -604h-258zM477 16h193l137 588l698 770h-241l-527 -590l-256 590h-217l348 -776z" />
    <glyph glyph-name="Omegatonos" unicode="&#x38f;" horiz-adv-x="1626" 
d="M930 1516l379 382h323l-450 -382h-252zM1008 1548h161l373 318h-221zM-61 -16l57 241h240q-90 93 -123 231.5t2 286.5q45 199 177.5 358.5t323.5 249t404 89.5q128 0 236.5 -34t185 -96.5t125.5 -150t58.5 -194.5t-15.5 -230q-35 -147 -130 -283t-225 -227h236l-57 -241
h-639l55 237q187 57 320 197t176 325q47 207 -55 331t-320 124q-221 0 -383.5 -127t-208.5 -336q-43 -185 25 -323t229 -193l-55 -235h-639zM-20 16h573l43 183q-160 65 -227 210t-23 334q51 220 222.5 354t402.5 134q233 0 345.5 -136.5t61.5 -359.5
q-44 -189 -177.5 -332.5t-321.5 -205.5l-43 -181h573l41 177h-315q159 76 280.5 228t161.5 322q43 190 -12.5 342t-198 237t-346.5 85q-205 0 -389.5 -86.5t-312.5 -240t-171 -345.5q-40 -167 10.5 -317t172.5 -225h-310z" />
    <glyph glyph-name="iotadieresistonos" unicode="&#x390;" horiz-adv-x="548" 
d="M215 1573l55 237h600l-55 -237h-600zM256 1606h535l38 172h-534zM240 1206q-55 0 -87 39.5t-20 93.5q12 53 58 90t100 37t84 -39.5t18 -95.5q-12 -53 -56.5 -89t-96.5 -36zM633 1206q-55 0 -87 39.5t-20 93.5q12 53 58 90t100 37t84 -39.5t18 -95.5q-12 -53 -56.5 -89
t-96.5 -36zM240 1239q40 0 75.5 29.5t44.5 70.5q9 40 -11 67.5t-58 27.5q-41 0 -78.5 -31t-46.5 -72q-9 -38 12.5 -65t61.5 -27zM633 1239q40 0 76 29.5t45 70.5q9 40 -11.5 67.5t-58.5 27.5q-41 0 -78.5 -31t-46.5 -72q-9 -38 12.5 -65t61.5 -27zM20 -16l254 1091h254
l-254 -1091h-254zM61 16h189l237 1026h-188z" />
    <glyph glyph-name="Alpha" unicode="&#x391;" horiz-adv-x="1490" 
d="M-141 -16l960 1423h254l303 -1423h-295l-59 329h-657l-215 -329h-291zM-80 16h213l215 330h703l59 -330h225l-286 1358h-213zM457 522l440 674l127 -674h-567zM518 555h465l-102 555z" />
    <glyph glyph-name="Beta" unicode="&#x392;" horiz-adv-x="1384" 
d="M41 -16l330 1423h581q238 0 334 -94t53 -285q-23 -96 -85 -167t-150 -103q107 -34 153 -124.5t17 -215.5q-47 -207 -205 -320.5t-401 -113.5h-627zM82 16h586q231 0 380 106t193 304q31 129 -27 214t-184 99v33q105 19 178.5 89t98.5 175q40 173 -46.5 255.5t-308.5 82.5
h-557zM455 819l88 379h334h35.5t36.5 -1t38 -4t35 -7t33.5 -11t27.5 -17t22 -24t13 -31.5t5 -40.5t-7 -50q-11 -44 -31.5 -78t-49.5 -54t-58 -33t-66.5 -19t-64 -7.5t-62.5 -1.5h-329zM496 852h288q35 0 60 1.5t59.5 6.5t60 16.5t50.5 29t42.5 46.5t26.5 68q6 24 5.5 43.5
t-4 33.5t-14.5 25t-21 18t-28.5 12t-31.5 7.5t-37 4t-37 1.5h-38h-310zM309 193l107 460h383q24 0 45.5 -1.5t47.5 -5.5t46 -12t42 -20t34 -29t23 -40.5t9 -54t-8 -68.5q-26 -112 -112 -170.5t-226 -58.5h-391zM350 225h350q259 0 306 205q23 98 -27.5 144.5t-179.5 46.5
h-359z" />
    <glyph glyph-name="Gamma" unicode="&#x393;" horiz-adv-x="1339" 
d="M41 -16l330 1423h1065l-56 -242h-811l-274 -1181h-254zM82 16h188l275 1182h811l39 176h-1000z" />
    <glyph glyph-name="uni0394" unicode="&#x394;" horiz-adv-x="1519" 
d="M-111 -16l945 1423h256l284 -1423h-1485zM-49 16h1382l-272 1358h-211zM281 193l630 1005l164 -1005h-794zM338 225h700l-143 883z" />
    <glyph glyph-name="Epsilon" unicode="&#x395;" horiz-adv-x="1325" 
d="M41 -16l330 1423h1048l-55 -242h-795l-69 -303h633l-58 -241h-633l-90 -396h807l-57 -241h-1061zM82 16h995l41 177h-807l107 460h633l41 176h-633l86 369h794l39 176h-983z" />
    <glyph glyph-name="Zeta" unicode="&#x396;" horiz-adv-x="1257" 
d="M-82 -16l55 233l1022 948h-764l56 242h1102l-54 -233l-1018 -949h826l-58 -241h-1167zM-41 16h1102l41 177h-866l1071 997l41 184h-1037l-39 -176h805l-1075 -997z" />
    <glyph glyph-name="Eta" unicode="&#x397;" horiz-adv-x="1540" 
d="M41 -16l330 1423h256l-125 -545h692l125 545h256l-330 -1423h-256l148 637h-693l-147 -637h-256zM82 16h190l148 637h758l-148 -637h191l313 1358h-191l-124 -545h-758l125 545h-191z" />
    <glyph glyph-name="Theta" unicode="&#x398;" horiz-adv-x="1624" 
d="M682 -47q-212 0 -361.5 97t-207 268t-9.5 382q48 210 183 379.5t327.5 265t403.5 95.5q212 0 361.5 -97t207.5 -268.5t10 -382.5q-48 -209 -183.5 -378.5t-328 -265t-403.5 -95.5zM682 -14q203 0 389 92.5t317 256t177 365.5q46 201 -8 363t-195.5 253t-343.5 91
q-203 0 -388.5 -92t-316 -256t-176.5 -367q-46 -201 8 -362.5t195 -252.5t342 -91zM375 825q82 187 242 296.5t352 109.5q193 0 303.5 -109t107.5 -297h-1005zM426 858h922q-8 159 -108.5 249.5t-270.5 90.5t-315 -91t-228 -249zM731 164q-215 0 -327 133.5t-80 351.5h1030
q-64 -218 -236 -351.5t-387 -133.5zM731 197q194 0 351.5 114.5t226.5 304.5h-957q-20 -191 83 -305t296 -114z" />
    <glyph glyph-name="Iota" unicode="&#x399;" horiz-adv-x="591" 
d="M41 -16l330 1423h256l-330 -1423h-256zM82 16h190l314 1358h-191z" />
    <glyph glyph-name="Kappa" unicode="&#x39a;" horiz-adv-x="1404" 
d="M41 -16l330 1423h254l-140 -604l764 604h365l-764 -596l422 -827h-285l-340 667l-241 -188l-111 -479h-254zM82 16h188l107 467l282 217l349 -684h211l-410 803l711 555h-258l-830 -653l152 653h-189z" />
    <glyph glyph-name="Lambda" unicode="&#x39b;" horiz-adv-x="1488" 
d="M-111 -16l932 1423h256l266 -1423h-294l-168 1122l-701 -1122h-291zM-49 16h213l737 1184l176 -1184h226l-254 1358h-211z" />
    <glyph glyph-name="Mu" unicode="&#x39c;" horiz-adv-x="1701" 
d="M41 -16l330 1423h303l235 -606l521 606h307l-330 -1423h-254l242 1040l-432 -502h-226l-198 508l-244 -1046h-254zM82 16h188l260 1125l228 -586h188l510 592l-262 -1131h188l314 1358h-250l-549 -635l-244 635h-258z" />
    <glyph glyph-name="Nu" unicode="&#x39d;" horiz-adv-x="1579" 
d="M41 -16l330 1423h268l485 -1012l236 1012h254l-330 -1423h-268l-481 1030l-240 -1030h-254zM82 16h188l252 1096l514 -1096h224l313 1358h-189l-247 -1077l-519 1077h-223z" />
    <glyph glyph-name="Xi" unicode="&#x39e;" horiz-adv-x="1441" 
d="M285 1165l55 242h1167l-55 -242h-1167zM326 1198h1101l39 176h-1101zM262 600l55 242h953l-56 -242h-952zM303 633h887l39 176h-887zM-20 -16l57 241h1229l-58 -241h-1228zM20 16h1164l41 177h-1164z" />
    <glyph glyph-name="Omicron" unicode="&#x39f;" horiz-adv-x="1624" 
d="M684 -47q-212 0 -362 97t-208 268t-10 382q48 209 183.5 378.5t328.5 265.5t404 96q212 0 361 -97t206.5 -268.5t9.5 -382.5q-48 -210 -183 -379t-327 -264.5t-403 -95.5zM684 -14q203 0 388.5 92t316 255.5t176.5 366.5q46 201 -8 363t-195 253t-342 91
q-203 0 -389 -92.5t-317 -256.5t-177 -366q-46 -201 8 -362.5t195.5 -252.5t343.5 -91zM733 164q-230 0 -341 150t-56 386q54 235 231 383t404 148q229 0 340 -151.5t57 -387.5q-56 -233 -232.5 -380.5t-402.5 -147.5zM733 197q215 0 382 140t220 363q51 222 -49.5 360
t-314.5 138q-217 0 -384 -141t-218 -365q-52 -220 49 -357.5t315 -137.5z" />
    <glyph glyph-name="Pi" unicode="&#x3a0;" horiz-adv-x="1490" 
d="M41 -16l330 1423h1155l-330 -1423h-254l275 1181h-648l-274 -1181h-254zM82 16h188l275 1182h712l-274 -1182h188l314 1358h-1090z" />
    <glyph glyph-name="Rho" unicode="&#x3a1;" horiz-adv-x="1409" 
d="M41 -16l330 1423h622q258 0 373.5 -140.5t60.5 -387.5q-56 -237 -238.5 -379t-432.5 -142h-373l-88 -374h-254zM82 16h188l88 375h398q239 0 412.5 135t226.5 361q53 230 -53 358.5t-349 128.5h-598zM395 563l148 635h389q167 0 234 -82t30 -242q-71 -311 -403 -311h-398
zM436 596h357q306 0 370 287q34 143 -23 212.5t-208 69.5h-365z" />
    <glyph glyph-name="Sigma" unicode="&#x3a3;" horiz-adv-x="1220" 
d="M-20 -16l53 225l641 479l-416 500l51 219h1034l-55 -242h-694l336 -387l-45 -190l-482 -363h693l-58 -241h-1058zM20 16h994l41 177h-750l551 415l37 162l-369 428h740l39 176h-969l-39 -178l428 -512l-662 -496z" />
    <glyph glyph-name="Tau" unicode="&#x3a4;" horiz-adv-x="1318" 
d="M406 -16l274 1181h-487l55 242h1229l-56 -242h-487l-275 -1181h-253zM446 16h189l274 1182h488l39 176h-1164l-39 -176h488z" />
    <glyph glyph-name="Upsilon" unicode="&#x3a5;" horiz-adv-x="1384" 
d="M436 -16l144 610l-365 813h287l243 -561l502 561h332l-743 -819l-142 -604h-258zM477 16h193l137 588l698 770h-241l-527 -590l-256 590h-217l348 -776z" />
    <glyph glyph-name="Phi" unicode="&#x3a6;" horiz-adv-x="1624" 
d="M682 -47q-212 0 -361.5 97t-207 268t-9.5 382q48 210 183 379.5t327.5 265t403.5 95.5q212 0 361.5 -97t207.5 -268.5t10 -382.5q-48 -209 -183.5 -378.5t-328 -265t-403.5 -95.5zM682 -14q203 0 389 92.5t317 256t177 365.5q46 201 -8 363t-195.5 253t-343.5 91
q-203 0 -388.5 -92t-316 -256t-176.5 -367q-46 -201 8 -362.5t195 -252.5t342 -91zM641 170q-187 29 -270.5 175.5t-36.5 354.5q50 210 200 353.5t349 171.5zM817 168l242 1055q187 -29 270.5 -175t36.5 -356q-49 -209 -200 -352.5t-349 -171.5zM860 209q173 38 301.5 171
t171.5 320q43 188 -24.5 318.5t-225.5 167.5zM616 207l224 977q-174 -38 -302 -171.5t-171 -320.5q-44 -186 23.5 -317t225.5 -168z" />
    <glyph glyph-name="Chi" unicode="&#x3a7;" horiz-adv-x="1456" 
d="M-98 -16l714 751l-350 672h307l224 -459l444 459h352l-671 -682l374 -741h-307l-256 514l-479 -514h-352zM-20 16h262l499 539l269 -539h233l-362 717l635 641h-263l-465 -483l-235 483h-234l338 -643z" />
    <glyph glyph-name="Psi" unicode="&#x3a8;" horiz-adv-x="1472" 
d="M481 -16l72 313q-215 38 -307.5 189.5t-40.5 381.5l125 539h256l-125 -545q-28 -115 11.5 -196t139.5 -115l199 856h256l-197 -854q116 35 193.5 117.5t103.5 199.5l125 537h256l-125 -547q-54 -230 -216 -379t-396 -184l-74 -313h-256zM522 16h191l69 310
q233 29 395 172.5t214 369.5l116 506h-190l-117 -512q-32 -138 -130.5 -231.5t-244.5 -122.5l201 866h-190l-199 -864q-130 32 -185 127.5t-24 232.5l117 504h-191l-116 -514q-53 -224 41.5 -366t314.5 -168z" />
    <glyph glyph-name="uni03A9" unicode="&#x3a9;" horiz-adv-x="1626" 
d="M-61 -16l57 241h240q-90 93 -123 231.5t2 286.5q45 199 177.5 358.5t323.5 249t404 89.5q128 0 236.5 -34t185 -96.5t125.5 -150t58.5 -194.5t-15.5 -230q-35 -147 -130 -283t-225 -227h236l-57 -241h-639l55 237q187 57 320 197t176 325q47 207 -55 331t-320 124
q-221 0 -383.5 -127t-208.5 -336q-43 -185 25 -323t229 -193l-55 -235h-639zM-20 16h573l43 183q-160 65 -227 210t-23 334q51 220 222.5 354t402.5 134q233 0 345.5 -136.5t61.5 -359.5q-44 -189 -177.5 -332.5t-321.5 -205.5l-43 -181h573l41 177h-315q159 76 280.5 228
t161.5 322q43 190 -12.5 342t-198 237t-346.5 85q-205 0 -389.5 -86.5t-312.5 -240t-171 -345.5q-40 -167 10.5 -317t172.5 -225h-310z" />
    <glyph glyph-name="Iotadieresis" unicode="&#x3aa;" horiz-adv-x="591" 
d="M340 1540q-55 0 -87 39.5t-20 93.5q12 53 58 90t100 37t84.5 -40t18.5 -95q-12 -52 -56.5 -88.5t-97.5 -36.5zM733 1540q-55 0 -86.5 39.5t-19.5 93.5q12 53 57.5 90t99.5 37t84.5 -40t18.5 -95q-12 -52 -56.5 -88.5t-97.5 -36.5zM340 1573q40 0 76 29.5t45 70.5
q9 40 -11.5 67t-58.5 27q-41 0 -78.5 -30.5t-46.5 -71.5q-9 -38 12.5 -65t61.5 -27zM733 1573q40 0 76 29.5t45 70.5q9 40 -11.5 67t-58.5 27q-41 0 -78.5 -30.5t-46.5 -71.5q-9 -38 12.5 -65t61.5 -27zM41 -16l330 1423h256l-330 -1423h-256zM82 16h190l314 1358h-191z" />
    <glyph glyph-name="Upsilondieresis" unicode="&#x3ab;" horiz-adv-x="1384" 
d="M735 1540q-55 0 -86.5 39.5t-19.5 93.5q12 53 57.5 90t99.5 37t84.5 -40t18.5 -95q-12 -52 -56.5 -88.5t-97.5 -36.5zM1128 1540q-55 0 -86.5 39.5t-19.5 93.5q12 53 58 90t100 37t84 -39.5t18 -95.5q-12 -52 -56.5 -88.5t-97.5 -36.5zM735 1573q40 0 76 29.5t45 70.5
q9 40 -11.5 67t-58.5 27q-41 0 -78 -30.5t-46 -71.5q-9 -38 12 -65t61 -27zM1128 1573q40 0 76 29.5t45 70.5q9 40 -11 67t-58 27q-41 0 -78.5 -30.5t-46.5 -71.5q-9 -38 12 -65t61 -27zM436 -16l144 610l-365 813h287l243 -561l502 561h332l-743 -819l-142 -604h-258z
M477 16h193l137 588l698 770h-241l-527 -590l-256 590h-217l348 -776z" />
    <glyph glyph-name="alphatonos" unicode="&#x3ac;" horiz-adv-x="1384" 
d="M692 1182l379 383h324l-451 -383h-252zM770 1214h162l373 318h-222zM524 -47q-162 0 -280.5 77.5t-166 211t-11.5 293.5q36 157 143.5 288.5t259.5 207t313 75.5q92 0 191.5 -39.5t146.5 -110.5l33 121h254l-197 -549q-61 -272 -55 -548h-250q-6 43 0 100
q-79 -66 -184.5 -96.5t-196.5 -30.5zM524 -14q70 0 144.5 16t157 62.5t128.5 117.5l-4 -16q-16 -106 -14 -154h186q0 268 56 525l184 507h-184l-37 -137l-33 -2q-18 55 -75.5 95t-122.5 56.5t-128 16.5q-153 0 -298 -72.5t-248.5 -198.5t-137.5 -276q-34 -149 10 -273
t154 -195.5t262 -71.5zM567 150q-155 0 -238 112.5t-46 272.5q37 157 168.5 265.5t283.5 108.5q166 0 246.5 -106.5t40.5 -276.5q-40 -169 -165.5 -272.5t-289.5 -103.5zM567 182q153 0 269 97t153 256q37 154 -33 248t-221 94q-141 0 -263.5 -102.5t-156.5 -248.5
q-34 -142 40 -243t212 -101z" />
    <glyph glyph-name="epsilontonos" unicode="&#x3ad;" horiz-adv-x="997" 
d="M578 1182l378 383h324l-451 -383h-251zM655 1214h162l373 318h-221zM412 -47q-230 0 -335.5 86t-68.5 244q18 79 87 158.5t184 117.5q-67 30 -99.5 98.5t-13.5 147.5q31 135 170 218t334 83q112 0 202.5 -23.5t141.5 -66.5l-47 -211l-27 -8q-32 27 -119 53.5t-172 26.5
q-224 0 -248 -105q-14 -56 22 -83t124 -27h184l-49 -213h-207q-80 0 -139.5 -39t-71.5 -99q-9 -37 3.5 -64t44 -41t69.5 -20t88 -6q79 0 174 27.5t150 54.5l55 27l24 -19l-49 -211q-64 -45 -191.5 -75.5t-219.5 -30.5zM412 -14q83 0 201 27.5t182 66.5l36 164
q-71 -35 -169.5 -66t-192.5 -31q-134 0 -196 44.5t-42 127.5q15 70 84 116t160 46h182l33 148h-143q-103 0 -149 39t-29 112q30 129 280 129q77 0 160 -22.5t131 -50.5l37 168q-101 69 -307 69q-185 0 -314 -76t-157 -200q-20 -82 23.5 -148t121.5 -74l2 -32
q-70 -14 -127 -44.5t-92.5 -69t-56.5 -77.5t-29 -78q-34 -141 61 -214.5t310 -73.5z" />
    <glyph glyph-name="etatonos" unicode="&#x3ae;" horiz-adv-x="1284" 
d="M696 1182l379 383h324l-451 -383h-252zM774 1214h162l373 318h-222zM676 -457l250 1090q28 117 -14 181.5t-144 64.5q-126 0 -223.5 -80t-126.5 -207l-144 -608h-254l254 1093h254l-20 -92q133 123 338 123q201 0 294 -126t46 -335l-256 -1104h-254zM717 -424h188
l248 1079q46 193 -37.5 306.5t-269.5 113.5q-71 0 -133 -16t-101 -39.5t-67.5 -46.5t-40.5 -39l-12 -16l-31 14l26 112h-188l-238 -1028h189l135 584q32 138 138.5 224.5t244.5 86.5q118 0 168.5 -77t21.5 -209z" />
    <glyph glyph-name="iotatonos" unicode="&#x3af;" horiz-adv-x="548" 
d="M313 1182l379 383h324l-451 -383h-252zM391 1214h162l373 318h-221zM20 -16l254 1091h254l-254 -1091h-254zM61 16h189l237 1026h-188z" />
    <glyph glyph-name="upsilondieresistonos" unicode="&#x3b0;" horiz-adv-x="1249" 
d="M565 1573l56 237h600l-56 -237h-600zM606 1606h535l39 172h-535zM590 1206q-55 0 -87 39.5t-20 93.5q12 53 58 90t100 37t84 -39.5t18 -95.5q-12 -53 -56.5 -89t-96.5 -36zM983 1206q-55 0 -86.5 39.5t-19.5 93.5q12 53 57.5 90t99.5 37t84.5 -40t18.5 -95
q-12 -52 -56.5 -88.5t-97.5 -36.5zM590 1239q40 0 76 29.5t45 70.5q9 40 -11.5 67.5t-58.5 27.5q-41 0 -78.5 -31t-46.5 -72q-9 -38 12.5 -65t61.5 -27zM983 1239q40 0 76 29.5t45 70.5q9 40 -11.5 67.5t-58.5 27.5q-41 0 -78.5 -31t-46.5 -72q-9 -38 12.5 -65t61.5 -27z
M496 -49q-30 0 -52.5 1t-62.5 5.5t-70.5 13t-68 26t-64 41t-50.5 60.5t-34.5 83t-9 110.5t19.5 140.5l150 643h254l-154 -661q-3 -12 -4.5 -25t-1.5 -37.5t4 -46t17 -46t33.5 -41.5t56 -28.5t82.5 -11.5q67 0 121.5 22.5t85 52t53.5 68.5t30 60.5t11 40.5l153 653h254
l-149 -651q-111 -473 -604 -473zM496 -16q39 0 69 1.5t84 11t97 26t95.5 49.5t92.5 79t76 118.5t57 162.5l141 610h-188l-146 -628q-3 -12 -7.5 -27t-16.5 -42.5t-28 -52.5t-43 -52.5t-59 -48t-78.5 -33.5t-100.5 -13q-55 0 -97 13.5t-66 34.5t-39 50t-19.5 54t-4.5 54
t2 43.5t5 27.5l145 620h-188l-142 -618q-16 -70 -18 -128.5t7 -100.5t30.5 -76t45 -55.5t57.5 -37.5t62 -23.5t65 -12t59 -5.5t51 -1z" />
    <glyph glyph-name="alpha" unicode="&#x3b1;" horiz-adv-x="1384" 
d="M524 -47q-162 0 -280.5 77.5t-166 211t-11.5 293.5q36 157 143.5 288.5t259.5 207t313 75.5q92 0 191.5 -39.5t146.5 -110.5l33 121h254l-197 -549q-61 -272 -55 -548h-250q-6 43 0 100q-79 -66 -184.5 -96.5t-196.5 -30.5zM524 -14q70 0 144.5 16t157 62.5t128.5 117.5
l-4 -16q-16 -106 -14 -154h186q0 268 56 525l184 507h-184l-37 -137l-33 -2q-18 55 -75.5 95t-122.5 56.5t-128 16.5q-153 0 -298 -72.5t-248.5 -198.5t-137.5 -276q-34 -149 10 -273t154 -195.5t262 -71.5zM567 150q-155 0 -238 112.5t-46 272.5q37 157 168.5 265.5
t283.5 108.5q166 0 246.5 -106.5t40.5 -276.5q-40 -169 -165.5 -272.5t-289.5 -103.5zM567 182q153 0 269 97t153 256q37 154 -33 248t-221 94q-141 0 -263.5 -102.5t-156.5 -248.5q-34 -142 40 -243t212 -101z" />
    <glyph glyph-name="beta" unicode="&#x3b2;" horiz-adv-x="1243" 
d="M-82 -459l326 1409q54 227 213.5 361.5t376.5 134.5q212 0 303.5 -103t48.5 -292q-25 -107 -100.5 -187t-180.5 -112q126 -46 186.5 -146t32.5 -221q-46 -194 -205.5 -311t-379.5 -117q-137 0 -269 74l13 -8l-113 -482h-252zM-41 -426h186l117 502l25 -17
q123 -69 252 -69q209 0 359.5 110t193.5 293q34 141 -63.5 244.5t-280.5 112.5v18q146 -12 260 71.5t145 219.5q40 173 -41.5 263.5t-277.5 90.5q-206 0 -356.5 -127t-201.5 -344zM584 147q-88 0 -166 32.5t-113 84.5l162 707q31 129 122.5 212t203.5 83t159.5 -56.5
t24.5 -160.5q-25 -106 -109.5 -170.5t-205.5 -67.5l-35 -154h14q134 0 209 -80t47 -198q-15 -65 -51.5 -112.5t-83 -72t-91.5 -36t-87 -11.5zM584 180q32 0 63.5 5.5t66.5 20t63.5 37t52 59.5t34.5 85q25 102 -39.5 170t-183.5 68h-55l51 219q117 -3 200.5 54.5t106.5 158.5
q20 89 -17 132.5t-134 43.5q-101 0 -183 -75.5t-110 -194.5l-158 -691q33 -40 99.5 -66t142.5 -26z" />
    <glyph glyph-name="gamma" unicode="&#x3b3;" horiz-adv-x="1060" 
d="M172 -459l107 459l-154 1075h264l78 -756l430 756h295l-655 -1081l-107 -453h-258zM213 -426h193l98 432l631 1036h-217l-472 -829l-86 829h-198l149 -1042z" />
    <glyph glyph-name="delta" unicode="&#x3b4;" horiz-adv-x="1101" 
d="M442 -47q-139 0 -241 65.5t-144 179t-12 248.5q41 175 187 309.5t329 168.5l-223 280l47 201h829l-49 -213h-503l354 -444q82 -134 41 -310q-46 -202 -225 -343.5t-390 -141.5zM442 -14q130 0 254 61t212 167t116 232q38 159 -35 283l-397 496h549l33 147h-764l-35 -160
l248 -313q-190 -15 -347 -148t-198 -313q-28 -124 10.5 -228t132 -164t221.5 -60zM487 150q-118 0 -180.5 85.5t-34.5 210.5q28 121 127 205t215 84q118 0 180.5 -86t34.5 -211q-28 -122 -126.5 -205t-215.5 -83zM487 182q104 0 194.5 77t115.5 187q25 107 -28.5 181.5
t-154.5 74.5q-104 0 -194 -77t-115 -187q-25 -109 27 -182.5t155 -73.5z" />
    </font>
</defs>
</svg>
