<?xml version="1.0" standalone="no"?>
<!DOCTYPE svg PUBLIC "-//W3C//DTD SVG 1.1//EN" "http://www.w3.org/Graphics/SVG/1.1/DTD/svg11.dtd" >
<svg xmlns="http://www.w3.org/2000/svg" xmlns:xlink="http://www.w3.org/1999/xlink" version="1.1">
<metadata>
Created by FontForge 20170731 at Fri Dec 25 15:31:01 2020
 By Aleksey,,,
Copyright (c) 2018 by Adrien Midzic. All rights reserved.
</metadata>
<defs>
<font id="Lack-Line-Regular" horiz-adv-x="0" >
  <font-face 
    font-family="Lack Line"
    font-weight="400"
    font-stretch="normal"
    units-per-em="2048"
    panose-1="0 0 5 0 0 0 0 0 0 0"
    ascent="1638"
    descent="-410"
    x-height="1075"
    cap-height="1407"
    bbox="-1583 -526 2365 1960"
    underline-thickness="114"
    underline-position="-380"
    unicode-range="U+0020-FB02"
  />
<missing-glyph horiz-adv-x="614" 
 />
    <glyph glyph-name="fi" unicode="fi" horiz-adv-x="1607" 
d="M311 -16v757h-225v213h225q6 235 164.5 383t403.5 148q86 0 157 -18.5t110.5 -44.5t67 -52t36.5 -44l10 -19l2 -7v-221l-31 -8q-4 7 -12 19.5t-38.5 44.5t-66 56t-95 44t-126.5 20q-149 0 -236 -80.5t-92 -220.5h711v-778h246v-192h-746v192h246v565h-457v-757h-254z
M344 16h188v758h523v-631h-246v-127h680v127h-246v779h-711q-4 169 93.5 267.5t267.5 98.5q205 0 336 -158v166q-5 11 -15 25.5t-37.5 39t-63.5 43.5t-98 33.5t-136 14.5q-240 0 -390.5 -148t-144.5 -382h-225v-148h225v-758z" />
    <glyph glyph-name="fl" unicode="fl" horiz-adv-x="1435" 
d="M1280 1194l8 4v-1214h-254v1165q-4 8 -10.5 18t-23.5 26.5t-39 29.5t-59.5 22.5t-82.5 9.5q-126 0 -188.5 -73.5t-65.5 -227.5h334v-213h-334v-757h-254v757h-225v213h225q5 237 142.5 384t355.5 147q61 0 116 -9.5t96.5 -25t78.5 -36t63 -42.5t48 -44.5t35.5 -43
t22.5 -36t13 -24.5l4 -10zM1255 16v1178l-24 12l20 11q-11 22 -27 45.5t-53.5 59.5t-83.5 63t-119.5 47t-158.5 20q-211 0 -340 -147t-125 -383h-225v-148h225v-758h188v758h334v148h-334q-6 366 287 366q56 0 101.5 -13.5t71.5 -32t43.5 -37.5t23.5 -33l6 -13l2 -6v-1137
h188z" />
    <glyph glyph-name="f_f" unicode="ff" horiz-adv-x="1845" 
d="M311 -16v757h-225v213h225q6 210 134.5 339.5t330.5 129.5q118 0 196 -44.5t122 -102.5q62 100 161.5 154.5t223.5 54.5q65 0 121.5 -12t90 -29.5t58 -34.5t33.5 -29l10 -12l2 -10v-197l-29 -12l-11.5 11.5t-33 25.5t-53 32t-71 25.5t-87.5 11.5q-123 0 -181.5 -72
t-61.5 -229h477v-213h-477v-757h-254v757h-447v-757h-254zM344 16h188v758h512v-758h189v758h477v148h-477q-3 188 64 277t212 89q135 0 252 -90v154q-12 16 -36.5 35.5t-92 42t-153.5 22.5q-131 0 -230 -62.5t-151 -179.5q-45 87 -129.5 134t-192.5 47q-198 0 -317 -129
t-115 -340h-225v-148h225v-758zM532 922q-6 305 250 305q45 0 87.5 -17.5t71 -40.5t53.5 -53t36.5 -48.5t18.5 -33.5q-5 -87 -5 -112h-512zM565 954h447q0 26 4 72q-11 22 -28.5 46t-47 54t-71 49t-87.5 19q-107 0 -160.5 -59t-56.5 -181z" />
    <glyph glyph-name="f_f_i" unicode="ffi" horiz-adv-x="2308" 
d="M311 -16v757h-225v213h225q6 210 134.5 339.5t330.5 129.5q118 0 196 -44.5t122 -102.5q62 100 161.5 154.5t223.5 54.5q65 0 121.5 -12t90 -29.5t58 -34.5t33.5 -29l10 -12l2 -10v-197l-29 -12l-11.5 11.5t-33 25.5t-53 32t-71 25.5t-87.5 11.5q-123 0 -181.5 -72
t-61.5 -229h710v-778h246v-192h-745v192h245v565h-456v-757h-254v757h-447v-757h-254zM344 16h188v758h512v-758h189v758h522v-631h-246v-127h680v127h-245v779h-711q-3 188 64 277t212 89q135 0 252 -90v154q-12 16 -36.5 35.5t-92 42t-153.5 22.5q-131 0 -230 -62.5
t-151 -179.5q-45 87 -129.5 134t-192.5 47q-198 0 -317 -129t-115 -340h-225v-148h225v-758zM532 922q-6 305 250 305q45 0 87.5 -17.5t71 -40.5t53.5 -53t36.5 -48.5t18.5 -33.5q-5 -87 -5 -112h-512zM565 954h447q0 26 4 72q-11 22 -28.5 46t-47 54t-71 49t-87.5 19
q-107 0 -160.5 -59t-56.5 -181z" />
    <glyph glyph-name="f_f_l" unicode="ffl" horiz-adv-x="2136" 
d="M1980 1194l9 4v-1214h-254v1165q-4 8 -10.5 18t-23.5 26.5t-39 29.5t-59.5 22.5t-82.5 9.5q-126 0 -188.5 -73.5t-65.5 -227.5h333v-213h-333v-757h-254v757h-447v-757h-254v757h-225v213h225q6 210 134.5 339.5t330.5 129.5q66 0 122.5 -15.5t95.5 -41.5t63 -49t43 -49
q68 103 174.5 160t234.5 57q77 0 145 -15t115 -39t86 -52.5t63 -57.5t40 -53t22 -39l7 -15zM1956 16v1178l-25 12l21 11q-11 22 -27 45.5t-54 59.5t-83.5 63t-119.5 47t-159 20q-134 0 -241.5 -65t-169.5 -181q-50 100 -147 148q-78 37 -175 37q-198 0 -317 -129t-115 -340
h-225v-148h225v-758h188v758h512v-758h189v758h334v148h-334q-6 366 287 366q56 0 101.5 -13.5t71 -32t43 -37.5t23.5 -33l6 -13l2 -6v-1137h189zM782 1227q46 0 88.5 -17.5t71.5 -42t53.5 -54.5t36 -49.5t17.5 -33.5q-5 -41 -5 -108h-512q-6 305 250 305zM1012 954
q0 47 4 72q-13 24 -30 46.5t-46.5 53t-70.5 49.5t-87 19q-107 0 -160.5 -59t-56.5 -181h447z" />
    <glyph glyph-name=".notdef" horiz-adv-x="614" 
 />
    <glyph glyph-name=".null" 
 />
    <glyph glyph-name="nonmarkingreturn" horiz-adv-x="682" 
 />
    <glyph glyph-name="space" unicode=" " horiz-adv-x="532" 
 />
    <glyph glyph-name="exclam" unicode="!" horiz-adv-x="696" 
d="M213 518v930h272v-930h-272zM246 551h207v864h-207v-864zM348 -31q-76 0 -128 52t-52 129q0 75 52.5 127.5t127.5 52.5q74 0 127 -53t53 -127q0 -75 -52.5 -128t-127.5 -53zM348 2q63 0 105.5 42.5t42.5 105.5q0 61 -43 104t-105 43q-63 0 -105 -42t-42 -105
q0 -65 41.5 -106.5t105.5 -41.5z" />
    <glyph glyph-name="quotedbl" unicode="&#x22;" horiz-adv-x="747" 
d="M100 909l-37 537h261l-37 -537h-187zM461 909l-37 537h260l-37 -537h-186zM129 942h129l29 471h-187zM489 942h129l29 471h-186z" />
    <glyph glyph-name="numbersign" unicode="#" horiz-adv-x="1441" 
d="M90 -20l156 389h-213v241h303l53 138h-268v241h362l138 357h274l-137 -357h172l137 357h274l-137 -357h213v-241h-307l-53 -138h272v-241h-368l-150 -389h-274l149 389h-172l-149 -389h-275zM139 12h205l150 389h241l-149 -389h205l149 389h356v177h-288l82 202h294v176
h-229l137 357h-205l-137 -357h-241l137 357h-205l-137 -357h-350v-176h284l-82 -202h-290v-177h229zM561 578l82 202h242l-82 -202h-242zM610 610h172l54 138h-172z" />
    <glyph glyph-name="dollar" unicode="$" horiz-adv-x="1191" 
d="M475 -186v141q-124 9 -228.5 47.5t-170.5 99.5v273q95 -83 224.5 -131.5t256.5 -48.5q277 0 277 174q0 67 -61.5 111.5t-217.5 109.5q-112 47 -183.5 87.5t-128.5 95t-82.5 124t-25.5 162.5q0 132 91 231t249 137v125h256v-108q154 -18 285 -111v-289q-62 72 -165.5 115
t-217.5 43q-112 -1 -174 -39t-62 -104q0 -21 3 -38.5t13.5 -33.5t19 -28t30.5 -26t36 -23t48 -24.5t54.5 -24t66.5 -27.5q91 -37 153 -68.5t118 -72.5t88 -86.5t50.5 -105t18.5 -134.5q0 -146 -98.5 -252.5t-266.5 -143.5v-157h-256zM508 -154h190v152q167 29 266 129
t99 240q0 70 -17 125.5t-46.5 97t-83 80t-112.5 68t-149 67.5q-45 19 -67 28.5t-56.5 25t-51.5 26t-40 26.5t-33.5 30t-22 33t-15.5 39.5t-4 45.5q0 82 71 128t197 48q96 0 188.5 -30.5t161.5 -84.5v197q-129 86 -285 98v105h-190v-117q-158 -34 -249 -126t-91 -218
q0 -88 22.5 -151.5t76.5 -115t121.5 -89.5t178.5 -85q82 -34 128 -56.5t90 -52.5t62.5 -63.5t18.5 -76.5q0 -101 -78.5 -154t-230.5 -53q-116 0 -234 38.5t-214 106.5v-188q144 -123 399 -133v-140z" />
    <glyph glyph-name="percent" unicode="%" horiz-adv-x="1476" 
d="M420 817q-129 0 -221.5 92t-92.5 221q0 131 92.5 224.5t221.5 93.5q130 0 223.5 -93.5t93.5 -224.5q0 -129 -93 -221t-224 -92zM219 -49l799 1493h213l-799 -1493h-213zM420 850q119 0 202 81.5t83 198.5q0 118 -83.5 201.5t-201.5 83.5q-117 0 -199 -83t-82 -202
q0 -117 82 -198.5t199 -81.5zM272 -16h140l766 1427h-140zM420 961q-69 0 -119.5 50t-50.5 119q0 71 50.5 123t119.5 52q70 0 122 -52t52 -123q0 -69 -51.5 -119t-122.5 -50zM420 993q59 0 100 40t41 97q0 59 -41.5 100.5t-99.5 41.5q-57 0 -97 -41.5t-40 -100.5
q0 -57 40 -97t97 -40zM1053 -49q-129 0 -221.5 92t-92.5 221q0 131 92.5 224.5t221.5 93.5q130 0 223.5 -93.5t93.5 -224.5q0 -129 -93 -221t-224 -92zM1053 -16q119 0 201.5 81.5t82.5 198.5q0 119 -83 202t-201 83q-117 0 -199 -83t-82 -202q0 -117 82 -198.5t199 -81.5z
M1053 94q-69 0 -119.5 50.5t-50.5 119.5q0 71 50.5 122.5t119.5 51.5q71 0 122.5 -52t51.5 -122q0 -69 -51.5 -119.5t-122.5 -50.5zM1053 127q59 0 100 40t41 97q0 59 -41.5 100.5t-99.5 41.5q-57 0 -97.5 -41.5t-40.5 -100.5q0 -57 40.5 -97t97.5 -40z" />
    <glyph glyph-name="ampersand" unicode="&#x26;" horiz-adv-x="1452" 
d="M551 -47q-213 0 -350 104q-135 105 -135 295q0 120 70.5 213t225.5 176q-72 94 -103.5 168t-31.5 150q0 180 106 280.5t294 100.5q180 0 282.5 -92.5t102.5 -253.5q0 -98 -77 -203t-212 -193l151 -161l115 -121l254 254v-281l-113 -121l279 -284h-324q-8 7 -23.5 24
t-21.5 23q-23 25 -71 73q-171 -151 -418 -151zM551 -14q251 0 418 164q42 -37 94 -97q12 -14 35 -37h233l-246 252l125 133v191l-221 -225l-317 340q143 85 225 188.5t82 198.5q0 149 -92.5 231t-259.5 82q-175 0 -271 -91t-96 -257q0 -75 34.5 -150.5t117.5 -179.5
q-165 -82 -239.5 -171t-74.5 -206q0 -171 123 -270q128 -96 330 -96zM590 803q-74 79 -104.5 140t-30.5 132q0 78 46.5 124t125.5 46q82 0 128 -45t46 -125q0 -144 -211 -272zM594 844q174 113 174 231q0 66 -36.5 101.5t-104.5 35.5q-66 0 -103 -35.5t-37 -101.5
q0 -60 24 -111.5t83 -119.5zM580 147q-132 0 -208.5 54t-76.5 149q0 86 54 159t151 116l364 -369q-130 -109 -284 -109zM580 180q126 0 235 80l-323 324q-78 -40 -121 -101t-43 -133q0 -80 66.5 -125t185.5 -45z" />
    <glyph glyph-name="quotesingle" unicode="'" horiz-adv-x="456" 
d="M43 807l74 639h299l-164 -639h-209zM80 840h147l148 573h-230z" />
    <glyph glyph-name="parenleft" unicode="(" horiz-adv-x="753" 
d="M350 -260q-9 19 -24 53.5t-53.5 140t-68 210t-53.5 249t-24 271.5q0 128 23 265.5t56 243t65.5 192t55.5 133.5l23 46l15 8h239l14 -24q-9 -17 -24 -47.5t-54 -126.5t-68.5 -193t-54 -234t-24.5 -263q0 -125 23.5 -264.5t57.5 -249.5t68 -202.5t58 -143.5l23 -50l-15 -24
h-243zM375 -238h207q-28 62 -55.5 133.5t-70.5 201t-69.5 280t-26.5 287.5q0 111 19 231.5t43.5 211t59 184.5t55 140t41.5 89h-203q-21 -42 -48 -107t-69.5 -185t-70 -271t-27.5 -293t27.5 -298.5t70 -286t69 -199.5t48.5 -118z" />
    <glyph glyph-name="parenright" unicode=")" horiz-adv-x="733" 
d="M131 -246q9 19 24.5 53t55 138t69.5 207t55 245t25 267q0 126 -23 261t-56 238.5t-66.5 188.5t-56.5 130l-23 46l15 24h219l14 -8q9 -17 24 -48.5t53.5 -129t68 -196t53.5 -238.5t24 -268q0 -127 -23 -269t-56 -254t-65.5 -205.5t-55.5 -144.5l-23 -51l-14 -10h-224z
M172 -238h186q22 48 48.5 118t69 199.5t70 286t27.5 298.5t-27.5 293t-70 271t-69.5 185t-48 107h-182q28 -57 55.5 -124.5t69 -187t67 -263.5t25.5 -281t-26.5 -287.5t-69 -280t-70 -201t-55.5 -133.5z" />
    <glyph glyph-name="asterisk" unicode="*" horiz-adv-x="874" 
d="M342 684l12 238l-198 -131l-97 167l213 107l-213 106l97 168l198 -131l-12 238h190l-12 -238l199 131l96 -168l-213 -106l213 -107l-96 -165l-199 131l12 -240h-190zM375 717h125l-17 268l224 -147l63 108l-242 119l242 119l-63 110l-224 -151l17 270h-125l16 -266
l-223 147l-64 -110l242 -119l-242 -119l64 -110l223 147z" />
    <glyph glyph-name="plus" unicode="+" horiz-adv-x="1386" 
d="M557 188v416h-426v244h426v416h272v-416h426v-244h-426v-416h-272zM590 221h207v416h426v178h-426v416h-207v-416h-426v-178h426v-416z" />
    <glyph glyph-name="comma" unicode="," horiz-adv-x="681" 
d="M18 -326l195 557h311l-264 -557h-242zM63 -293h177l231 492h-233z" />
    <glyph glyph-name="hyphen" unicode="-" horiz-adv-x="1052" 
d="M129 483v242h795v-242h-795zM162 516h729v176h-729v-176z" />
    <glyph glyph-name="period" unicode="." horiz-adv-x="655" 
d="M328 -31q-76 0 -128.5 52.5t-52.5 128.5q0 75 53 127.5t128 52.5q74 0 127 -53t53 -127q0 -75 -52.5 -128t-127.5 -53zM328 2q63 0 105 42.5t42 105.5q0 62 -42.5 104.5t-104.5 42.5q-63 0 -105.5 -42t-42.5 -105q0 -64 42 -106t106 -42z" />
    <glyph glyph-name="slash" unicode="/" horiz-adv-x="931" 
d="M-25 -133l707 1583h274l-706 -1583h-275zM25 -100h204l678 1517h-205z" />
    <glyph glyph-name="zero" unicode="0" horiz-adv-x="1228" 
d="M616 -47q-247 -4 -391 198.5t-139 544.5q-3 223 60 390t184.5 259t285.5 95q165 -3 285 -94.5t182.5 -258.5t59.5 -391q5 -343 -138 -545t-389 -198zM616 -14q231 -4 365 188.5t129 521.5q5 324 -128 515.5t-366 195.5q-234 -4 -368 -196t-129 -515q-5 -328 130.5 -521
t366.5 -189zM616 164q-148 0 -224.5 136.5t-76.5 395.5t77 397t224 138t222 -136.5t75 -398.5t-75 -397t-222 -135zM616 197q265 0 265 499q0 502 -265 502q-132 0 -200 -128.5t-68 -373.5q0 -246 67.5 -372.5t200.5 -126.5z" />
    <glyph glyph-name="one" unicode="1" horiz-adv-x="1087" 
d="M127 -16v229h328v967h-328v227h584v-1194h290v-229h-874zM160 16h809v164h-291v1194h-518v-162h327v-1032h-327v-164z" />
    <glyph glyph-name="two" unicode="2" horiz-adv-x="1226" 
d="M205 -16l2 2h-119l467 563q-171 28 -282 153.5t-111 292.5q0 187 137.5 320t331.5 133t331.5 -133t137.5 -320q0 -176 -119 -301l-403 -481h516v-229h-889zM283 16h778v164h-553l448 535q111 117 111 280q0 173 -128 296.5t-308 123.5t-308 -123.5t-128 -296.5
q0 -170 122 -292t301 -128l-460 -557h127zM631 754q-101 0 -171.5 70t-70.5 171t70.5 171.5t171.5 70.5t171 -70.5t70 -171.5t-70 -171t-171 -70zM631 786q89 0 149 60t60 149t-60 149t-149 60t-149 -60t-60 -149t60 -149t149 -60z" />
    <glyph glyph-name="three" unicode="3" horiz-adv-x="1200" 
d="M621 -47q-209 0 -354.5 144.5t-139.5 346.5h264q-6 -102 61 -172.5t169 -70.5q97 0 163 65t66 162q0 98 -65.5 163.5t-163.5 65.5q-74 0 -127 -34l184 557h-496v227h830l-185 -539h-20l6 -2q137 -56 219 -175t82 -263q0 -129 -66 -238.5t-179.5 -173t-247.5 -63.5z
M621 -14q192 0 326 129t134 313q0 134 -75.5 245t-202.5 163h-21l185 538h-752v-162h508l-174 -530q46 8 72 8q110 0 186 -76t76 -186t-76 -185t-186 -75q-106 0 -181.5 70t-81.5 174h-198q8 -179 141 -302.5t320 -123.5z" />
    <glyph glyph-name="four" unicode="4" horiz-adv-x="1175" 
d="M756 -14v463h-682l536 958h279l-404 -733h543v-688h-272zM788 18h207v623h-567l403 733h-200l-500 -893h657v-463z" />
    <glyph glyph-name="five" unicode="5" horiz-adv-x="1159" 
d="M580 -47q-209 0 -354.5 144.5t-139.5 346.5h264q-6 -102 61 -172.5t169 -70.5q97 0 163 65t66 162q0 98 -65.5 163.5t-163.5 65.5q-68 0 -115 -30l-125 51v729h719v-227h-463v-275q100 -3 176 -39q137 -56 219 -175t82 -263q0 -129 -66 -238.5t-179.5 -173t-247.5 -63.5z
M580 -14q192 0 326 129t134 313q0 135 -76 246t-204 164q-88 37 -197 34v340h463v162h-653v-676l90 -34q51 26 117 26q110 0 186 -76t76 -186t-76 -185t-186 -75q-106 0 -181.5 70t-81.5 174h-198q8 -179 141 -302.5t320 -123.5z" />
    <glyph glyph-name="six" unicode="6" horiz-adv-x="1241" 
d="M621 -45q-204 0 -349 139.5t-145 335.5q0 189 135 330v-2l516 649h316l-396 -506q179 -26 297.5 -160t118.5 -311q0 -129 -66 -238.5t-179.5 -173t-247.5 -63.5zM621 -12q192 0 326 129t134 313q0 180 -129 309t-317 135l393 500h-233l-508 -637v-2q-127 -130 -127 -305
q0 -184 134.5 -313t326.5 -129zM621 170q-111 0 -187 75t-76 185t76.5 186t186.5 76t186 -76t76 -186t-76 -185t-186 -75zM621 203q97 0 163 65t66 162q0 98 -65.5 163.5t-163.5 65.5t-164 -65.5t-66 -163.5q0 -96 66.5 -161.5t163.5 -65.5z" />
    <glyph glyph-name="seven" unicode="7" horiz-adv-x="1085" 
d="M182 -16l449 1196h-504v227h858l-522 -1423h-281zM231 16h207l502 1358h-780v-162h520z" />
    <glyph glyph-name="eight" unicode="8" horiz-adv-x="1159" 
d="M580 -45q-137 0 -252.5 61.5t-182.5 167t-67 230.5q0 105 50 198.5t140 157.5q-106 112 -106 270q0 167 122.5 285.5t295.5 118.5t295 -118.5t122 -285.5q0 -158 -106 -270q90 -64 140 -157.5t50 -198.5q0 -125 -66.5 -230.5t-182 -167t-252.5 -61.5zM580 -12
q195 0 332 124.5t137 301.5q0 106 -55.5 199t-153.5 153q125 109 125 274q0 154 -112.5 262.5t-272.5 108.5t-272.5 -108.5t-112.5 -262.5q0 -166 124 -274q-98 -60 -153 -153t-55 -199q0 -177 137 -301.5t332 -124.5zM580 838q-88 0 -147.5 58t-59.5 144q0 88 59.5 146.5
t147.5 58.5t147 -58.5t59 -146.5q0 -86 -59 -144t-147 -58zM580 870q74 0 124 49t50 121q0 73 -50 122.5t-124 49.5t-124 -49.5t-50 -122.5q0 -72 50 -121t124 -49zM580 150q-117 0 -197 76t-80 186q0 109 80 183.5t197 74.5t196.5 -74.5t79.5 -183.5q0 -110 -79.5 -186
t-196.5 -76zM580 182q104 0 173.5 66t69.5 164q0 97 -69.5 161t-173.5 64t-174 -64t-70 -161q0 -98 70 -164t174 -66z" />
    <glyph glyph-name="nine" unicode="9" horiz-adv-x="1159" 
d="M121 -16l397 505q-185 23 -308.5 159t-123.5 317q0 196 145 335.5t349 139.5q134 0 247.5 -63.5t179.5 -173t66 -238.5q0 -125 -63 -236h6l-594 -745h-301zM186 16h220l540 680h33l-14 27q75 107 75 242q0 184 -134 313t-326 129t-326.5 -129t-134.5 -313
q0 -120 61.5 -222.5t168 -163t233.5 -61.5zM580 702q-110 0 -186.5 76.5t-76.5 186.5t76 185t187 75q110 0 186 -75t76 -185t-76 -186.5t-186 -76.5zM580 735q98 0 163.5 66t65.5 164q0 97 -66 162t-163 65t-163.5 -65.5t-66.5 -161.5q0 -98 66 -164t164 -66z" />
    <glyph glyph-name="colon" unicode=":" horiz-adv-x="913" 
d="M457 637q-77 0 -129 52t-52 128q0 75 53 127.5t128 52.5q73 0 126.5 -53.5t53.5 -126.5q0 -75 -52.5 -127.5t-127.5 -52.5zM457 670q63 0 105 42t42 105q0 62 -43 105t-104 43q-63 0 -105.5 -42.5t-42.5 -105.5q0 -64 41.5 -105.5t106.5 -41.5zM457 -31q-77 0 -129 52.5
t-52 128.5q0 75 53 127.5t128 52.5q73 0 126.5 -53t53.5 -127q0 -75 -52.5 -128t-127.5 -53zM457 2q63 0 105 42.5t42 105.5q0 62 -43 104.5t-104 42.5q-63 0 -105.5 -42t-42.5 -105q0 -64 41.5 -106t106.5 -42z" />
    <glyph glyph-name="semicolon" unicode=";" horiz-adv-x="856" 
d="M457 637q-77 0 -129 52t-52 128q0 75 53 127.5t128 52.5q73 0 126.5 -53.5t53.5 -126.5q0 -75 -52.5 -127.5t-127.5 -52.5zM457 670q63 0 105 42t42 105q0 62 -43 105t-104 43q-63 0 -105.5 -42.5t-42.5 -105.5q0 -64 41.5 -105.5t106.5 -41.5zM88 -326l195 557h311
l-264 -557h-242zM133 -293h176l232 492h-234z" />
    <glyph glyph-name="less" unicode="&#x3c;" horiz-adv-x="1103" 
d="M1018 -29l-932 531v153l932 428v-239l-633 -264l633 -365v-244zM985 29v166l-674 389l674 280v170l-866 -399v-113z" />
    <glyph glyph-name="equal" unicode="=" horiz-adv-x="1290" 
d="M170 788v242h952v-242h-952zM203 821h887v176h-887v-176zM170 369v241h952v-241h-952zM203 401h887v177h-887v-177z" />
    <glyph glyph-name="greater" unicode="&#x3e;" horiz-adv-x="1103" 
d="M86 -29v244l633 365l-633 264v239l932 -428v-153zM119 29l866 493v113l-866 399v-170l674 -280l-674 -389v-166z" />
    <glyph glyph-name="question" unicode="?" horiz-adv-x="727" 
d="M166 436v350q95 -6 160 55t65 154t-65 154t-160 55v244q98 3 188 -32t155 -96t103.5 -146t38.5 -179q0 -120 -62 -225t-169 -166v-168h-254zM199 469h188v156q107 54 169 153.5t62 216.5q0 169 -122 291.5t-297 128.5v-178q96 -6 160.5 -75t64.5 -167t-64.5 -166.5
t-160.5 -74.5v-285zM287 -31q-77 0 -129 52.5t-52 128.5q0 75 53 127.5t128 52.5q73 0 126.5 -53t53.5 -127q0 -75 -52.5 -128t-127.5 -53zM287 2q63 0 105 42.5t42 105.5q0 62 -43 104.5t-104 42.5q-63 0 -105.5 -42t-42.5 -105q0 -64 41.5 -106t106.5 -42z" />
    <glyph glyph-name="at" unicode="@" horiz-adv-x="1742" 
d="M901 -365q-169 -3 -323.5 59t-266.5 168.5t-178.5 255t-66.5 312.5q0 161 64 308t172 253.5t256.5 170t311.5 63.5q173 0 323 -57t256 -156t167 -239.5t61 -301.5q0 -195 -101 -314.5t-265 -119.5q-74 0 -127 27.5t-78 78.5q-44 -47 -113.5 -77.5t-132.5 -30.5
q-177 0 -298.5 119t-121.5 292q0 172 121.5 291t296.5 119q119 0 201 -63v43h209v-529q0 -41 12.5 -59.5t40.5 -18.5q59 0 95 72.5t36 147.5q0 255 -157.5 405t-424.5 150q-153 0 -283.5 -77t-207 -209.5t-76.5 -287.5q0 -158 80.5 -291.5t218.5 -209.5t299 -72v-222z
M868 -332v156q-122 3 -232.5 52.5t-190.5 130.5t-127.5 191.5t-47.5 231.5q0 122 48 234.5t128.5 193.5t191.5 129.5t232 48.5q281 0 448 -159.5t167 -427.5q0 -50 -17 -105.5t-56 -101t-91 -45.5q-86 0 -86 110v496h-143v-103q-20 53 -87.5 88t-146.5 35
q-163 0 -274 -108.5t-111 -268.5t112 -269t275 -109q77 0 157.5 46.5t104.5 108.5q0 -72 50.5 -112.5t138.5 -40.5q150 0 242 109.5t92 291.5q0 207 -99.5 372t-276.5 257t-399 92q-157 0 -300 -60.5t-246.5 -162.5t-164.5 -243t-61 -296q0 -153 61 -293t164 -241.5
t245.5 -163t299.5 -64.5zM858 207q-97 0 -165 69.5t-68 169.5t68 170t165 70q103 0 168.5 -67t65.5 -173q0 -107 -65 -173t-169 -66zM858 240q91 0 146 56t55 150t-55 150.5t-146 56.5q-83 0 -142 -60.5t-59 -146.5t59 -146t142 -60z" />
    <glyph glyph-name="A" unicode="A" horiz-adv-x="1542" 
d="M18 -16l633 1423h240l633 -1423h-295l-133 329h-650l-133 -329h-295zM68 16h225l133 330h690l133 -330h226l-605 1358h-198zM496 522l276 649l275 -649h-551zM545 555h452l-225 535z" />
    <glyph glyph-name="B" unicode="B" horiz-adv-x="1363" 
d="M168 -16v1423h586q236 0 352.5 -93t116.5 -282q0 -98 -45.5 -169t-128.5 -103q116 -32 182.5 -122t66.5 -216q0 -211 -132 -324.5t-375 -113.5h-623zM201 16h590q229 0 352 105.5t123 300.5q0 132 -80 219.5t-213 97.5v33q102 17 159.5 86t57.5 174q0 175 -106 258.5
t-330 83.5h-553v-1358zM391 819v379h334q43 0 72.5 -2t64 -7.5t57 -18t42.5 -32t30.5 -50.5t12.5 -72q0 -105 -68.5 -151t-222.5 -46h-322zM424 852h289q142 0 200 37t58 127q-2 42 -15 70t-31 43.5t-52 23.5t-64.5 10t-83.5 2h-301v-313zM391 193v460h383q289 0 289 -227
q0 -233 -289 -233h-383zM424 225h350q130 0 193 49.5t63 151.5q0 99 -63 147t-193 48h-350v-396z" />
    <glyph glyph-name="C" unicode="C" horiz-adv-x="1441" 
d="M860 -47q-221 -3 -402 94.5t-283 269t-99 379.5q-2 156 57.5 295t163.5 238t251 156t312 55q160 0 277 -40t190 -91v-244l-31 -8q-4 6 -26 21t-63.5 35.5t-92 39.5t-118.5 32t-136 13q-233 0 -376.5 -139t-143.5 -363q0 -226 142.5 -362.5t377.5 -136.5q153 0 289.5 47
t216.5 127v-277l-8 -14q-1 0 -20.5 -12t-37.5 -21t-50.5 -24t-70.5 -26t-85.5 -21.5t-108 -16.5t-125.5 -6zM860 -14q290 0 473 118v197q-88 -65 -212.5 -101t-260.5 -36q-248 0 -400.5 146.5t-152.5 385.5q0 238 153 386.5t400 148.5q131 0 246.5 -41.5t187.5 -89.5v192
q-181 115 -434 115q-159 2 -299.5 -52t-240 -148.5t-156.5 -227.5t-55 -283q-2 -150 55 -282.5t156.5 -227t240 -148.5t299.5 -52z" />
    <glyph glyph-name="D" unicode="D" horiz-adv-x="1556" 
d="M168 -16v1423h520q352 0 562 -193.5t210 -517.5q0 -156 -56.5 -289t-157 -226t-244.5 -145t-314 -52h-520zM201 16h487q330 0 534.5 188t204.5 492q0 310 -200.5 494t-538.5 184h-487v-1358zM391 195v1003h279q269 0 414 -130.5t145 -371.5q-7 -244 -150.5 -372.5
t-406.5 -128.5h-281zM424 227h248q250 0 383 120t141 349q0 227 -135.5 348t-390.5 121h-246v-938z" />
    <glyph glyph-name="E" unicode="E" horiz-adv-x="1314" 
d="M168 -16v1423h1049v-242h-793v-303h631v-241h-631v-396h805v-241h-1061zM201 16h995v177h-805v460h631v176h-631v369h793v176h-983v-1358z" />
    <glyph glyph-name="F" unicode="F" horiz-adv-x="1277" 
d="M168 -16v1423h1049v-242h-793v-303h631v-241h-631v-637h-256zM201 16h190v637h631v176h-631v369h793v176h-983v-1358z" />
    <glyph glyph-name="G" unicode="G" horiz-adv-x="1589" 
d="M834 -47q-211 0 -383.5 98t-270 268.5t-94.5 376.5q-2 156 57.5 295t163.5 238t251 156t312 55q178 0 308 -45q144 -50 198 -88v-285q-42 54 -202 123q-127 53 -304 53q-233 0 -376.5 -139t-143.5 -363q0 -215 138.5 -358t345.5 -143q200 0 360 116v277h-416v241h672
v-845h-256v59q-161 -90 -360 -90zM834 -14q109 0 212 30.5t181 85.5v-86h190v781h-606v-176h416v-326q-72 -55 -174 -94t-219 -39q-221 0 -369 152.5t-148 381.5q0 238 153 386.5t400 148.5q190 0 316 -57q97 -39 157 -80v196q-59 32 -178 72q-116 45 -295 45
q-159 2 -299.5 -52t-240 -148.5t-156.5 -227.5t-55 -283q-2 -147 52 -278.5t149 -226.5t229 -150t285 -55z" />
    <glyph glyph-name="H" unicode="H" horiz-adv-x="1538" 
d="M168 -16v1423h256v-545h690v545h256v-1423h-256v637h-690v-637h-256zM201 16h190v637h756v-637h190v1358h-190v-545h-756v545h-190v-1358z" />
    <glyph glyph-name="I" unicode="I" horiz-adv-x="591" 
d="M168 -16v1423h256v-1423h-256zM201 16h190v1358h-190v-1358z" />
    <glyph glyph-name="J" unicode="J" horiz-adv-x="1110" 
d="M469 -47q-99 0 -250 45.5t-151 79.5v213l24 14q28 -16 70.5 -36t127 -46t148.5 -26q162 0 230.5 61.5t68.5 206.5v942h256v-938q0 -239 -140.5 -377.5t-383.5 -138.5zM469 -14q230 0 361 128.5t131 354.5v905h-191v-909q0 -159 -78.5 -230t-253.5 -71q-84 0 -178.5 32.5
t-159.5 67.5v-186q20 -10 55.5 -25.5t132.5 -41t181 -25.5z" />
    <glyph glyph-name="K" unicode="K" horiz-adv-x="1404" 
d="M168 -16v1423h254v-610l649 610h340l-635 -582l625 -841h-320l-491 665l-168 -157v-508h-254zM201 16h188v488l205 194l504 -682h237l-604 813l594 545h-242l-694 -655v655h-188v-1358z" />
    <glyph glyph-name="L" unicode="L" horiz-adv-x="1327" 
d="M168 -16v1423h254v-1182h844v-241h-1098zM201 16h1032v177h-844v1181h-188v-1358z" />
    <glyph glyph-name="M" unicode="M" horiz-adv-x="1693" 
d="M168 -16v1423h285l409 -631v49l379 582h285v-1423h-254v1015l-316 -477h-219l-315 477v-1015h-254zM201 16h188v1094l365 -555h186l365 555v-1094h188v1358h-236l-428 -659v53l-393 606h-235v-1358z" />
    <glyph glyph-name="N" unicode="N" horiz-adv-x="1579" 
d="M168 -16v1423h281l708 -1018v1018h254v-1423h-272l-717 1034v-1034h-254zM201 16h188v1108l766 -1108h223v1358h-188v-1087l-758 1087h-231v-1358z" />
    <glyph glyph-name="O" unicode="O" horiz-adv-x="1644" 
d="M821 -47q-155 -2 -294 55.5t-238.5 156.5t-157 238t-55.5 293q-2 154 55.5 293t157 238.5t238.5 157t294 55.5q155 2 295 -55.5t240 -157t157.5 -238.5t55.5 -293q2 -154 -55.5 -293t-157.5 -238t-240 -156.5t-295 -55.5zM821 -14q148 -2 282 53t229.5 150t150.5 227.5
t53 279.5q2 147 -53 280t-150.5 228t-229.5 150t-282 53q-148 2 -281.5 -52.5t-228.5 -149.5t-149.5 -228t-52.5 -281q-3 -197 90.5 -361.5t258.5 -258t363 -90.5zM821 164q-227 0 -371.5 149.5t-144.5 382.5t145 384t371 151q227 0 371.5 -150t144.5 -385t-144 -383.5
t-372 -148.5zM821 197q215 0 349.5 138t134.5 361q0 221 -135 361.5t-349 140.5q-212 0 -347.5 -141t-135.5 -361q0 -221 134.5 -360t348.5 -139z" />
    <glyph glyph-name="P" unicode="P" horiz-adv-x="1429" 
d="M168 -16v1423h670q222 0 365 -133t143 -340t-145 -340t-370 -133h-407v-477h-256zM201 16h190v478h440q212 0 347 123t135 317t-133 317t-342 123h-637v-1358zM391 666v532h430q126 0 210.5 -76.5t84.5 -191.5q0 -114 -84.5 -189t-210.5 -75h-430zM424 698h397
q114 0 188 66t74 166q0 101 -74 168t-188 67h-397v-467z" />
    <glyph glyph-name="Q" unicode="Q" horiz-adv-x="1644" 
d="M821 -47q-155 -2 -294 55.5t-238.5 156.5t-157 238t-55.5 293q-2 154 55.5 293t157 238.5t238.5 157t294 55.5q155 2 295 -55.5t240 -157t157.5 -238.5t55.5 -293q3 -137 -45.5 -266.5t-141.5 -234.5h238v-242h-799zM821 -14h766v176h-282q114 103 174 242t57 292
q2 147 -53 280t-150.5 228t-229.5 150t-282 53q-148 2 -281.5 -52.5t-228.5 -149.5t-149.5 -228t-52.5 -281q-3 -197 90.5 -361.5t258.5 -258t363 -90.5zM821 164q-227 0 -371.5 149.5t-144.5 382.5t145 384t371 151q227 0 371.5 -150t144.5 -385t-144 -383.5t-372 -148.5z
M821 197q215 0 349.5 138t134.5 361q0 221 -135 361.5t-349 140.5q-212 0 -347.5 -141t-135.5 -361q0 -221 134.5 -360t348.5 -139z" />
    <glyph glyph-name="R" unicode="R" horiz-adv-x="1411" 
d="M168 -16v1423h629q230 0 369 -120.5t139 -321.5q0 -154 -85 -264t-239 -154l420 -563h-320l-397 538h-260v-538h-256zM201 16h190v539h309l398 -539h237l-409 551q164 34 255 138.5t91 259.5q0 186 -129 297.5t-346 111.5h-596v-1358zM391 727v471h389q135 0 215 -64
t80 -173q0 -107 -80 -170.5t-215 -63.5h-389zM424 760h356q123 0 192.5 53.5t69.5 147.5q0 95 -69.5 149.5t-192.5 54.5h-356v-405z" />
    <glyph glyph-name="S" unicode="S" horiz-adv-x="1191" 
d="M557 -49q-164 0 -287.5 44t-193.5 107v273q95 -83 224.5 -131.5t256.5 -48.5q277 0 277 174q0 67 -61.5 111.5t-217.5 109.5q-112 47 -183.5 87.5t-128.5 95t-82.5 124t-25.5 162.5q0 170 145.5 279.5t372.5 109.5q195 3 363 -115v-289q-62 72 -165.5 115t-217.5 43
q-112 -1 -174 -39t-62 -104q0 -21 3 -38.5t13.5 -33.5t19 -28t30.5 -26t36 -23t48 -24.5t54.5 -24t66.5 -27.5q91 -37 153 -68.5t118 -72.5t88 -86.5t50.5 -105t18.5 -134.5q0 -184 -151 -300t-388 -116zM557 -16q224 0 365 107t141 276q0 70 -17 125.5t-46.5 97t-83 80
t-112.5 68t-149 67.5q-45 19 -67 28.5t-56.5 25t-51.5 26t-40 26.5t-33.5 30t-22 33t-15.5 39.5t-4 45.5q0 82 71 128t197 48q96 0 188.5 -30.5t161.5 -84.5v197q-152 101 -330 98q-214 0 -349.5 -99.5t-135.5 -256.5q0 -88 22.5 -151.5t76.5 -115t121.5 -89.5t178.5 -85
q82 -34 128 -56.5t90 -52.5t62.5 -63.5t18.5 -76.5q0 -101 -78.5 -154t-230.5 -53q-116 0 -234 38.5t-214 106.5v-188q75 -64 193 -99.5t255 -35.5z" />
    <glyph glyph-name="T" unicode="T" horiz-adv-x="1359" 
d="M553 -16v1181h-487v242h1228v-242h-487v-1181h-254zM586 16h188v1182h488v176h-1164v-176h488v-1182z" />
    <glyph glyph-name="U" unicode="U" horiz-adv-x="1445" 
d="M723 -47q-283 0 -434.5 149.5t-151.5 427.5v877h256v-872q0 -158 86.5 -246t243.5 -88q169 0 249.5 82t80.5 252v872h256v-877q0 -278 -151.5 -427.5t-434.5 -149.5zM723 -14q268 0 410.5 140t142.5 404v844h-191v-839q0 -185 -89.5 -276t-272.5 -91q-169 0 -266 98
t-97 269v839h-190v-844q0 -264 142.5 -404t410.5 -140z" />
    <glyph glyph-name="V" unicode="V" horiz-adv-x="1437" 
d="M582 -16l-543 1423h291l383 -1059l395 1059h291l-543 -1423h-274zM606 16h225l519 1358h-217l-420 -1120l-408 1120h-217z" />
    <glyph glyph-name="W" unicode="W" horiz-adv-x="2117" 
d="M483 -16l-442 1423h289l297 -1065l295 1065h274l297 -1065l295 1065h289l-443 -1423h-282l-293 1030l-291 -1030h-285zM508 16h235l316 1117l317 -1117h234l422 1358h-220l-319 -1155l-322 1155h-225l-319 -1155l-322 1155h-219z" />
    <glyph glyph-name="X" unicode="X" horiz-adv-x="1456" 
d="M31 -16l538 749l-508 674h312l348 -483l356 483h312l-515 -676l551 -747h-311l-393 538l-379 -538h-311zM96 16h230l395 564l409 -564h230l-526 715l489 643h-229l-373 -508l-365 508h-229l483 -641z" />
    <glyph glyph-name="Y" unicode="Y" horiz-adv-x="1384" 
d="M563 -16v608l-553 815h305l377 -578l375 578h307l-553 -815v-608h-258zM596 16h192v584l525 774h-230l-391 -606l-393 606h-227l524 -774v-584z" />
    <glyph glyph-name="Z" unicode="Z" horiz-adv-x="1400" 
d="M137 -16v231l807 950h-768v242h1102v-231l-801 -951h828v-241h-1168zM170 16h1102v177h-864l837 995v186h-1036v-176h805l-844 -995v-187z" />
    <glyph glyph-name="bracketleft" unicode="[" horiz-adv-x="768" 
d="M127 -272v1822h514v-241h-242v-1342h242v-239h-514zM160 -240h448v174h-241v1407h241v177h-448v-1758z" />
    <glyph glyph-name="backslash" unicode="\" horiz-adv-x="931" 
d="M682 -133l-707 1583h275l706 -1583h-274zM702 -100h205l-678 1517h-204z" />
    <glyph glyph-name="bracketright" unicode="]" horiz-adv-x="768" 
d="M127 -272v239h242v1342h-242v241h514v-1822h-514zM160 -240h448v1758h-448v-177h241v-1407h-241v-174z" />
    <glyph glyph-name="asciicircum" unicode="^" horiz-adv-x="1263" 
d="M74 639l473 809h153l490 -809h-244l-321 535l-308 -535h-243zM131 672h166l328 567l342 -567h166l-453 743h-113z" />
    <glyph glyph-name="underscore" unicode="_" horiz-adv-x="1525" 
d="M129 -143v159h1268v-159h-1268zM162 -111h1202v95h-1202v-95z" />
    <glyph glyph-name="grave" unicode="`" horiz-adv-x="538" 
d="M283 1184l-275 383h316l200 -383h-241zM299 1217h172l-168 317h-229z" />
    <glyph glyph-name="a" unicode="a" horiz-adv-x="1376" 
d="M635 -47q-160 0 -290.5 75.5t-204.5 207t-74 292.5q0 121 43.5 228.5t119 184t181 121t225.5 44.5q97 0 186.5 -29.5t153.5 -83.5v82h252v-1091h-256l2 86q-142 -117 -338 -117zM635 -14q238 0 371 168l-2 -138h190v1026h-186v-129q-55 73 -156 116.5t-217 43.5
q-150 0 -273.5 -71.5t-193.5 -196.5t-70 -277t70 -276.5t193.5 -195t273.5 -70.5zM651 150q-154 0 -259 110t-105 270t105 269.5t259 109.5q164 0 266.5 -105t102.5 -274q0 -170 -102 -275t-267 -105zM651 182q151 0 243.5 95.5t92.5 252.5q0 155 -92.5 251t-243.5 96
q-140 0 -236 -100.5t-96 -246.5t96 -247t236 -101z" />
    <glyph glyph-name="b" unicode="b" horiz-adv-x="1376" 
d="M741 -47q-196 0 -338 117l3 -86h-256v1421l251 41v-453q64 54 153.5 83.5t186.5 29.5q160 0 290.5 -75.5t205 -208t74.5 -294.5q0 -161 -74.5 -292.5t-205 -207t-290.5 -75.5zM741 -14q150 0 273.5 70.5t193.5 195t70 276.5t-70 277t-193.5 196.5t-273.5 71.5
q-115 0 -215.5 -43t-156.5 -117v496l-187 -33v-1360h191l-2 138q133 -168 370 -168zM725 150q-165 0 -267 105t-102 275q0 169 102.5 274t266.5 105q155 0 263 -110.5t108 -268.5t-108.5 -269t-262.5 -111zM725 182q141 0 239.5 101t98.5 247q0 145 -98.5 246t-239.5 101
q-151 0 -243.5 -96t-92.5 -251q0 -157 92.5 -252.5t243.5 -95.5z" />
    <glyph glyph-name="c" unicode="c" horiz-adv-x="1132" 
d="M682 -47q-279 0 -447.5 158t-168.5 419q0 122 45.5 229t124 183t189.5 120t237 44q119 0 225 -36.5t170 -100.5v-234l-29 -10q-5 6 -14.5 16.5t-43.5 37t-73 47t-102.5 37t-132.5 16.5q-148 0 -248.5 -100.5t-100.5 -248.5q0 -159 100.5 -254.5t268.5 -95.5q68 0 131 11
t104 26.5t73 31.5t46 27l15 11l26 -13v-213q-67 -56 -179.5 -82t-215.5 -26zM682 -14q94 0 196 22t166 70v166q-150 -97 -362 -97q-181 0 -291 105t-110 278q0 160 110.5 270.5t270.5 110.5q125 0 215.5 -42t146.5 -93v178q-61 55 -158.5 87t-203.5 32q-243 0 -403.5 -155
t-160.5 -388q0 -248 158.5 -396t425.5 -148z" />
    <glyph glyph-name="d" unicode="d" horiz-adv-x="1376" 
d="M635 -47q-160 0 -290.5 75.5t-204.5 207t-74 292.5q0 121 43.5 228.5t119 184t181 121t225.5 44.5q97 0 186.5 -29.5t153.5 -83.5v412l254 41v-1462h-258l2 86q-142 -117 -338 -117zM635 -14q238 0 371 168l-2 -138h192v1393l-188 -33v-463q-55 73 -156 116.5t-217 43.5
q-150 0 -273.5 -71.5t-193.5 -196.5t-70 -277t70 -276.5t193.5 -195t273.5 -70.5zM651 150q-154 0 -262 111t-108 269t107.5 268.5t262.5 110.5q164 0 266.5 -105t102.5 -274q0 -170 -102 -275t-267 -105zM651 182q151 0 243.5 95.5t92.5 252.5q0 155 -92.5 251t-243.5 96
q-141 0 -239.5 -101t-98.5 -246q0 -146 98.5 -247t239.5 -101z" />
    <glyph glyph-name="e" unicode="e" horiz-adv-x="1220" 
d="M668 -47q-267 0 -434.5 161t-167.5 416q0 121 45 228t123 183.5t187 120.5t232 44q141 0 256.5 -69t180.5 -189.5t65 -267.5v-119h-844q26 -132 120.5 -205.5t240.5 -73.5q51 0 101.5 6t90.5 16t76.5 22t63.5 23.5t46.5 21.5t30.5 16l11 6l16 -17v-198l-6 -12
q-5 -5 -15 -12.5t-47.5 -27t-82.5 -34.5t-123 -27t-166 -12zM668 -14q92 0 169.5 12t125.5 31t72.5 32t39.5 25v164q-31 -20 -76 -39.5t-136.5 -40t-190.5 -20.5q-167 0 -273 91.5t-125 252.5h848v86q0 211 -134 352t-335 141q-156 0 -283.5 -71t-199.5 -195.5t-72 -276.5
q0 -242 158.5 -393t411.5 -151zM285 633q1 24 10.5 57.5t35 75.5t62 77t97.5 59t135 24q75 0 133 -24t90 -58.5t53 -78t27.5 -75t7.5 -57.5h-651zM324 666h575q-6 38 -20.5 72t-44 72t-83.5 60.5t-126 22.5q-59 0 -108 -16t-81.5 -39.5t-56.5 -55.5t-36.5 -60t-18.5 -56z
" />
    <glyph glyph-name="f" unicode="f" horiz-adv-x="1067" 
d="M270 -16v757h-225v213h225q5 243 131 387t336 144q65 0 121.5 -12t90.5 -29.5t58.5 -34.5t34.5 -29l9 -12l2 -10v-197l-29 -12l-11.5 11.5t-33 25.5t-53 32t-71 25.5t-87.5 11.5q-123 0 -182 -72.5t-62 -228.5h477v-213h-477v-757h-254zM303 16h189v758h477v148h-477
q-3 188 64 277t212 89q135 0 252 -90v154q-8 11 -25 24.5t-49.5 32t-87.5 31t-121 12.5q-203 0 -320.5 -143t-113.5 -387h-225v-148h225v-758z" />
    <glyph glyph-name="g" unicode="g" horiz-adv-x="1320" 
d="M975 1075h254l-4 -964q0 -280 -163 -434t-458 -154q-88 0 -165 11.5t-124.5 28t-82 33t-48.5 28.5l-14 11l-6 13v198l26 15q6 -4 18 -11.5t52 -26.5t83.5 -33t112.5 -26t140 -12q366 0 375 316q-137 -115 -336 -115q-160 0 -290.5 75.5t-204.5 207t-74 292.5
q0 121 43.5 228.5t119 184t181 121t225.5 44.5q97 0 186.5 -29.5t153.5 -83.5v82zM1192 111l4 931h-188v-129q-55 73 -156 116.5t-217 43.5q-150 0 -273.5 -71.5t-193.5 -196.5t-70 -277t70 -276.5t193.5 -195t273.5 -70.5q213 0 340 133l29 -13v-24q0 -180 -103.5 -271.5
t-304.5 -91.5q-134 0 -236 31.5t-163 67.5v-162q15 -12 39.5 -25t72.5 -32t125.5 -31t169.5 -12q282 0 435 144.5t153 410.5zM651 909q164 0 266.5 -105t102.5 -274q0 -170 -102 -275t-267 -105q-154 0 -259 110t-105 270t105 269.5t259 109.5zM651 182q151 0 243.5 95.5
t92.5 252.5q0 155 -92.5 251t-243.5 96q-140 0 -236 -100.5t-96 -246.5t96 -247t236 -101z" />
    <glyph glyph-name="h" unicode="h" horiz-adv-x="1284" 
d="M147 -16v1421l254 41v-465q107 127 314 127q201 0 321.5 -124t120.5 -333v-667h-254v645q0 118 -58.5 184t-162.5 66q-125 0 -203 -78t-78 -205v-612h-254zM180 16h189v580q0 139 87.5 227t225.5 88q119 0 186.5 -75t67.5 -207v-613h188v635q0 195 -110.5 309.5
t-298.5 114.5q-69 0 -127.5 -16t-91.5 -38.5t-56.5 -44.5t-31.5 -38l-9 -16l-30 6v481l-189 -33v-1360z" />
    <glyph glyph-name="i" unicode="i" horiz-adv-x="579" 
d="M289 1194q-59 0 -100.5 41.5t-41.5 99.5q0 60 41 102t101 42t101.5 -42t41.5 -102t-41.5 -100.5t-101.5 -40.5zM289 1227q46 0 78 31t32 77q0 47 -31.5 79t-78.5 32q-46 0 -77.5 -32.5t-31.5 -78.5t31.5 -77t77.5 -31zM172 -16v1093h254v-1093h-254zM205 16h188v1028
h-188v-1028z" />
    <glyph glyph-name="j" unicode="j" horiz-adv-x="548" 
d="M276 1194q-58 0 -99.5 41t-41.5 100q0 60 40.5 102t100.5 42t102 -42t42 -102t-42 -100.5t-102 -40.5zM276 1227q46 0 78.5 31.5t32.5 76.5q0 47 -32 79t-79 32q-45 0 -76.5 -32.5t-31.5 -78.5t31 -77t77 -31zM76 -475q-66 0 -122.5 14t-90.5 34t-58 40.5t-33 34.5
l-10 14l-2 8v230l31 8q4 -6 11.5 -16.5t33 -37t53 -47t70 -37t86.5 -16.5q59 0 90 42.5t31 121.5v1159h254v-1140q0 -54 -8 -105t-31 -108.5t-59.5 -100t-100 -70.5t-145.5 -28zM76 -442q75 0 132.5 25t90.5 63t53.5 91t27.5 100.5t7 99.5v1107h-188v-1126q0 -93 -40.5 -145
t-113.5 -52q-79 0 -144 40.5t-108 91.5v-179q9 -13 24.5 -27.5t48.5 -37t88 -37t122 -14.5z" />
    <glyph glyph-name="k" unicode="k" horiz-adv-x="1179" 
d="M147 -16v1421l254 41v-725l424 354h338l-493 -413l565 -678h-328l-426 522l-80 -70v-452h-254zM180 16h189v437l116 98l439 -535h241l-540 650l448 376h-235l-469 -391v758l-189 -33v-1360z" />
    <glyph glyph-name="l" unicode="l" horiz-adv-x="548" 
d="M147 -16v1421l254 41v-1462h-254zM180 16h189v1393l-189 -33v-1360z" />
    <glyph glyph-name="m" unicode="m" horiz-adv-x="1927" 
d="M1389 1108q194 0 302.5 -121t108.5 -336v-667h-254v645q0 127 -46.5 188.5t-143.5 61.5q-109 0 -179.5 -79.5t-70.5 -203.5v-612h-254v645q0 127 -46.5 188.5t-143.5 61.5q-100 0 -169 -67.5t-79 -176.5v-651h-254v1091h254v-86q96 119 280 119q223 0 334 -160
q51 77 144 118.5t217 41.5zM1767 16v635q0 201 -99 312.5t-279 111.5q-137 0 -230.5 -50.5t-128.5 -143.5q-46 95 -131.5 144.5t-204.5 49.5q-57 0 -106 -13.5t-78 -31t-52 -41t-32 -37.5t-14 -26l-31 6v110h-188v-1026h188v623q12 120 90.5 196t190.5 76q223 0 223 -282
v-613h188v580q0 138 80 226.5t203 88.5q223 0 223 -282v-613h188z" />
    <glyph glyph-name="n" unicode="n" horiz-adv-x="1296" 
d="M160 -16v1091h254v-94q107 127 313 127q201 0 321.5 -124t120.5 -333v-667h-254v645q0 118 -58.5 184t-162.5 66q-125 0 -202.5 -78t-77.5 -205v-612h-254zM193 16h188v580q0 139 87.5 227t225.5 88q119 0 186.5 -75t67.5 -207v-613h189v635q0 195 -111 309.5t-299 114.5
q-69 0 -127 -16t-91.5 -38.5t-56.5 -44.5t-32 -38l-8 -16l-31 6v114h-188v-1026z" />
    <glyph glyph-name="o" unicode="o" horiz-adv-x="1323" 
d="M662 -47q-122 0 -232 45.5t-190 122t-127 183t-47 224.5q0 157 79.5 290t217 210.5t299.5 77.5t299 -77.5t216.5 -210.5t79.5 -290t-79.5 -289.5t-216.5 -209t-299 -76.5zM662 -14q153 0 282.5 72t205 197t75.5 273t-75.5 273.5t-205 198.5t-282.5 73t-283 -73
t-205.5 -198.5t-75.5 -273.5q0 -111 44.5 -211.5t120.5 -173t180 -115t219 -42.5zM662 152q-161 0 -272 109t-111 267q0 160 111 269.5t272 109.5t271.5 -109.5t110.5 -269.5q0 -158 -110.5 -267t-271.5 -109zM662 184q148 0 249 99.5t101 244.5q0 146 -101 246t-249 100
t-249.5 -100t-101.5 -246q0 -145 101.5 -244.5t249.5 -99.5z" />
    <glyph glyph-name="p" unicode="p" horiz-adv-x="1376" 
d="M147 -451v1526h254v-82q64 54 153.5 83.5t186.5 29.5q160 0 290.5 -75.5t205 -208t74.5 -294.5q0 -161 -74.5 -292.5t-205 -207t-290.5 -75.5q-207 0 -340 121v-525h-254zM180 -418h189v576q132 -172 372 -172q150 0 273.5 70.5t193.5 195t70 276.5t-70 277t-193.5 196.5
t-273.5 71.5q-115 0 -215.5 -43t-156.5 -117v129h-189v-1460zM745 150q-170 0 -279.5 106t-109.5 272q0 167 109.5 274t279.5 107q151 0 251 -109t100 -272t-100 -270.5t-251 -107.5zM745 182q137 0 227.5 98.5t90.5 247.5q0 151 -90.5 250t-227.5 99q-157 0 -256.5 -97.5
t-99.5 -251.5q0 -152 99.5 -249t256.5 -97z" />
    <glyph glyph-name="q" unicode="q" horiz-adv-x="1370" 
d="M975 -451v525q-133 -121 -340 -121q-160 0 -290.5 75.5t-204.5 207t-74 292.5q0 121 43.5 228.5t119 184t181 121t225.5 44.5q97 0 186.5 -29.5t153.5 -83.5v82h254v-1526h-254zM1008 -418h188v1460h-188v-129q-55 73 -156 116.5t-217 43.5q-150 0 -273.5 -71.5
t-193.5 -196.5t-70 -277t70 -276.5t193.5 -195t273.5 -70.5q241 0 373 172v-576zM631 150q-151 0 -250.5 107.5t-99.5 270.5t100 272t250 109q170 0 279.5 -107t109.5 -274q0 -166 -109.5 -272t-279.5 -106zM631 182q157 0 256.5 97t99.5 249q0 154 -99.5 251.5t-256.5 97.5
q-137 0 -227.5 -99t-90.5 -250q0 -149 90.5 -247.5t227.5 -98.5z" />
    <glyph glyph-name="r" unicode="r" horiz-adv-x="839" 
d="M147 -16v1093h254v-155q60 89 176.5 139t258.5 47v-215q-196 4 -314 -94.5t-121 -268.5v-546h-254zM180 16h189v514q3 177 121 284t313 112v149q-144 -3 -255 -65t-149 -160l-30 6v188h-189v-1028z" />
    <glyph glyph-name="s" unicode="s" horiz-adv-x="894" 
d="M395 -47q-52 0 -104.5 10.5t-90 26t-68 31t-45.5 25.5l-15 11l-6 13v217l26 12q5 -5 15.5 -13t42.5 -28t65.5 -35.5t82.5 -28t95 -12.5q95 0 146 25.5t51 71.5q0 49 -41.5 84.5t-147.5 95.5q-35 20 -47 26.5t-43 25.5t-43.5 29l-37.5 30t-35.5 34.5t-26.5 37.5t-23 45
t-12.5 50t-5.5 58q0 135 104.5 223t262.5 88q94 0 169 -23.5t121 -54.5v-272q-29 52 -106 86.5t-158 34.5q-151 0 -151 -78q0 -35 31.5 -60.5t136.5 -86.5q13 -7 20.5 -11.5t19.5 -11.5t23 -13q59 -34 97 -62.5t70 -67t47 -86t15 -109.5q0 -154 -118 -246t-316 -92zM395 -14
q184 0 293 82.5t109 222.5q0 56 -13 98.5t-42.5 77t-64.5 61t-93 60.5q-21 12 -51 29t-45 26t-37.5 22t-33 20.5t-25.5 18t-21.5 18t-15 17.5t-11.5 18.5t-5.5 19t-2.5 22.5q0 54 48 82t136 28q61 0 123.5 -19.5t108.5 -51.5v172q-111 63 -258 63q-146 0 -240 -78t-94 -200
q0 -35 8 -66t18 -53.5t33 -47.5t38 -39t50 -36.5t52 -32t59 -33.5q109 -61 157 -105t48 -103q0 -63 -60 -96t-170 -33q-87 0 -165.5 33t-129.5 71v-176q148 -92 297 -92z" />
    <glyph glyph-name="t" unicode="t" horiz-adv-x="1028" 
d="M401 -16v907h-436l690 569v-356h363v-213h-363v-907h-254zM434 16h189v908h362v147h-362v320l-568 -467h379v-908z" />
    <glyph glyph-name="u" unicode="u" horiz-adv-x="1249" 
d="M625 -49q-498 0 -498 477v647h254v-653v-14t4 -34t11.5 -48t25.5 -51.5t42.5 -48.5t66.5 -34t94 -14t94 13.5t66.5 35t42.5 47.5t25.5 52t11 47.5t3.5 34.5v14v653h254v-647q0 -477 -497 -477zM625 -16q39 0 68.5 1.5t81 11t90 25.5t83.5 49t74 78.5t48.5 117.5t19.5 161
v614h-189v-620v-16t-4.5 -38.5t-13 -55t-28.5 -58.5t-48.5 -54.5t-75.5 -38.5t-106 -16t-106 15.5t-75.5 39.5t-49 53.5t-29 59.5t-13 54t-4.5 39v16v620h-188v-614q0 -89 19.5 -161t48.5 -117.5t74 -78.5t83.5 -49t90 -25.5t81 -11t68.5 -1.5z" />
    <glyph glyph-name="v" unicode="v" horiz-adv-x="1126" 
d="M563 -121l-579 1196h268l313 -669l309 669h269zM563 -47l527 1089h-195l-330 -714l-334 714h-194z" />
    <glyph glyph-name="w" unicode="w" horiz-adv-x="1529" 
d="M471 -129l-432 1204h266l201 -579l256 649l278 -651l185 581h266l-430 -1204l-301 709zM471 -39l289 705l297 -705l389 1081h-197l-205 -643l-282 660l-260 -658l-221 641h-197z" />
    <glyph glyph-name="x" unicode="x" horiz-adv-x="1275" 
d="M16 -16l469 585l-428 506h310l280 -342l287 342h285l-426 -522l467 -569h-310l-315 403l-320 -403h-299zM86 16h213l336 424l332 -424h223l-438 537l397 489h-199l-303 -362l-297 362h-223l399 -473z" />
    <glyph glyph-name="y" unicode="y" horiz-adv-x="1200" 
d="M182 -442l285 565l-453 952h269l317 -680l318 680h268l-731 -1517h-273zM236 -410h198l699 1452h-195l-338 -725l-338 725h-194l436 -919z" />
    <glyph glyph-name="z" unicode="z" horiz-adv-x="1179" 
d="M86 -16v174l649 694h-608v225h946v-194l-631 -674h652v-225h-1008zM119 16h942v160h-692l671 719v149h-880v-159h649l-690 -740v-129z" />
    <glyph glyph-name="braceleft" unicode="{" horiz-adv-x="749" 
d="M623 -272q-203 0 -296.5 78.5t-93.5 248.5q0 315 -3 356q-6 87 -35 106q-20 13 -68 11v224q77 -4 92 54t14 319v100q0 170 93.5 248.5t296.5 78.5v-221q-93 3 -124.5 -34t-31.5 -154q0 -32 0.5 -80t1 -77t0 -68.5t-3 -64.5t-7 -56t-13 -51.5t-20 -42t-28.5 -36.5t-39 -26
q24 -13 42.5 -32.5t30.5 -40t20 -53t11.5 -58t5 -70.5t1 -75t-1 -85.5t-0.5 -89.5q0 -117 31.5 -154t124.5 -34v-221zM590 -240v156q-89 3 -122.5 51.5t-33.5 169.5q0 35 0.5 86.5t1 80t-0.5 70t-3.5 64.5t-8 54t-14.5 48t-23 37t-32.5 31t-43.5 20t-56 13q31 4 56 12.5
t43.5 19.5t32.5 30.5t23 36.5t14.5 47.5t8 53.5t3.5 64.5t0.5 70t-1 80.5t-0.5 87q0 121 33.5 169.5t122.5 51.5v156q-172 -6 -248 -75t-76 -220q0 -295 -2 -331q-6 -119 -43 -152q-23 -20 -61 -23v-158q62 -4 83 -50q23 -48 24 -218q0 -35 -1 -119v-119q0 -151 76 -220
t248 -75z" />
    <glyph glyph-name="bar" unicode="|" horiz-adv-x="483" 
d="M135 -119v1649h211v-1649h-211zM168 -86h145v1583h-145v-1583z" />
    <glyph glyph-name="braceright" unicode="}" horiz-adv-x="749" 
d="M127 -272v221q93 -3 124.5 34t31.5 154q0 35 -1 90t-1 85.5t1 74.5t5 70t11.5 58.5t19.5 53t30.5 40t42.5 32.5q-24 13 -42.5 32t-30.5 39t-19.5 52.5t-11.5 58.5t-5 70t-1 74.5t1 85.5t1 90q0 117 -31.5 154t-124.5 34v221q203 0 296 -78.5t93 -248.5v-92
q-1 -266 14 -325.5t93 -55.5v-224q-79 3 -93.5 -48.5t-13.5 -313.5v-111q0 -170 -93 -248.5t-296 -78.5zM160 -240q172 6 247.5 75t75.5 220q0 303 2 344q7 111 43 141q21 18 62 21v158q-76 6 -92 79t-15 320v107q0 151 -75.5 220t-247.5 75v-156q88 -3 121.5 -51.5
t33.5 -169.5q0 -34 -0.5 -86.5t-1 -81t0.5 -70t4 -64t8.5 -53.5t14.5 -48t23 -37t32.5 -30.5t43.5 -19t56 -12.5q-31 -4 -56 -13t-43.5 -20t-32.5 -31t-23 -37t-14.5 -48t-8.5 -53.5t-4 -64.5t-0.5 -70t1 -80.5t0.5 -86.5q0 -121 -33.5 -169.5t-121.5 -51.5v-156z" />
    <glyph glyph-name="asciitilde" unicode="~" horiz-adv-x="1120" 
d="M764 401q-30 0 -67 9t-63.5 18t-82.5 31q-8 2 -26 9.5t-21 8.5q-68 31 -92 31q-16 0 -26.5 -4.5t-17.5 -16t-10 -19.5t-7.5 -28t-6.5 -28l-260 69q22 118 93.5 183t178.5 65q89 0 213 -57q5 -2 21.5 -9.5t23 -10.5t20 -9t21.5 -8.5t18.5 -5.5t19 -4.5t16.5 -1.5
q16 0 26.5 4.5t17 16t9.5 20t7 27.5t7 28l260 -70q-25 -120 -95 -184t-177 -64zM764 434q88 0 147.5 48.5t85.5 142.5l-196 53q-5 -19 -9.5 -31t-14.5 -27t-27 -22.5t-41 -7.5q-44 0 -152 53q-116 53 -201 53q-89 0 -148.5 -49t-84.5 -141l196 -53q5 19 9.5 31t14.5 27
t27.5 22.5t41.5 7.5q30 0 106 -33q12 -7 45 -21q138 -53 201 -53z" />
    <glyph glyph-name="exclamdown" unicode="&#xa1;" horiz-adv-x="704" 
d="M352 743q-75 0 -127.5 53t-52.5 128q0 76 52 128t128 52q75 0 127.5 -52.5t52.5 -127.5q0 -74 -53.5 -127.5t-126.5 -53.5zM352 776q62 0 105 43t43 105q0 63 -42.5 105t-105.5 42q-64 0 -105.5 -41.5t-41.5 -105.5q0 -63 42 -105.5t105 -42.5zM217 -375v930h272v-930
h-272zM250 -342h207v864h-207v-864z" />
    <glyph glyph-name="cent" unicode="&#xa2;" horiz-adv-x="1024" 
d="M463 -272v303q-152 72 -231.5 201.5t-79.5 304.5q0 174 79.5 304t231.5 203v347h248v-275q59 10 147 10v-239q-65 1 -127 -9.5t-121.5 -37t-103.5 -66.5t-71 -101t-27 -136t27 -135.5t71 -99t103.5 -63.5t121.5 -35t127 -9v-244q-82 0 -145 8v-231h-250zM496 -240h184
v236q70 -9 145 -12v178q-65 2 -127 15.5t-121.5 42.5t-103.5 70.5t-71 105t-27 141.5t27 142t71 107t103.5 73.5t121.5 44.5t127 16v174q-77 -3 -147 -17v281h-182v-334q-152 -68 -232 -192.5t-80 -294.5q0 -172 80 -296t232 -190v-291z" />
    <glyph glyph-name="sterling" unicode="&#xa3;" horiz-adv-x="1314" 
d="M268 -16v634h-215v244h215v148q0 125 64.5 233t174 172t236.5 64q188 0 322 -135t127 -320h-254q6 78 -48.5 135.5t-135.5 57.5q-72 0 -124.5 -46t-60.5 -114h2v-195h385v-244h-387v-391h645l-2 -243h-944zM301 16h879l2 179h-645v456h387v178h-385v195h14l-16 16
q0 86 64 147.5t153 61.5q86 0 147.5 -55t69.5 -137h188q-8 161 -129 275t-287 114q-180 0 -311 -129.5t-131 -306.5v-181h-215v-178h215v-635z" />
    <glyph glyph-name="currency" unicode="&#xa4;" horiz-adv-x="1290" 
d="M334 164l-172 172l90 90q-62 103 -62 221t62 221l-90 90l172 172l94 -94q102 54 217 54t217 -54l94 94l172 -172l-90 -90q62 -103 62 -221t-62 -221l90 -90l-172 -172l-96 94q-105 -51 -215 -51t-215 51zM334 209l90 90q103 -59 221 -59t221 59l90 -90l127 127l-86 86
q70 104 70 225q0 122 -70 225l86 86l-127 127l-90 -90q-100 62 -221 62t-221 -62l-90 90l-127 -127l86 -86q-70 -103 -70 -225q0 -121 70 -225l-86 -86zM645 408q-103 0 -174.5 69.5t-71.5 169.5q0 101 71.5 171.5t174.5 70.5t174.5 -70.5t71.5 -171.5q0 -100 -71.5 -169.5
t-174.5 -69.5zM645 440q89 0 151 60.5t62 146.5q0 88 -62 148.5t-151 60.5t-151 -60.5t-62 -148.5q0 -86 62 -146.5t151 -60.5z" />
    <glyph glyph-name="yen" unicode="&#xa5;" horiz-adv-x="1337" 
d="M563 -16v184h-327v242h327v67h-327v242h241l-467 688h305l377 -578l375 578h307l-467 -688h197v-242h-283v-67h283v-242h-283v-184h-258zM596 16h192v185h283v176h-283v133h283v176h-225l467 688h-230l-391 -606l-393 606h-227l467 -688h-271v-176h328v-133h-328v-176
h328v-185z" />
    <glyph glyph-name="brokenbar" unicode="&#xa6;" horiz-adv-x="481" 
d="M135 768v762h211v-762h-211zM168 801h145v696h-145v-696zM135 -272v761h211v-761h-211zM168 -240h145v697h-145v-697z" />
    <glyph glyph-name="section" unicode="&#xa7;" horiz-adv-x="997" 
d="M395 -207q-83 0 -163.5 26.5t-119.5 52.5l-40 26l-6 12v217l26 12q5 -5 15.5 -12.5t42.5 -27.5t65.5 -35.5t82.5 -28t95 -12.5q95 0 146 25t51 71q0 27 -23 56t-46.5 47t-71.5 50q-6 5 -19.5 14.5t-19.5 14.5q-102 73 -139 109q-103 101 -103 219q0 104 67.5 176
t184.5 94q-81 63 -115.5 116t-34.5 115q0 139 103.5 228.5t263.5 89.5q59 0 119.5 -18t91.5 -36l31 -18l8 -14v-176l-25 -15q-13 8 -35.5 19t-80.5 30t-103 19q-59 0 -91 -23t-32 -65q0 -34 36.5 -67.5t107.5 -79.5l49 -35q40 -28 59 -42t55.5 -48t55 -63.5t34 -75
t15.5 -95.5q0 -92 -65.5 -169.5t-155.5 -94.5q118 -93 118 -238q0 -165 -115 -257.5t-319 -92.5zM395 -174q191 0 296.5 83t105.5 234q0 85 -46.5 150.5t-142.5 120.5q65 -22 134 8t113 92.5t44 130.5q0 23 -4 45.5t-8 39.5t-16 37t-18 31.5t-24.5 30t-24.5 25.5t-28.5 25
t-27 21.5t-29.5 22t-27 19.5q-8 7 -26.5 20t-20.5 15q-36 24 -58 39.5t-48.5 38.5t-39 47t-12.5 49q0 57 42 89t114 32q88 0 211 -60v142q-109 61 -217 61q-148 0 -241 -79.5t-93 -205.5q0 -64 46 -120.5t159 -135.5q-140 -1 -223.5 -68.5t-83.5 -176.5q0 -27 6.5 -53
t14.5 -45.5t26 -42.5t29 -36.5t37 -35.5t37 -30.5t41 -31l38 -28.5l39 -27q34 -23 55 -39t47 -40t39 -49.5t13 -51.5q0 -63 -60 -96t-170 -33q-87 0 -165.5 33t-129.5 71v-176q148 -92 297 -92zM725 621q0 -83 -85 -113t-170 11.5t-85 129.5q0 57 42 89t114 32
q77 0 130.5 -43t53.5 -106zM692 621q0 50 -43.5 83t-107.5 33q-59 0 -91 -23t-32 -65q0 -67 68.5 -99.5t137 -11.5t68.5 83z" />
    <glyph glyph-name="dieresis" unicode="&#xa8;" horiz-adv-x="770" 
d="M188 1208q-54 0 -92.5 37.5t-38.5 91.5t38.5 92.5t92.5 38.5t91.5 -38.5t37.5 -92.5q0 -53 -38.5 -91t-90.5 -38zM582 1208q-54 0 -92.5 37.5t-38.5 91.5t38.5 92.5t92.5 38.5t91.5 -38.5t37.5 -92.5q0 -53 -38.5 -91t-90.5 -38zM188 1241q40 0 68.5 28t28.5 68
t-28.5 69.5t-68.5 29.5q-41 0 -69.5 -29t-28.5 -70q0 -40 29 -68t69 -28zM582 1241q40 0 68 28t28 68t-28.5 69.5t-67.5 29.5q-41 0 -70 -29t-29 -70q0 -39 29.5 -67.5t69.5 -28.5z" />
    <glyph glyph-name="copyright" unicode="&#xa9;" horiz-adv-x="1738" 
d="M868 -154q-152 0 -290 59t-237.5 159t-158.5 238t-59 290q0 153 59 291t158.5 238t237.5 159t290 59t290.5 -59t238.5 -159.5t159.5 -238.5t59.5 -290q0 -203 -100 -374.5t-272 -271.5t-376 -100zM868 -121q145 0 277.5 56.5t228.5 152t152.5 227.5t56.5 277
q0 146 -56.5 278t-152.5 228t-228 152.5t-278 56.5q-145 0 -276.5 -56.5t-227 -152.5t-152 -228.5t-56.5 -277.5q0 -146 56 -278t151.5 -227t227 -151.5t277.5 -56.5zM868 -14q-165 0 -304.5 81t-220.5 220.5t-81 304.5q0 166 81 306t220.5 221t304.5 81t305.5 -81.5
t222 -221.5t81.5 -305t-81 -304.5t-221.5 -220.5t-306.5 -81zM868 18q157 0 289.5 77t209.5 209t77 288q0 157 -77 289.5t-209.5 209t-289.5 76.5q-117 0 -223 -45.5t-182.5 -122t-122 -183t-45.5 -224.5q0 -157 76 -289t208 -208.5t289 -76.5zM909 133q-222 0 -355.5 126
t-133.5 333q0 197 134.5 328t338.5 131q96 0 180 -29.5t135 -81.5v-178l-28 -10q-4 5 -11.5 13t-34 28.5t-57 36.5t-80.5 29t-104 13q-116 0 -198.5 -82.5t-82.5 -197.5q0 -125 82.5 -203t214.5 -78q53 0 102 8.5t81.5 21t57.5 25t36 20.5l12 9l27 -12v-162
q-53 -45 -144 -66.5t-172 -21.5zM909 166q72 0 152 18t131 54v114q-116 -73 -283 -73q-144 0 -236.5 88t-92.5 225q0 129 92 221t221 92q96 0 167.5 -31t115.5 -71v123q-47 43 -123.5 67.5t-159.5 24.5q-191 0 -315.5 -121t-124.5 -305q0 -193 124.5 -309.5t331.5 -116.5z
" />
    <glyph glyph-name="ordfeminine" unicode="&#xaa;" horiz-adv-x="792" 
d="M385 487q-127 0 -213 87.5t-86 216.5q0 130 85.5 217.5t213.5 87.5q83 0 133 -41v24h189l-2 -575h-189v24q-47 -41 -131 -41zM385 520q48 0 85.5 17t49.5 45l31 -7l-2 -38h123l2 510h-123v-35l-31 -6q-12 25 -50 41t-85 16q-114 0 -190 -77.5t-76 -194.5
q0 -116 76 -193.5t190 -77.5zM393 635q-63 0 -106 46t-43 112t43 110.5t106 44.5q68 0 111 -43t43 -112q0 -70 -43 -114t-111 -44zM393 668q55 0 88 34t33 91q0 55 -33.5 88.5t-87.5 33.5q-50 0 -83.5 -35t-33.5 -87q0 -53 34 -89t83 -36z" />
    <glyph glyph-name="guillemotleft" unicode="&#xab;" horiz-adv-x="1032" 
d="M332 106l-279 435l279 413h280l-276 -413l276 -435h-280zM721 106l-279 435l279 413h280l-276 -413l276 -435h-280zM348 139h203l-256 402l256 381h-203l-254 -381zM737 139h203l-256 402l256 381h-203l-254 -381z" />
    <glyph glyph-name="logicalnot" unicode="&#xac;" horiz-adv-x="1110" 
d="M752 186v299h-666v242h938v-541h-272zM784 219h207v475h-872v-176h665v-299z" />
    <glyph glyph-name="uni00AD" unicode="&#xad;" horiz-adv-x="1228" 
d="M129 483v242h795v-242h-795zM162 516h729v176h-729v-176z" />
    <glyph glyph-name="registered" unicode="&#xae;" horiz-adv-x="1738" 
d="M868 1339q152 0 290.5 -59t238.5 -159.5t159.5 -238.5t59.5 -290q0 -203 -100 -374.5t-272 -271.5t-376 -100q-152 0 -290 59t-237.5 159t-158.5 238t-59 290q0 153 59 291t158.5 238t237.5 159t290 59zM868 -121q145 0 277.5 56.5t228.5 152t152.5 227.5t56.5 277
q0 146 -56.5 278t-152.5 228t-228 152.5t-278 56.5q-145 0 -276.5 -56.5t-227 -152.5t-152 -228.5t-56.5 -277.5q0 -146 56 -278t151.5 -227t227 -151.5t277.5 -56.5zM868 1200q165 0 305.5 -81.5t222 -221.5t81.5 -305t-81 -304.5t-221.5 -220.5t-306.5 -81
q-165 0 -304.5 81t-220.5 220.5t-81 304.5q0 166 81 306t220.5 221t304.5 81zM1274 184q81 79 125.5 184.5t44.5 223.5q0 157 -77 289.5t-209.5 209t-289.5 76.5q-117 0 -223 -45.5t-182.5 -122t-122 -183t-45.5 -224.5q0 -157 76 -289t208 -208.5t289 -76.5q107 0 205 37.5
t174 104.5h-168l-159 280h-232v-280h-190v858h405q173 0 258.5 -71.5t85.5 -217.5q0 -80 -40 -143t-115 -101zM1233 193l-189 307q83 32 126.5 91.5t43.5 137.5q0 132 -75 194t-236 62h-373v-792h125v280h285l160 -280h133zM1083 729q0 -154 -184 -154h-244v304h244
q96 0 140 -36t44 -114zM899 608q79 0 115.5 29t36.5 92t-34.5 90t-117.5 27h-211v-238h211z" />
    <glyph glyph-name="macron" unicode="&#xaf;" horiz-adv-x="608" 
d="M4 1214v218h600v-218h-600zM37 1247h534v152h-534v-152z" />
    <glyph glyph-name="degree" unicode="&#xb0;" horiz-adv-x="651" 
d="M326 920q-117 0 -201 83.5t-84 200.5q0 119 84 204t201 85q118 0 203 -85t85 -204q0 -117 -84.5 -200.5t-203.5 -83.5zM326 952q106 0 181 74t75 178q0 106 -75 181t-181 75q-104 0 -178 -75t-74 -181q0 -104 74 -178t178 -74zM326 1049q-63 0 -109.5 46t-46.5 109
q0 65 46.5 112.5t109.5 47.5q64 0 111.5 -47.5t47.5 -112.5q0 -63 -47 -109t-112 -46zM326 1081q53 0 90 36t37 87q0 52 -37.5 89.5t-89.5 37.5q-51 0 -87 -37t-36 -90q0 -51 36 -87t87 -36z" />
    <glyph glyph-name="plusminus" unicode="&#xb1;" horiz-adv-x="1110" 
d="M418 391v213h-332v244h332v227h272v-227h334v-244h-334v-213h-272zM451 424h206v213h334v178h-334v227h-206v-227h-332v-178h332v-213zM86 -16v241h938v-241h-938zM119 16h872v177h-872v-177z" />
    <glyph glyph-name="uni00B2" unicode="&#xb2;" horiz-adv-x="653" 
d="M47 733l219 266q-70 25 -113.5 85t-43.5 133q0 95 70.5 163t168.5 68t169 -68t71 -163q0 -86 -56 -148l-145 -168h197v-168h-537zM117 766h434v102h-234l191 222q47 53 47 127q0 82 -61 140t-146 58t-146 -58t-61 -140q0 -74 53.5 -132t131.5 -65zM348 1120
q-41 0 -68.5 28t-27.5 69q0 40 28 68t68 28t68 -28t28 -68t-28 -68.5t-68 -28.5zM348 1153q28 0 46 18t18 46q0 26 -19 44.5t-45 18.5q-28 0 -45.5 -17.5t-17.5 -45.5t17.5 -46t45.5 -18z" />
    <glyph glyph-name="uni00B3" unicode="&#xb3;" horiz-adv-x="610" 
d="M305 717q-103 0 -174 74t-65 176h178q-6 -35 11.5 -58.5t49.5 -23.5q28 0 46 17.5t18 45.5q0 26 -19 45t-45 19h-80l94 229h-225v168h455l-117 -281q54 -23 83.5 -70t29.5 -110q0 -95 -71 -163t-169 -68zM305 750q86 0 146.5 57.5t60.5 140.5q0 62 -32.5 103.5
t-92.5 56.5l113 268h-373v-102h242l-95 -230h31q40 0 68 -28t28 -68t-28 -68t-68 -28q-37 0 -63 23.5t-31 58.5h-113q6 -78 65.5 -131t141.5 -53z" />
    <glyph glyph-name="acute" unicode="&#xb4;" horiz-adv-x="538" 
d="M14 1184l201 383h315l-274 -383h-242zM68 1217h172l225 317h-229z" />
    <glyph glyph-name="uni00B5" unicode="&#xb5;" horiz-adv-x="1386" 
d="M1102 422v-14v-39t2.5 -37t7 -37t13 -32t21.5 -30t32.5 -23.5t45 -18.5t60.5 -10t78 -3v-227h-63.5t-63 2.5t-68.5 7.5t-63 15t-64 24t-54 36.5t-50 51.5q-113 -137 -332 -137q-145 0 -244 51v-461h-254v1534h254v-698q7 -97 70.5 -148t173.5 -51q61 0 107 15.5t71 37.5
t40.5 52.5t20 54.5t5.5 49v688h254v-653zM1329 -16v161q-75 2 -127 20.5t-77.5 41t-39 64t-15 66.5t-1.5 71v14v620h-188v-655q-1 -27 -6.5 -54t-23.5 -62.5t-46.5 -62t-80.5 -45t-120 -18.5q-123 0 -195 59.5t-81 168.5v669h-189v-1468h189v487q104 -77 276 -77
q120 0 200 39t132 124q20 -37 47 -65.5t60 -45.5t65 -28t73.5 -16t72.5 -6.5t75 -1.5z" />
    <glyph glyph-name="paragraph" unicode="&#xb6;" horiz-adv-x="1353" 
d="M539 -16v551q-214 5 -338.5 117t-124.5 302q0 209 129 331t350 122h631v-1423h-254v1181h-139v-1181h-254zM571 16h189v1182h205v-1182h188v1358h-598q-209 0 -327.5 -111.5t-118.5 -308.5q0 -185 123.5 -288t338.5 -99v-551z" />
    <glyph glyph-name="periodcentered" unicode="&#xb7;" horiz-adv-x="696" 
d="M348 528q-76 0 -128 52t-52 129q0 75 52.5 127.5t127.5 52.5q74 0 127 -53.5t53 -126.5q0 -75 -52.5 -128t-127.5 -53zM348 561q63 0 105.5 42.5t42.5 105.5q0 61 -43 104t-105 43q-63 0 -105 -42t-42 -105q0 -65 41.5 -106.5t105.5 -41.5z" />
    <glyph glyph-name="cedilla" unicode="&#xb8;" horiz-adv-x="288" 
d="M-16 -459v152q52 -3 87 13.5t35 43.5q0 24 -25.5 39.5t-50.5 18.5l-26 4l-14 20l43 156h180l-37 -119q19 -6 37.5 -15t41 -25t36.5 -42.5t14 -58.5q0 -89 -86.5 -139.5t-234.5 -47.5zM16 -426q119 3 187.5 44t68.5 110q0 25 -12.5 46t-30 32.5t-35 19.5t-30.5 11l-12 3
l-13 21l29 94h-111l-30 -113q24 -4 46.5 -12.5t44 -29.5t21.5 -50q0 -36 -34 -60.5t-89 -29.5v-86z" />
    <glyph glyph-name="uni00B9" unicode="&#xb9;" horiz-adv-x="616" 
d="M66 731v166h153v348h-153v164h350v-512h135v-166h-485zM98 764h420v100h-135v512h-285v-98h154v-414h-154v-100z" />
    <glyph glyph-name="ordmasculine" unicode="&#xba;" horiz-adv-x="798" 
d="M399 492q-130 0 -221.5 88.5t-91.5 214.5q0 127 91 216t222 89q129 0 221.5 -89.5t92.5 -215.5q0 -124 -92.5 -213.5t-221.5 -89.5zM399 524q117 0 199 79t82 192q0 114 -82 193t-199 79t-198.5 -79t-81.5 -193q0 -113 81.5 -192t198.5 -79zM399 641q-66 0 -111.5 44.5
t-45.5 109.5q0 66 45.5 111.5t111.5 45.5t112 -45.5t46 -111.5q0 -64 -46 -109t-112 -45zM399 674q53 0 89 35t36 86q0 53 -36 89t-89 36q-54 0 -89.5 -35.5t-35.5 -89.5q0 -52 35.5 -86.5t89.5 -34.5z" />
    <glyph glyph-name="guillemotright" unicode="&#xbb;" horiz-adv-x="847" 
d="M31 106l276 435l-276 413h280l279 -413l-279 -435h-280zM420 106l276 435l-276 413h280l279 -413l-279 -435h-280zM92 139h203l254 402l-254 381h-203l256 -381zM481 139h203l254 402l-254 381h-203l256 -381z" />
    <glyph glyph-name="onequarter" unicode="&#xbc;" horiz-adv-x="1304" 
d="M121 -133l913 1583h217l-913 -1583h-217zM178 -100h139l877 1517h-139zM66 731v166h153v348h-153v164h350v-512h135v-166h-485zM98 764h420v100h-135v512h-285v-98h154v-414h-154v-100zM993 -16v223h-334l269 477h202l-165 -311h235v-389h-207zM1026 16h141v324h-256
l166 311h-129l-231 -411h309v-224z" />
    <glyph glyph-name="onehalf" unicode="&#xbd;" horiz-adv-x="1402" 
d="M143 -133l914 1583h217l-914 -1583h-217zM201 -100h139l877 1517h-140zM66 731v166h153v348h-153v164h350v-512h135v-166h-485zM98 764h420v100h-135v512h-285v-98h154v-414h-154v-100zM797 -14l219 266q-70 25 -114 84.5t-44 132.5q0 95 71 163t169 68t168.5 -68
t70.5 -163q0 -86 -55 -147l-145 -168h196v-168h-536zM866 18h434v103h-233l190 221q48 54 48 127q0 82 -61 140.5t-146 58.5t-146 -58.5t-61 -140.5q0 -74 53.5 -132t130.5 -65zM1098 373q-41 0 -69 27.5t-28 68.5q0 40 28.5 68t68.5 28t68 -28t28 -68t-28 -68t-68 -28z
M1098 406q28 0 45.5 17.5t17.5 45.5q0 26 -18.5 44.5t-44.5 18.5q-28 0 -46 -17.5t-18 -45.5t18 -45.5t46 -17.5z" />
    <glyph glyph-name="threequarters" unicode="&#xbe;" horiz-adv-x="1337" 
d="M154 -133l913 1583h217l-913 -1583h-217zM211 -100h139l877 1517h-140zM356 678q-134 0 -215 71t-75 185h208q-7 -39 16 -63.5t66 -24.5q38 0 60 19t22 53q0 130 -180 90l111 229h-256v170h503l-135 -279q72 -23 119 -82t47 -128q0 -107 -81 -173.5t-210 -66.5zM356 711
q117 0 187.5 56.5t70.5 150.5q0 68 -52.5 123.5t-127.5 64.5l129 268h-418v-104h277l-107 -219q76 5 116 -29t40 -104q0 -46 -32 -75.5t-83 -29.5q-47 0 -78 24t-36 64h-144q8 -86 78 -138t180 -52zM1020 -14v223h-334l268 477h203l-166 -311h236v-389h-207zM1053 18h141
v324h-256l166 311h-129l-232 -411h310v-224z" />
    <glyph glyph-name="questiondown" unicode="&#xbf;" horiz-adv-x="1083" 
d="M602 743q-73 0 -126.5 53.5t-53.5 127.5q0 75 52.5 127.5t127.5 52.5q76 0 128 -52t52 -128q0 -75 -52.5 -128t-127.5 -53zM602 776q63 0 105.5 42.5t42.5 105.5q0 64 -41.5 105.5t-106.5 41.5q-63 0 -105 -42t-42 -105q0 -62 43 -105t104 -43zM723 -375q-98 -3 -188 32
t-155 96t-103.5 146t-38.5 179q0 120 62 225t169 166v168h254v-350q-95 6 -160 -55t-65 -154t65 -154t160 -55v-244zM690 -342v178q-96 6 -160.5 75t-64.5 167t64.5 166.5t160.5 74.5v285h-188v-155q-107 -54 -169.5 -154t-62.5 -217q0 -169 122.5 -291.5t297.5 -128.5z" />
    <glyph glyph-name="Agrave" unicode="&#xc0;" horiz-adv-x="1542" 
d="M651 1516l-274 382h315l201 -382h-242zM668 1548h172l-168 318h-230zM18 -16l633 1423h240l633 -1423h-295l-133 329h-650l-133 -329h-295zM68 16h225l133 330h690l133 -330h226l-605 1358h-198zM496 522l276 649l275 -649h-551zM545 555h452l-225 535z" />
    <glyph glyph-name="Aacute" unicode="&#xc1;" horiz-adv-x="1542" 
d="M641 1516l201 382h315l-274 -382h-242zM694 1548h172l226 318h-230zM18 -16l633 1423h240l633 -1423h-295l-133 329h-650l-133 -329h-295zM68 16h225l133 330h690l133 -330h226l-605 1358h-198zM496 522l276 649l275 -649h-551zM545 555h452l-225 535z" />
    <glyph glyph-name="Acircumflex" unicode="&#xc2;" horiz-adv-x="1542" 
d="M406 1516l235 382h248l235 -382h-243l-115 157l-117 -157h-243zM463 1548h170l133 183l131 -183h170l-195 318h-215zM18 -16l633 1423h240l633 -1423h-295l-133 329h-650l-133 -329h-295zM68 16h225l133 330h690l133 -330h226l-605 1358h-198zM496 522l276 649l275 -649
h-551zM545 555h452l-225 535z" />
    <glyph glyph-name="Atilde" unicode="&#xc3;" horiz-adv-x="1542" 
d="M915 1505q-75 0 -155 54h-12v2h14l-10 4q-70 51 -99 51q-11 0 -18 -5.5t-11 -17t-6.5 -22.5t-5.5 -29t-6 -29l-200 74q17 117 70.5 181.5t135.5 64.5q78 0 156 -53h12v-2h-14l10 -4q72 -52 98 -52q11 0 18 5.5t11.5 17t7 22.5t5.5 29t6 29l200 -74q-17 -117 -71 -181.5
t-136 -64.5zM915 1538q63 0 107 50t63 143l-139 49q-14 -90 -72 -90q-39 0 -114 55h-12v2h14l-10 2q-68 51 -140 51q-63 0 -107 -49.5t-63 -142.5l140 -49q4 25 9.5 42t21 32.5t40.5 15.5q38 0 115 -56h12v-2h-14l10 -2q68 -51 139 -51zM18 -16l633 1423h240l633 -1423h-295
l-133 329h-650l-133 -329h-295zM68 16h225l133 330h690l133 -330h226l-605 1358h-198zM496 522l276 649l275 -649h-551zM545 555h452l-225 535z" />
    <glyph glyph-name="Adieresis" unicode="&#xc4;" horiz-adv-x="1542" 
d="M569 1540q-54 0 -92.5 37.5t-38.5 91.5t38.5 92.5t92.5 38.5t91.5 -38.5t37.5 -92.5q0 -53 -38 -91t-91 -38zM963 1540q-54 0 -93 37.5t-39 91.5t39 92.5t93 38.5t91.5 -38.5t37.5 -92.5q0 -53 -38 -91t-91 -38zM569 1573q40 0 68.5 28t28.5 68t-28.5 69t-68.5 29
q-41 0 -69.5 -28.5t-28.5 -69.5q0 -40 29 -68t69 -28zM963 1573q40 0 68 28t28 68t-28 69t-68 29q-41 0 -70 -28.5t-29 -69.5q0 -39 29.5 -67.5t69.5 -28.5zM18 -16l633 1423h240l633 -1423h-295l-133 329h-650l-133 -329h-295zM68 16h225l133 330h690l133 -330h226
l-605 1358h-198zM496 522l276 649l275 -649h-551zM545 555h452l-225 535z" />
    <glyph glyph-name="Aring" unicode="&#xc5;" horiz-adv-x="1542" 
d="M764 1505q-95 0 -160 65.5t-65 160.5q0 97 65 163t160 66t161 -67t66 -162q0 -94 -66 -160t-161 -66zM764 1538q81 0 137.5 56.5t56.5 136.5q0 82 -56 139t-138 57t-137.5 -56.5t-55.5 -139.5q0 -82 55.5 -137.5t137.5 -55.5zM764 1653q-32 0 -55 23t-23 55q0 34 23 57.5
t55 23.5q34 0 57 -23.5t23 -57.5q0 -32 -23 -55t-57 -23zM764 1686q20 0 33.5 13t13.5 32q0 20 -13.5 34.5t-33.5 14.5t-32.5 -13.5t-12.5 -35.5q0 -20 12.5 -32.5t32.5 -12.5zM18 -16l633 1423h240l633 -1423h-295l-133 329h-650l-133 -329h-295zM68 16h225l133 330h690
l133 -330h226l-605 1358h-198zM496 522l276 649l275 -649h-551zM545 555h452l-225 535z" />
    <glyph glyph-name="AE" unicode="&#xc6;" horiz-adv-x="2152" 
d="M-33 -16l1022 1423h1065v-242h-792v-303h630v-241h-630v-396h804v-241h-1060v329h-510l-232 -329h-297zM33 16h215l231 330h559v-330h996v177h-805v460h631v176h-631v369h792v176h-1015zM604 522l434 619v-619h-434zM666 555h340v483z" />
    <glyph glyph-name="Ccedilla" unicode="&#xc7;" horiz-adv-x="1441" 
d="M725 -449v152q52 -3 87.5 13.5t35.5 43.5q0 24 -26 39.5t-52 18.5l-25 4l-14 20l33 115q-149 14 -278 77.5t-219.5 161t-141.5 227.5t-49 273q-2 156 57.5 295t163.5 238t251 156t312 55q160 0 277 -40t190 -91v-244l-31 -8q-4 6 -26 21t-63.5 35.5t-92 39.5t-118.5 32
t-136 13q-233 0 -376.5 -139t-143.5 -363q0 -226 142.5 -362.5t377.5 -136.5q153 0 289.5 47t216.5 127v-277l-8 -14q-2 -1 -23 -13.5t-40.5 -23t-58 -26t-78 -27t-97.5 -21.5t-121 -14l-22 -76q19 -6 37.5 -15t41 -25t36.5 -42.5t14 -58.5q0 -89 -87 -139.5t-235 -47.5z
M758 -416q119 3 187.5 44t68.5 110q0 25 -12.5 46t-30 32.5t-35.5 19.5t-30 11l-13 3l-12 21l34 117q249 10 418 116v197q-88 -65 -212.5 -101t-260.5 -36q-248 0 -400.5 146.5t-152.5 385.5q0 238 153 386.5t400 148.5q131 0 246.5 -41.5t187.5 -89.5v192
q-181 115 -434 115q-159 2 -299.5 -52t-240 -148.5t-156.5 -227.5t-55 -283q-3 -190 86 -349t249.5 -255t360.5 -106l-37 -133q24 -4 46.5 -12.5t44.5 -30t22 -50.5q0 -36 -34 -60.5t-89 -29.5v-86z" />
    <glyph glyph-name="Egrave" unicode="&#xc8;" horiz-adv-x="1314" 
d="M584 1516l-275 382h316l200 -382h-241zM600 1548h172l-168 318h-229zM168 -16v1423h1049v-242h-793v-303h631v-241h-631v-396h805v-241h-1061zM201 16h995v177h-805v460h631v176h-631v369h793v176h-983v-1358z" />
    <glyph glyph-name="Eacute" unicode="&#xc9;" horiz-adv-x="1314" 
d="M573 1516l201 382h316l-275 -382h-242zM627 1548h172l225 318h-229zM168 -16v1423h1049v-242h-793v-303h631v-241h-631v-396h805v-241h-1061zM201 16h995v177h-805v460h631v176h-631v369h793v176h-983v-1358z" />
    <glyph glyph-name="Ecircumflex" unicode="&#xca;" horiz-adv-x="1314" 
d="M338 1516l235 382h248l236 -382h-244l-115 157l-116 -157h-244zM395 1548h170l133 183l131 -183h170l-194 318h-215zM168 -16v1423h1049v-242h-793v-303h631v-241h-631v-396h805v-241h-1061zM201 16h995v177h-805v460h631v176h-631v369h793v176h-983v-1358z" />
    <glyph glyph-name="Edieresis" unicode="&#xcb;" horiz-adv-x="1314" 
d="M502 1540q-54 0 -92.5 37.5t-38.5 91.5t38.5 92.5t92.5 38.5t91.5 -38.5t37.5 -92.5q0 -53 -38.5 -91t-90.5 -38zM895 1540q-54 0 -92.5 37.5t-38.5 91.5t38.5 92.5t92.5 38.5t91.5 -38.5t37.5 -92.5q0 -53 -38 -91t-91 -38zM502 1573q40 0 68 28t28 68t-28 69t-68 29
q-41 0 -70 -28.5t-29 -69.5q0 -39 29.5 -67.5t69.5 -28.5zM895 1573q40 0 68 28t28 68t-28 69t-68 29q-41 0 -69.5 -28.5t-28.5 -69.5q0 -40 29 -68t69 -28zM168 -16v1423h1049v-242h-793v-303h631v-241h-631v-396h805v-241h-1061zM201 16h995v177h-805v460h631v176h-631
v369h793v176h-983v-1358z" />
    <glyph glyph-name="Igrave" unicode="&#xcc;" horiz-adv-x="591" 
d="M182 1516l-274 382h315l201 -382h-242zM199 1548h172l-168 318h-230zM168 -16v1423h256v-1423h-256zM201 16h190v1358h-190v-1358z" />
    <glyph glyph-name="Iacute" unicode="&#xcd;" horiz-adv-x="591" 
d="M172 1516l201 382h315l-274 -382h-242zM225 1548h172l226 318h-230zM168 -16v1423h256v-1423h-256zM201 16h190v1358h-190v-1358z" />
    <glyph glyph-name="Icircumflex" unicode="&#xce;" horiz-adv-x="591" 
d="M-63 1516l235 382h248l235 -382h-243l-115 157l-117 -157h-243zM-6 1548h170l133 183l131 -183h170l-195 318h-215zM168 -16v1423h256v-1423h-256zM201 16h190v1358h-190v-1358z" />
    <glyph glyph-name="Idieresis" unicode="&#xcf;" horiz-adv-x="591" 
d="M100 1540q-54 0 -92.5 37.5t-38.5 91.5t38.5 92.5t92.5 38.5t91.5 -38.5t37.5 -92.5q0 -53 -38.5 -91t-90.5 -38zM494 1540q-54 0 -93 37.5t-39 91.5t39 92.5t93 38.5t91.5 -38.5t37.5 -92.5q0 -53 -38.5 -91t-90.5 -38zM100 1573q40 0 68.5 28t28.5 68t-28.5 69
t-68.5 29q-41 0 -69.5 -28.5t-28.5 -69.5q0 -40 29 -68t69 -28zM494 1573q40 0 68 28t28 68t-28 69t-68 29q-41 0 -70 -28.5t-29 -69.5q0 -39 29.5 -67.5t69.5 -28.5zM168 -16v1423h256v-1423h-256zM201 16h190v1358h-190v-1358z" />
    <glyph glyph-name="Eth" unicode="&#xd0;" horiz-adv-x="1617" 
d="M229 -16v608h-245v217h245v598h521q352 0 562 -193.5t210 -517.5q0 -156 -56.5 -289t-157 -226t-244.5 -145t-314 -52h-521zM262 16h488q330 0 534.5 188t204.5 492q0 310 -200.5 494t-538.5 184h-488v-598h-246v-151h246v-609zM453 195v430h241v151h-241v422h278
q269 0 414 -130.5t145 -371.5q-7 -244 -150.5 -372.5t-406.5 -128.5h-280zM485 227h248q250 0 383 120t141 349q0 227 -135.5 348t-390.5 121h-246v-356h242v-217h-242v-365z" />
    <glyph glyph-name="Ntilde" unicode="&#xd1;" horiz-adv-x="1579" 
d="M940 1505q-76 0 -156 54h-12v2h14l-10 4q-70 51 -98 51q-11 0 -18 -5.5t-11 -17t-6.5 -22.5t-5.5 -29t-6 -29l-201 74q17 117 71 181.5t136 64.5q78 0 156 -53h12v-2h-14l10 -4q72 -52 98 -52q11 0 18 5.5t11 17t6.5 22.5t5.5 29t6 29l201 -74q-17 -117 -71 -181.5
t-136 -64.5zM940 1538q63 0 107 50t63 143l-139 49q-14 -90 -72 -90q-40 0 -115 55h-12v2h14l-10 2q-68 51 -139 51q-63 0 -107 -49.5t-63 -142.5l139 -49q14 90 72 90q38 0 115 -56h12v-2h-14l10 -2q68 -51 139 -51zM168 -16v1423h281l708 -1018v1018h254v-1423h-272
l-717 1034v-1034h-254zM201 16h188v1108l766 -1108h223v1358h-188v-1087l-758 1087h-231v-1358z" />
    <glyph glyph-name="Ograve" unicode="&#xd2;" horiz-adv-x="1644" 
d="M709 1516l-275 382h316l200 -382h-241zM725 1548h172l-168 318h-229zM821 -47q-155 -2 -294 55.5t-238.5 156.5t-157 238t-55.5 293q-2 154 55.5 293t157 238.5t238.5 157t294 55.5q155 2 295 -55.5t240 -157t157.5 -238.5t55.5 -293q2 -154 -55.5 -293t-157.5 -238
t-240 -156.5t-295 -55.5zM821 -14q148 -2 282 53t229.5 150t150.5 227.5t53 279.5q2 147 -53 280t-150.5 228t-229.5 150t-282 53q-148 2 -281.5 -52.5t-228.5 -149.5t-149.5 -228t-52.5 -281q-3 -197 90.5 -361.5t258.5 -258t363 -90.5zM821 164q-227 0 -371.5 149.5
t-144.5 382.5t145 384t371 151q227 0 371.5 -150t144.5 -385t-144 -383.5t-372 -148.5zM821 197q215 0 349.5 138t134.5 361q0 221 -135 361.5t-349 140.5q-212 0 -347.5 -141t-135.5 -361q0 -221 134.5 -360t348.5 -139z" />
    <glyph glyph-name="Oacute" unicode="&#xd3;" horiz-adv-x="1644" 
d="M698 1516l201 382h315l-274 -382h-242zM752 1548h172l225 318h-229zM821 -47q-155 -2 -294 55.5t-238.5 156.5t-157 238t-55.5 293q-2 154 55.5 293t157 238.5t238.5 157t294 55.5q155 2 295 -55.5t240 -157t157.5 -238.5t55.5 -293q2 -154 -55.5 -293t-157.5 -238
t-240 -156.5t-295 -55.5zM821 -14q148 -2 282 53t229.5 150t150.5 227.5t53 279.5q2 147 -53 280t-150.5 228t-229.5 150t-282 53q-148 2 -281.5 -52.5t-228.5 -149.5t-149.5 -228t-52.5 -281q-3 -197 90.5 -361.5t258.5 -258t363 -90.5zM821 164q-227 0 -371.5 149.5
t-144.5 382.5t145 384t371 151q227 0 371.5 -150t144.5 -385t-144 -383.5t-372 -148.5zM821 197q215 0 349.5 138t134.5 361q0 221 -135 361.5t-349 140.5q-212 0 -347.5 -141t-135.5 -361q0 -221 134.5 -360t348.5 -139z" />
    <glyph glyph-name="Ocircumflex" unicode="&#xd4;" horiz-adv-x="1644" 
d="M463 1516l235 382h248l236 -382h-244l-115 157l-116 -157h-244zM520 1548h170l133 183l131 -183h170l-194 318h-215zM821 -47q-155 -2 -294 55.5t-238.5 156.5t-157 238t-55.5 293q-2 154 55.5 293t157 238.5t238.5 157t294 55.5q155 2 295 -55.5t240 -157t157.5 -238.5
t55.5 -293q2 -154 -55.5 -293t-157.5 -238t-240 -156.5t-295 -55.5zM821 -14q148 -2 282 53t229.5 150t150.5 227.5t53 279.5q2 147 -53 280t-150.5 228t-229.5 150t-282 53q-148 2 -281.5 -52.5t-228.5 -149.5t-149.5 -228t-52.5 -281q-3 -197 90.5 -361.5t258.5 -258
t363 -90.5zM821 164q-227 0 -371.5 149.5t-144.5 382.5t145 384t371 151q227 0 371.5 -150t144.5 -385t-144 -383.5t-372 -148.5zM821 197q215 0 349.5 138t134.5 361q0 221 -135 361.5t-349 140.5q-212 0 -347.5 -141t-135.5 -361q0 -221 134.5 -360t348.5 -139z" />
    <glyph glyph-name="Otilde" unicode="&#xd5;" horiz-adv-x="1644" 
d="M973 1505q-76 0 -156 54h-12v2h14l-10 4q-70 51 -98 51q-11 0 -18 -5.5t-11 -17t-6.5 -22.5t-5.5 -29t-6 -29l-201 74q17 117 71 181.5t136 64.5q77 0 155 -53h13v-2h-15l11 -4q72 -52 98 -52q11 0 18 5.5t11 17t6.5 22.5t5.5 29t6 29l201 -74q-17 -117 -71 -181.5
t-136 -64.5zM973 1538q63 0 107 50t63 143l-139 49q-14 -90 -72 -90q-40 0 -115 55h-12v2h14l-10 2q-68 51 -139 51q-63 0 -107 -49.5t-63 -142.5l139 -49q14 90 72 90q37 0 114 -56h13v-2h-15l11 -2q68 -51 139 -51zM821 -47q-155 -2 -294 55.5t-238.5 156.5t-157 238
t-55.5 293q-2 154 55.5 293t157 238.5t238.5 157t294 55.5q155 2 295 -55.5t240 -157t157.5 -238.5t55.5 -293q2 -154 -55.5 -293t-157.5 -238t-240 -156.5t-295 -55.5zM821 -14q148 -2 282 53t229.5 150t150.5 227.5t53 279.5q2 147 -53 280t-150.5 228t-229.5 150t-282 53
q-148 2 -281.5 -52.5t-228.5 -149.5t-149.5 -228t-52.5 -281q-3 -197 90.5 -361.5t258.5 -258t363 -90.5zM821 164q-227 0 -371.5 149.5t-144.5 382.5t145 384t371 151q227 0 371.5 -150t144.5 -385t-144 -383.5t-372 -148.5zM821 197q215 0 349.5 138t134.5 361
q0 221 -135 361.5t-349 140.5q-212 0 -347.5 -141t-135.5 -361q0 -221 134.5 -360t348.5 -139z" />
    <glyph glyph-name="Odieresis" unicode="&#xd6;" horiz-adv-x="1644" 
d="M627 1540q-54 0 -92.5 37.5t-38.5 91.5t38.5 92.5t92.5 38.5t91.5 -38.5t37.5 -92.5q0 -53 -38 -91t-91 -38zM1020 1540q-54 0 -92.5 37.5t-38.5 91.5t38.5 92.5t92.5 38.5t91.5 -38.5t37.5 -92.5q0 -53 -38.5 -91t-90.5 -38zM627 1573q40 0 68 28t28 68t-28 69t-68 29
q-41 0 -70 -28.5t-29 -69.5q0 -39 29.5 -67.5t69.5 -28.5zM1020 1573q40 0 68 28t28 68t-28 69t-68 29q-41 0 -69.5 -28.5t-28.5 -69.5q0 -40 29 -68t69 -28zM821 -47q-155 -2 -294 55.5t-238.5 156.5t-157 238t-55.5 293q-2 154 55.5 293t157 238.5t238.5 157t294 55.5
q155 2 295 -55.5t240 -157t157.5 -238.5t55.5 -293q2 -154 -55.5 -293t-157.5 -238t-240 -156.5t-295 -55.5zM821 -14q148 -2 282 53t229.5 150t150.5 227.5t53 279.5q2 147 -53 280t-150.5 228t-229.5 150t-282 53q-148 2 -281.5 -52.5t-228.5 -149.5t-149.5 -228
t-52.5 -281q-3 -197 90.5 -361.5t258.5 -258t363 -90.5zM821 164q-227 0 -371.5 149.5t-144.5 382.5t145 384t371 151q227 0 371.5 -150t144.5 -385t-144 -383.5t-372 -148.5zM821 197q215 0 349.5 138t134.5 361q0 221 -135 361.5t-349 140.5q-212 0 -347.5 -141
t-135.5 -361q0 -221 134.5 -360t348.5 -139z" />
    <glyph glyph-name="multiply" unicode="&#xd7;" horiz-adv-x="1386" 
d="M393 205l-172 172l311 311l-311 311l172 172l312 -311l311 311l172 -172l-311 -311l311 -311l-172 -172l-311 311zM393 250l312 311l311 -311l127 127l-312 311l312 311l-127 127l-311 -311l-312 311l-127 -127l312 -311l-312 -311z" />
    <glyph glyph-name="Oslash" unicode="&#xd8;" horiz-adv-x="1644" 
d="M821 -47q-263 -3 -461 147l-159 -149l-185 182l172 158q-115 183 -112 405q-2 154 55.5 293t157 238.5t238.5 157t294 55.5q257 3 449 -142l170 160l184 -182l-176 -162q124 -189 121 -418q2 -154 -55.5 -293t-157.5 -238t-240 -156.5t-295 -55.5zM821 -14q148 -2 282 53
t229.5 150t150.5 227.5t53 279.5q3 235 -131 422l170 158l-135 137l-168 -158q-190 155 -451 152q-148 2 -281.5 -52.5t-228.5 -149.5t-149.5 -228t-52.5 -281q-3 -226 120 -409l-163 -154l135 -137l159 149q191 -162 461 -159zM373 420q-68 121 -68 276q0 233 145 384
t371 151q185 0 316 -98zM383 473l700 655q-115 70 -262 70q-212 0 -347.5 -141t-135.5 -361q0 -124 45 -223zM821 164q-193 0 -323 106l766 717q73 -125 73 -291q0 -235 -144 -383.5t-372 -148.5zM821 197q215 0 349.5 138t134.5 361q0 129 -50 238l-706 -660
q112 -77 272 -77z" />
    <glyph glyph-name="Ugrave" unicode="&#xd9;" horiz-adv-x="1445" 
d="M608 1516l-274 382h315l201 -382h-242zM625 1548h172l-168 318h-230zM723 -47q-283 0 -434.5 149.5t-151.5 427.5v877h256v-872q0 -158 86.5 -246t243.5 -88q169 0 249.5 82t80.5 252v872h256v-877q0 -278 -151.5 -427.5t-434.5 -149.5zM723 -14q268 0 410.5 140
t142.5 404v844h-191v-839q0 -185 -89.5 -276t-272.5 -91q-169 0 -266 98t-97 269v839h-190v-844q0 -264 142.5 -404t410.5 -140z" />
    <glyph glyph-name="Uacute" unicode="&#xda;" horiz-adv-x="1445" 
d="M598 1516l201 382h315l-274 -382h-242zM651 1548h172l226 318h-230zM723 -47q-283 0 -434.5 149.5t-151.5 427.5v877h256v-872q0 -158 86.5 -246t243.5 -88q169 0 249.5 82t80.5 252v872h256v-877q0 -278 -151.5 -427.5t-434.5 -149.5zM723 -14q268 0 410.5 140
t142.5 404v844h-191v-839q0 -185 -89.5 -276t-272.5 -91q-169 0 -266 98t-97 269v839h-190v-844q0 -264 142.5 -404t410.5 -140z" />
    <glyph glyph-name="Ucircumflex" unicode="&#xdb;" horiz-adv-x="1445" 
d="M362 1516l236 382h248l235 -382h-243l-115 157l-117 -157h-244zM420 1548h170l133 183l131 -183h170l-195 318h-215zM723 -47q-283 0 -434.5 149.5t-151.5 427.5v877h256v-872q0 -158 86.5 -246t243.5 -88q169 0 249.5 82t80.5 252v872h256v-877q0 -278 -151.5 -427.5
t-434.5 -149.5zM723 -14q268 0 410.5 140t142.5 404v844h-191v-839q0 -185 -89.5 -276t-272.5 -91q-169 0 -266 98t-97 269v839h-190v-844q0 -264 142.5 -404t410.5 -140z" />
    <glyph glyph-name="Udieresis" unicode="&#xdc;" horiz-adv-x="1445" 
d="M526 1540q-54 0 -92.5 37.5t-38.5 91.5t38.5 92.5t92.5 38.5t91.5 -38.5t37.5 -92.5q0 -53 -38.5 -91t-90.5 -38zM920 1540q-54 0 -93 37.5t-39 91.5t39 92.5t93 38.5t91.5 -38.5t37.5 -92.5q0 -53 -38.5 -91t-90.5 -38zM526 1573q40 0 68.5 28t28.5 68t-28.5 69
t-68.5 29q-41 0 -69.5 -28.5t-28.5 -69.5q0 -40 29 -68t69 -28zM920 1573q40 0 68 28t28 68t-28 69t-68 29q-41 0 -70 -28.5t-29 -69.5q0 -39 29.5 -67.5t69.5 -28.5zM723 -47q-283 0 -434.5 149.5t-151.5 427.5v877h256v-872q0 -158 86.5 -246t243.5 -88q169 0 249.5 82
t80.5 252v872h256v-877q0 -278 -151.5 -427.5t-434.5 -149.5zM723 -14q268 0 410.5 140t142.5 404v844h-191v-839q0 -185 -89.5 -276t-272.5 -91q-169 0 -266 98t-97 269v839h-190v-844q0 -264 142.5 -404t410.5 -140z" />
    <glyph glyph-name="Yacute" unicode="&#xdd;" horiz-adv-x="1384" 
d="M567 1516l201 382h315l-274 -382h-242zM621 1548h172l225 318h-230zM563 -16v608l-553 815h305l377 -578l375 578h307l-553 -815v-608h-258zM596 16h192v584l525 774h-230l-391 -606l-393 606h-227l524 -774v-584z" />
    <glyph glyph-name="Thorn" unicode="&#xde;" horiz-adv-x="1429" 
d="M168 -16v1423h256v-184h373q258 0 403.5 -139.5t145.5 -385.5q0 -236 -152.5 -380t-402.5 -144h-367v-190h-256zM201 16h190v191h400q238 0 380 133.5t142 357.5q0 232 -136 362t-380 130h-406v184h-190v-1358zM391 379v635h389q166 0 251 -81t85 -239q0 -156 -85 -235.5
t-251 -79.5h-389zM424 412h356q154 0 228.5 69.5t74.5 212.5q0 145 -74.5 216t-228.5 71h-356v-569z" />
    <glyph glyph-name="germandbls" unicode="&#xdf;" horiz-adv-x="1243" 
d="M688 -43q-60 0 -104 8v225q78 -10 104 -10q41 0 78.5 9.5t73.5 31t58 63t22 99.5q0 103 -82.5 172.5t-202.5 69.5h-51v219q120 -5 190 51.5t70 157.5q0 180 -197 180q-100 0 -163.5 -74.5t-63.5 -191.5v-983h-252v649h-164v209h164v104q0 227 130.5 363.5t348.5 136.5
q211 0 324.5 -101.5t113.5 -289.5q0 -103 -51.5 -182.5t-142.5 -114.5q132 -38 209.5 -137.5t77.5 -231.5q0 -195 -134.5 -313.5t-355.5 -118.5zM688 -10q207 0 332 109t125 290q0 157 -114.5 258t-297.5 101v18q141 -6 230.5 76t89.5 213q0 175 -104 266.5t-302 91.5
q-206 0 -326 -126t-120 -341v-137h-164v-143h164v-650h186v951q0 131 73 215t187 84q112 0 171 -55t59 -158q0 -107 -71 -172t-190 -70v-154h19q134 0 225.5 -78.5t91.5 -195.5q0 -108 -72 -172t-192 -64q-32 0 -72 7v-160q40 -4 72 -4z" />
    <glyph glyph-name="agrave" unicode="&#xe0;" horiz-adv-x="1376" 
d="M563 1182l-274 383h315l201 -383h-242zM580 1214h172l-168 318h-230zM635 -47q-160 0 -290.5 75.5t-204.5 207t-74 292.5q0 121 43.5 228.5t119 184t181 121t225.5 44.5q97 0 186.5 -29.5t153.5 -83.5v82h252v-1091h-256l2 86q-142 -117 -338 -117zM635 -14
q238 0 371 168l-2 -138h190v1026h-186v-129q-55 73 -156 116.5t-217 43.5q-150 0 -273.5 -71.5t-193.5 -196.5t-70 -277t70 -276.5t193.5 -195t273.5 -70.5zM651 150q-154 0 -259 110t-105 270t105 269.5t259 109.5q164 0 266.5 -105t102.5 -274q0 -170 -102 -275t-267 -105
zM651 182q151 0 243.5 95.5t92.5 252.5q0 155 -92.5 251t-243.5 96q-140 0 -236 -100.5t-96 -246.5t96 -247t236 -101z" />
    <glyph glyph-name="aacute" unicode="&#xe1;" horiz-adv-x="1376" 
d="M553 1182l201 383h315l-274 -383h-242zM606 1214h172l226 318h-230zM635 -47q-160 0 -290.5 75.5t-204.5 207t-74 292.5q0 121 43.5 228.5t119 184t181 121t225.5 44.5q97 0 186.5 -29.5t153.5 -83.5v82h252v-1091h-256l2 86q-142 -117 -338 -117zM635 -14q238 0 371 168
l-2 -138h190v1026h-186v-129q-55 73 -156 116.5t-217 43.5q-150 0 -273.5 -71.5t-193.5 -196.5t-70 -277t70 -276.5t193.5 -195t273.5 -70.5zM651 150q-154 0 -259 110t-105 270t105 269.5t259 109.5q164 0 266.5 -105t102.5 -274q0 -170 -102 -275t-267 -105zM651 182
q151 0 243.5 95.5t92.5 252.5q0 155 -92.5 251t-243.5 96q-140 0 -236 -100.5t-96 -246.5t96 -247t236 -101z" />
    <glyph glyph-name="acircumflex" unicode="&#xe2;" horiz-adv-x="1376" 
d="M317 1182l236 383h248l235 -383h-243l-115 157l-117 -157h-244zM375 1214h170l133 183l131 -183h170l-195 318h-215zM635 -47q-160 0 -290.5 75.5t-204.5 207t-74 292.5q0 121 43.5 228.5t119 184t181 121t225.5 44.5q97 0 186.5 -29.5t153.5 -83.5v82h252v-1091h-256
l2 86q-142 -117 -338 -117zM635 -14q238 0 371 168l-2 -138h190v1026h-186v-129q-55 73 -156 116.5t-217 43.5q-150 0 -273.5 -71.5t-193.5 -196.5t-70 -277t70 -276.5t193.5 -195t273.5 -70.5zM651 150q-154 0 -259 110t-105 270t105 269.5t259 109.5q164 0 266.5 -105
t102.5 -274q0 -170 -102 -275t-267 -105zM651 182q151 0 243.5 95.5t92.5 252.5q0 155 -92.5 251t-243.5 96q-140 0 -236 -100.5t-96 -246.5t96 -247t236 -101z" />
    <glyph glyph-name="atilde" unicode="&#xe3;" horiz-adv-x="1376" 
d="M827 1171q-75 0 -155 54h-13v2h15l-10 4q-70 51 -99 51q-11 0 -18 -5.5t-11 -17t-6.5 -22t-5.5 -28.5t-6 -29l-201 73q17 117 71 181.5t136 64.5q78 0 156 -53h12v-2h-14l10 -4q70 -51 98 -51q11 0 18 5.5t11.5 17t7 22t5.5 28.5t6 29l200 -74q-17 -117 -71 -181.5
t-136 -64.5zM827 1204q63 0 107 50t63 143l-139 49q-14 -90 -72 -90q-39 0 -114 55h-13v2h15l-10 2q-68 51 -140 51q-63 0 -107 -49.5t-63 -142.5l140 -49q4 25 9.5 42t21 32.5t40.5 15.5q40 0 115 -55h12v-3h-14l10 -2q68 -51 139 -51zM635 -47q-160 0 -290.5 75.5
t-204.5 207t-74 292.5q0 121 43.5 228.5t119 184t181 121t225.5 44.5q97 0 186.5 -29.5t153.5 -83.5v82h252v-1091h-256l2 86q-142 -117 -338 -117zM635 -14q238 0 371 168l-2 -138h190v1026h-186v-129q-55 73 -156 116.5t-217 43.5q-150 0 -273.5 -71.5t-193.5 -196.5
t-70 -277t70 -276.5t193.5 -195t273.5 -70.5zM651 150q-154 0 -259 110t-105 270t105 269.5t259 109.5q164 0 266.5 -105t102.5 -274q0 -170 -102 -275t-267 -105zM651 182q151 0 243.5 95.5t92.5 252.5q0 155 -92.5 251t-243.5 96q-140 0 -236 -100.5t-96 -246.5t96 -247
t236 -101z" />
    <glyph glyph-name="adieresis" unicode="&#xe4;" horiz-adv-x="1376" 
d="M481 1206q-54 0 -92.5 37.5t-38.5 91.5t38.5 92.5t92.5 38.5t91.5 -38.5t37.5 -92.5q0 -53 -38 -91t-91 -38zM874 1206q-54 0 -92.5 37.5t-38.5 91.5t38.5 92.5t92.5 38.5t92 -38.5t38 -92.5q0 -52 -38.5 -90.5t-91.5 -38.5zM481 1239q40 0 68.5 28t28.5 68t-28.5 69.5
t-68.5 29.5q-41 0 -69.5 -29t-28.5 -70q0 -40 29 -68t69 -28zM874 1239q40 0 68.5 28t28.5 68t-28.5 69.5t-68.5 29.5q-41 0 -69.5 -29t-28.5 -70q0 -40 29 -68t69 -28zM635 -47q-160 0 -290.5 75.5t-204.5 207t-74 292.5q0 121 43.5 228.5t119 184t181 121t225.5 44.5
q97 0 186.5 -29.5t153.5 -83.5v82h252v-1091h-256l2 86q-142 -117 -338 -117zM635 -14q238 0 371 168l-2 -138h190v1026h-186v-129q-55 73 -156 116.5t-217 43.5q-150 0 -273.5 -71.5t-193.5 -196.5t-70 -277t70 -276.5t193.5 -195t273.5 -70.5zM651 150q-154 0 -259 110
t-105 270t105 269.5t259 109.5q164 0 266.5 -105t102.5 -274q0 -170 -102 -275t-267 -105zM651 182q151 0 243.5 95.5t92.5 252.5q0 155 -92.5 251t-243.5 96q-140 0 -236 -100.5t-96 -246.5t96 -247t236 -101z" />
    <glyph glyph-name="aring" unicode="&#xe5;" horiz-adv-x="1376" 
d="M676 1171q-95 0 -160 65.5t-65 160.5q0 97 65 163t160 66t161 -67t66 -162q0 -94 -66 -160t-161 -66zM676 1204q81 0 137.5 56.5t56.5 136.5q0 82 -56 139t-138 57t-137.5 -56.5t-55.5 -139.5q0 -82 55.5 -137.5t137.5 -55.5zM676 1319q-32 0 -55 23t-23 55q0 34 23 58
t55 24q34 0 57 -24t23 -58q0 -32 -23 -55t-57 -23zM676 1352q20 0 33.5 13t13.5 32q0 20 -13.5 34.5t-33.5 14.5t-32.5 -13.5t-12.5 -35.5q0 -20 12.5 -32.5t32.5 -12.5zM635 -47q-160 0 -290.5 75.5t-204.5 207t-74 292.5q0 121 43.5 228.5t119 184t181 121t225.5 44.5
q97 0 186.5 -29.5t153.5 -83.5v82h252v-1091h-256l2 86q-142 -117 -338 -117zM635 -14q238 0 371 168l-2 -138h190v1026h-186v-129q-55 73 -156 116.5t-217 43.5q-150 0 -273.5 -71.5t-193.5 -196.5t-70 -277t70 -276.5t193.5 -195t273.5 -70.5zM651 150q-154 0 -259 110
t-105 270t105 269.5t259 109.5q164 0 266.5 -105t102.5 -274q0 -170 -102 -275t-267 -105zM651 182q151 0 243.5 95.5t92.5 252.5q0 155 -92.5 251t-243.5 96q-140 0 -236 -100.5t-96 -246.5t96 -247t236 -101z" />
    <glyph glyph-name="ae" unicode="&#xe6;" horiz-adv-x="1992" 
d="M520 -47q-200 0 -327 104.5t-127 268.5q0 166 126.5 271t327.5 105q181 0 318 -59q0 236 -295 236q-194 0 -357 -88v239q144 78 381 78q305 0 437 -170q168 168 421 168q141 0 256.5 -69t180.5 -189.5t65 -267.5v-119h-835v-31q32 -119 124 -183.5t228 -64.5
q51 0 101.5 6t90.5 16t76.5 22t63.5 23.5t46.5 21.5t30.5 16l11 6l16 -17v-198l-6 -12q-5 -5 -15 -12.5t-47.5 -27t-82.5 -34.5t-123 -27t-166 -12q-296 0 -463 192q-69 -94 -186 -143t-271 -49zM520 -14q160 0 278 56t175 159q77 -104 196.5 -159.5t270.5 -55.5
q92 0 169.5 12t125.5 31t72.5 32t39.5 25v164q-31 -20 -76 -39.5t-136.5 -40t-190.5 -20.5q-149 0 -249.5 72t-135.5 204v68h835v86q0 211 -134 352t-335 141q-126 0 -237 -48.5t-189 -137.5q-117 188 -432 188q-215 0 -348 -65v-166q156 67 324 67q160 0 243.5 -68.5
t83.5 -199.5v-27l-24 -14q-130 68 -326 68q-187 0 -304.5 -96t-117.5 -248q0 -151 117.5 -245.5t304.5 -94.5zM1057 633q1 24 10.5 57.5t35 75.5t62 77t97.5 59t135 24q75 0 133 -24t90 -58.5t53 -78t27.5 -75t7.5 -57.5h-651zM1096 666h575q-6 38 -20.5 72t-44 72
t-83.5 60.5t-126 22.5q-59 0 -108 -16t-81.5 -39.5t-56.5 -55.5t-36.5 -60t-18.5 -56zM561 133q-129 0 -205.5 52.5t-76.5 140.5q0 90 77 143t205 53q148 0 228.5 -50.5t80.5 -145.5q0 -92 -80.5 -142.5t-228.5 -50.5zM561 166q133 0 205 41.5t72 118.5q0 78 -72 120.5
t-205 42.5q-115 0 -182.5 -44t-67.5 -119q0 -73 68 -116.5t182 -43.5z" />
    <glyph glyph-name="ccedilla" unicode="&#xe7;" horiz-adv-x="1132" 
d="M547 -449v152q52 -3 87.5 13.5t35.5 43.5q0 24 -26 39.5t-52 18.5l-25 4l-14 20l33 117q-240 26 -380 180t-140 391q0 122 45.5 229t124 183t189.5 120t237 44q119 0 225 -36.5t170 -100.5v-234l-29 -10q-5 6 -14.5 16.5t-43.5 37t-73 47t-102.5 37t-132.5 16.5
q-148 0 -248.5 -100.5t-100.5 -248.5q0 -159 100.5 -254.5t268.5 -95.5q68 0 131 11t104 26.5t73 31.5t46 27l15 11l26 -13v-213q-99 -83 -313 -104l-25 -78q19 -6 37.5 -15t41 -25t36.5 -42.5t14 -58.5q0 -89 -86.5 -139.5t-234.5 -47.5zM580 -416q119 3 187.5 44t68.5 110
q0 25 -12.5 46t-30 32.5t-35.5 19.5t-30 11l-13 3l-13 21l37 115q206 18 305 92v166q-150 -97 -362 -97q-181 0 -291 105t-110 278q0 160 110.5 270.5t270.5 110.5q125 0 215.5 -42t146.5 -93v178q-61 55 -158.5 87t-203.5 32q-243 0 -403.5 -155t-160.5 -388
q0 -234 143.5 -381.5t385.5 -160.5l-37 -135q24 -4 46.5 -12.5t44 -30t21.5 -50.5q0 -36 -33.5 -60.5t-88.5 -29.5v-86z" />
    <glyph glyph-name="egrave" unicode="&#xe8;" horiz-adv-x="1220" 
d="M539 1182l-275 383h316l200 -383h-241zM555 1214h172l-168 318h-229zM668 -47q-267 0 -434.5 161t-167.5 416q0 121 45 228t123 183.5t187 120.5t232 44q141 0 256.5 -69t180.5 -189.5t65 -267.5v-119h-844q26 -132 120.5 -205.5t240.5 -73.5q51 0 101.5 6t90.5 16
t76.5 22t63.5 23.5t46.5 21.5t30.5 16l11 6l16 -17v-198l-6 -12q-5 -5 -15 -12.5t-47.5 -27t-82.5 -34.5t-123 -27t-166 -12zM668 -14q92 0 169.5 12t125.5 31t72.5 32t39.5 25v164q-31 -20 -76 -39.5t-136.5 -40t-190.5 -20.5q-167 0 -273 91.5t-125 252.5h848v86
q0 211 -134 352t-335 141q-156 0 -283.5 -71t-199.5 -195.5t-72 -276.5q0 -242 158.5 -393t411.5 -151zM285 633q1 24 10.5 57.5t35 75.5t62 77t97.5 59t135 24q75 0 133 -24t90 -58.5t53 -78t27.5 -75t7.5 -57.5h-651zM324 666h575q-6 38 -20.5 72t-44 72t-83.5 60.5
t-126 22.5q-59 0 -108 -16t-81.5 -39.5t-56.5 -55.5t-36.5 -60t-18.5 -56z" />
    <glyph glyph-name="eacute" unicode="&#xe9;" horiz-adv-x="1220" 
d="M528 1182l201 383h315l-274 -383h-242zM582 1214h172l225 318h-229zM668 -47q-267 0 -434.5 161t-167.5 416q0 121 45 228t123 183.5t187 120.5t232 44q141 0 256.5 -69t180.5 -189.5t65 -267.5v-119h-844q26 -132 120.5 -205.5t240.5 -73.5q51 0 101.5 6t90.5 16
t76.5 22t63.5 23.5t46.5 21.5t30.5 16l11 6l16 -17v-198l-6 -12q-5 -5 -15 -12.5t-47.5 -27t-82.5 -34.5t-123 -27t-166 -12zM668 -14q92 0 169.5 12t125.5 31t72.5 32t39.5 25v164q-31 -20 -76 -39.5t-136.5 -40t-190.5 -20.5q-167 0 -273 91.5t-125 252.5h848v86
q0 211 -134 352t-335 141q-156 0 -283.5 -71t-199.5 -195.5t-72 -276.5q0 -242 158.5 -393t411.5 -151zM285 633q1 24 10.5 57.5t35 75.5t62 77t97.5 59t135 24q75 0 133 -24t90 -58.5t53 -78t27.5 -75t7.5 -57.5h-651zM324 666h575q-6 38 -20.5 72t-44 72t-83.5 60.5
t-126 22.5q-59 0 -108 -16t-81.5 -39.5t-56.5 -55.5t-36.5 -60t-18.5 -56z" />
    <glyph glyph-name="ecircumflex" unicode="&#xea;" horiz-adv-x="1220" 
d="M293 1182l235 383h248l236 -383h-244l-115 157l-116 -157h-244zM350 1214h170l133 183l131 -183h170l-194 318h-215zM668 -47q-267 0 -434.5 161t-167.5 416q0 121 45 228t123 183.5t187 120.5t232 44q141 0 256.5 -69t180.5 -189.5t65 -267.5v-119h-844
q26 -132 120.5 -205.5t240.5 -73.5q51 0 101.5 6t90.5 16t76.5 22t63.5 23.5t46.5 21.5t30.5 16l11 6l16 -17v-198l-6 -12q-5 -5 -15 -12.5t-47.5 -27t-82.5 -34.5t-123 -27t-166 -12zM668 -14q92 0 169.5 12t125.5 31t72.5 32t39.5 25v164q-31 -20 -76 -39.5t-136.5 -40
t-190.5 -20.5q-167 0 -273 91.5t-125 252.5h848v86q0 211 -134 352t-335 141q-156 0 -283.5 -71t-199.5 -195.5t-72 -276.5q0 -242 158.5 -393t411.5 -151zM285 633q1 24 10.5 57.5t35 75.5t62 77t97.5 59t135 24q75 0 133 -24t90 -58.5t53 -78t27.5 -75t7.5 -57.5h-651z
M324 666h575q-6 38 -20.5 72t-44 72t-83.5 60.5t-126 22.5q-59 0 -108 -16t-81.5 -39.5t-56.5 -55.5t-36.5 -60t-18.5 -56z" />
    <glyph glyph-name="edieresis" unicode="&#xeb;" horiz-adv-x="1220" 
d="M457 1206q-54 0 -92.5 37.5t-38.5 91.5t38.5 92.5t92.5 38.5t91.5 -38.5t37.5 -92.5q0 -53 -38 -91t-91 -38zM850 1206q-54 0 -92.5 37.5t-38.5 91.5t38.5 92.5t92.5 38.5t91.5 -38.5t37.5 -92.5q0 -53 -38.5 -91t-90.5 -38zM457 1239q40 0 68 28t28 68t-28.5 69.5
t-67.5 29.5q-41 0 -70 -29t-29 -70q0 -39 29.5 -67.5t69.5 -28.5zM850 1239q40 0 68 28t28 68t-28.5 69.5t-67.5 29.5q-41 0 -69.5 -29t-28.5 -70q0 -40 29 -68t69 -28zM668 -47q-267 0 -434.5 161t-167.5 416q0 121 45 228t123 183.5t187 120.5t232 44q141 0 256.5 -69
t180.5 -189.5t65 -267.5v-119h-844q26 -132 120.5 -205.5t240.5 -73.5q51 0 101.5 6t90.5 16t76.5 22t63.5 23.5t46.5 21.5t30.5 16l11 6l16 -17v-198l-6 -12q-5 -5 -15 -12.5t-47.5 -27t-82.5 -34.5t-123 -27t-166 -12zM668 -14q92 0 169.5 12t125.5 31t72.5 32t39.5 25
v164q-31 -20 -76 -39.5t-136.5 -40t-190.5 -20.5q-167 0 -273 91.5t-125 252.5h848v86q0 211 -134 352t-335 141q-156 0 -283.5 -71t-199.5 -195.5t-72 -276.5q0 -242 158.5 -393t411.5 -151zM285 633q1 24 10.5 57.5t35 75.5t62 77t97.5 59t135 24q75 0 133 -24t90 -58.5
t53 -78t27.5 -75t7.5 -57.5h-651zM324 666h575q-6 38 -20.5 72t-44 72t-83.5 60.5t-126 22.5q-59 0 -108 -16t-81.5 -39.5t-56.5 -55.5t-36.5 -60t-18.5 -56z" />
    <glyph glyph-name="igrave" unicode="&#xec;" horiz-adv-x="561" 
d="M174 1182l-274 383h315l201 -383h-242zM190 1214h172l-167 318h-230zM160 -16v1091h254v-1091h-254zM193 16h188v1026h-188v-1026z" />
    <glyph glyph-name="iacute" unicode="&#xed;" horiz-adv-x="561" 
d="M164 1182l201 383h315l-274 -383h-242zM217 1214h172l225 318h-229zM160 -16v1091h254v-1091h-254zM193 16h188v1026h-188v-1026z" />
    <glyph glyph-name="icircumflex" unicode="&#xee;" horiz-adv-x="561" 
d="M-72 1182l236 383h248l235 -383h-244l-114 157l-117 -157h-244zM-14 1214h170l133 183l131 -183h170l-195 318h-215zM160 -16v1091h254v-1091h-254zM193 16h188v1026h-188v-1026z" />
    <glyph glyph-name="idieresis" unicode="&#xef;" horiz-adv-x="561" 
d="M92 1206q-54 0 -92.5 37.5t-38.5 91.5t38.5 92.5t92.5 38.5t91.5 -38.5t37.5 -92.5q0 -53 -38.5 -91t-90.5 -38zM485 1206q-54 0 -92.5 37.5t-38.5 91.5t38.5 92.5t92.5 38.5t91.5 -38.5t37.5 -92.5q0 -53 -38 -91t-91 -38zM92 1239q40 0 68 28t28 68t-28.5 69.5
t-67.5 29.5q-41 0 -69.5 -29t-28.5 -70q0 -40 29 -68t69 -28zM485 1239q40 0 68.5 28t28.5 68t-28.5 69.5t-68.5 29.5q-41 0 -69.5 -29t-28.5 -70q0 -40 29 -68t69 -28zM160 -16v1091h254v-1091h-254zM193 16h188v1026h-188v-1026z" />
    <glyph glyph-name="eth" unicode="&#xf0;" horiz-adv-x="1206" 
d="M604 -47q-241 0 -389.5 135.5t-148.5 355.5q0 221 142 357.5t374 136.5q89 0 171 -30.5t142 -86.5q-60 166 -182 248l-51 -113l-197 95l47 98q-129 27 -322 27v225q232 3 412 -51l43 98l193 -96l-39 -88q342 -208 342 -705q0 -281 -144 -443.5t-393 -162.5zM604 -14
q235 0 369.5 152.5t134.5 420.5q0 495 -350 692l39 84l-135 68l-44 -94q-159 56 -395 59v-160q204 0 334 -37l-47 -104l135 -66l51 115q109 -60 174 -167.5t93 -274.5q-41 103 -147 167t-234 64q-218 0 -351 -127t-133 -334t138.5 -332.5t367.5 -125.5zM604 150
q-141 0 -229 83.5t-88 217.5q0 130 81.5 210t213.5 80q153 0 246.5 -79.5t93.5 -210.5q0 -128 -91.5 -214.5t-226.5 -86.5zM604 182q121 0 203 77.5t82 191.5q0 118 -83.5 188t-223.5 70q-119 0 -191 -70.5t-72 -187.5q0 -122 78 -195.5t207 -73.5z" />
    <glyph glyph-name="ntilde" unicode="&#xf1;" horiz-adv-x="1296" 
d="M864 1171q-75 0 -155 54h-13v2h15l-11 4q-70 51 -98 51q-11 0 -18 -5.5t-11 -17t-6.5 -22t-5.5 -28.5t-6 -29l-201 73q17 117 71 181.5t136 64.5q78 0 156 -53h12v-2h-14l10 -4q70 -51 98 -51q11 0 18 5.5t11 17t6.5 22t5.5 28.5t6 29l201 -74q-17 -117 -71 -181.5
t-136 -64.5zM864 1204q63 0 107 50t63 143l-139 49q-14 -90 -72 -90q-39 0 -114 55h-13v2h15l-11 2q-68 51 -139 51q-63 0 -107 -49.5t-63 -142.5l139 -49q14 90 72 90q40 0 115 -55h12v-3h-14l10 -2q68 -51 139 -51zM160 -16v1091h254v-94q107 127 313 127
q201 0 321.5 -124t120.5 -333v-667h-254v645q0 118 -58.5 184t-162.5 66q-125 0 -202.5 -78t-77.5 -205v-612h-254zM193 16h188v580q0 139 87.5 227t225.5 88q119 0 186.5 -75t67.5 -207v-613h189v635q0 195 -111 309.5t-299 114.5q-69 0 -127 -16t-91.5 -38.5t-56.5 -44.5
t-32 -38l-8 -16l-31 6v114h-188v-1026z" />
    <glyph glyph-name="ograve" unicode="&#xf2;" horiz-adv-x="1323" 
d="M547 1182l-275 383h316l200 -383h-241zM563 1214h172l-168 318h-229zM662 -47q-122 0 -232 45.5t-190 122t-127 183t-47 224.5q0 157 79.5 290t217 210.5t299.5 77.5t299 -77.5t216.5 -210.5t79.5 -290t-79.5 -289.5t-216.5 -209t-299 -76.5zM662 -14q153 0 282.5 72
t205 197t75.5 273t-75.5 273.5t-205 198.5t-282.5 73t-283 -73t-205.5 -198.5t-75.5 -273.5q0 -111 44.5 -211.5t120.5 -173t180 -115t219 -42.5zM662 152q-161 0 -272 109t-111 267q0 160 111 269.5t272 109.5t271.5 -109.5t110.5 -269.5q0 -158 -110.5 -267t-271.5 -109z
M662 184q148 0 249 99.5t101 244.5q0 146 -101 246t-249 100t-249.5 -100t-101.5 -246q0 -145 101.5 -244.5t249.5 -99.5z" />
    <glyph glyph-name="oacute" unicode="&#xf3;" horiz-adv-x="1323" 
d="M537 1182l200 383h316l-275 -383h-241zM590 1214h172l225 318h-229zM662 -47q-122 0 -232 45.5t-190 122t-127 183t-47 224.5q0 157 79.5 290t217 210.5t299.5 77.5t299 -77.5t216.5 -210.5t79.5 -290t-79.5 -289.5t-216.5 -209t-299 -76.5zM662 -14q153 0 282.5 72
t205 197t75.5 273t-75.5 273.5t-205 198.5t-282.5 73t-283 -73t-205.5 -198.5t-75.5 -273.5q0 -111 44.5 -211.5t120.5 -173t180 -115t219 -42.5zM662 152q-161 0 -272 109t-111 267q0 160 111 269.5t272 109.5t271.5 -109.5t110.5 -269.5q0 -158 -110.5 -267t-271.5 -109z
M662 184q148 0 249 99.5t101 244.5q0 146 -101 246t-249 100t-249.5 -100t-101.5 -246q0 -145 101.5 -244.5t249.5 -99.5z" />
    <glyph glyph-name="ocircumflex" unicode="&#xf4;" horiz-adv-x="1323" 
d="M301 1182l236 383h247l236 -383h-244l-114 157l-117 -157h-244zM358 1214h170l134 183l131 -183h170l-195 318h-215zM662 -47q-122 0 -232 45.5t-190 122t-127 183t-47 224.5q0 157 79.5 290t217 210.5t299.5 77.5t299 -77.5t216.5 -210.5t79.5 -290t-79.5 -289.5
t-216.5 -209t-299 -76.5zM662 -14q153 0 282.5 72t205 197t75.5 273t-75.5 273.5t-205 198.5t-282.5 73t-283 -73t-205.5 -198.5t-75.5 -273.5q0 -111 44.5 -211.5t120.5 -173t180 -115t219 -42.5zM662 152q-161 0 -272 109t-111 267q0 160 111 269.5t272 109.5
t271.5 -109.5t110.5 -269.5q0 -158 -110.5 -267t-271.5 -109zM662 184q148 0 249 99.5t101 244.5q0 146 -101 246t-249 100t-249.5 -100t-101.5 -246q0 -145 101.5 -244.5t249.5 -99.5z" />
    <glyph glyph-name="otilde" unicode="&#xf5;" horiz-adv-x="1323" 
d="M811 1171q-76 0 -156 54h-12v2h14l-10 4q-70 51 -98 51q-11 0 -18 -5.5t-11 -17t-6.5 -22t-5.5 -28.5t-6 -29l-201 73q17 117 71 181.5t136 64.5q78 0 156 -53h12v-2h-14l10 -4q70 -51 98 -51q11 0 18 5.5t11 17t6.5 22t5.5 28.5t6 29l201 -74q-17 -117 -71 -181.5
t-136 -64.5zM811 1204q63 0 107 50t63 143l-139 49q-14 -90 -72 -90q-40 0 -115 55h-12v2h14l-10 2q-68 51 -139 51q-63 0 -107 -49.5t-63 -142.5l139 -49q14 90 72 90q40 0 115 -55h12v-3h-14l10 -2q68 -51 139 -51zM662 -47q-122 0 -232 45.5t-190 122t-127 183t-47 224.5
q0 157 79.5 290t217 210.5t299.5 77.5t299 -77.5t216.5 -210.5t79.5 -290t-79.5 -289.5t-216.5 -209t-299 -76.5zM662 -14q153 0 282.5 72t205 197t75.5 273t-75.5 273.5t-205 198.5t-282.5 73t-283 -73t-205.5 -198.5t-75.5 -273.5q0 -111 44.5 -211.5t120.5 -173t180 -115
t219 -42.5zM662 152q-161 0 -272 109t-111 267q0 160 111 269.5t272 109.5t271.5 -109.5t110.5 -269.5q0 -158 -110.5 -267t-271.5 -109zM662 184q148 0 249 99.5t101 244.5q0 146 -101 246t-249 100t-249.5 -100t-101.5 -246q0 -145 101.5 -244.5t249.5 -99.5z" />
    <glyph glyph-name="odieresis" unicode="&#xf6;" horiz-adv-x="1323" 
d="M465 1206q-54 0 -92.5 37.5t-38.5 91.5t38.5 92.5t92.5 38.5t91.5 -38.5t37.5 -92.5q0 -53 -38 -91t-91 -38zM858 1206q-54 0 -92.5 37.5t-38.5 91.5t38.5 92.5t92.5 38.5t91.5 -38.5t37.5 -92.5q0 -53 -38.5 -91t-90.5 -38zM465 1239q40 0 68 28t28 68t-28.5 69.5
t-67.5 29.5q-41 0 -69.5 -29t-28.5 -70q0 -40 29 -68t69 -28zM858 1239q40 0 68 28t28 68t-28.5 69.5t-67.5 29.5q-41 0 -69.5 -29t-28.5 -70q0 -40 29 -68t69 -28zM662 -47q-122 0 -232 45.5t-190 122t-127 183t-47 224.5q0 157 79.5 290t217 210.5t299.5 77.5t299 -77.5
t216.5 -210.5t79.5 -290t-79.5 -289.5t-216.5 -209t-299 -76.5zM662 -14q153 0 282.5 72t205 197t75.5 273t-75.5 273.5t-205 198.5t-282.5 73t-283 -73t-205.5 -198.5t-75.5 -273.5q0 -111 44.5 -211.5t120.5 -173t180 -115t219 -42.5zM662 152q-161 0 -272 109t-111 267
q0 160 111 269.5t272 109.5t271.5 -109.5t110.5 -269.5q0 -158 -110.5 -267t-271.5 -109zM662 184q148 0 249 99.5t101 244.5q0 146 -101 246t-249 100t-249.5 -100t-101.5 -246q0 -145 101.5 -244.5t249.5 -99.5z" />
    <glyph glyph-name="divide" unicode="&#xf7;" horiz-adv-x="1198" 
d="M600 719q-76 0 -128 51.5t-52 128.5q0 75 52.5 127.5t127.5 52.5q74 0 127 -53.5t53 -126.5q0 -75 -52.5 -127.5t-127.5 -52.5zM600 752q63 0 105.5 42t42.5 105q0 61 -43 104.5t-105 43.5q-63 0 -105 -42.5t-42 -105.5q0 -65 41.5 -106t105.5 -41zM129 406v241h940v-241
h-940zM162 438h874v176h-874v-176zM600 -31q-76 0 -128 52t-52 129q0 75 52.5 127.5t127.5 52.5q74 0 127 -53t53 -127q0 -75 -52.5 -128t-127.5 -53zM600 2q63 0 105.5 42.5t42.5 105.5q0 61 -43 104t-105 43q-63 0 -105 -42t-42 -105q0 -65 41.5 -106.5t105.5 -41.5z" />
    <glyph glyph-name="oslash" unicode="&#xf8;" horiz-adv-x="1323" 
d="M242 -53l-183 182l97 94q-90 140 -90 305q0 157 79.5 290t217 210.5t299.5 77.5q173 0 319 -90l100 96l183 -182l-99 -94q92 -136 92 -308q0 -157 -79.5 -289.5t-216.5 -209t-299 -76.5q-174 0 -320 90zM242 -8l96 92q146 -98 324 -98q153 0 282.5 72t205 197t75.5 273
q0 176 -103 312l97 90l-138 137l-96 -92q-146 98 -323 98q-153 0 -283 -73t-205.5 -198.5t-75.5 -273.5q0 -171 99 -309l-93 -90zM328 342q-49 82 -49 186q0 160 111 269.5t272 109.5q109 0 198 -53zM338 397l467 449q-70 28 -143 28q-148 0 -249.5 -100t-101.5 -246
q0 -70 27 -131zM662 152q-110 0 -199 53l532 512q49 -82 49 -189q0 -158 -110.5 -267t-271.5 -109zM662 184q148 0 249 99.5t101 244.5q0 72 -27 134l-467 -449q73 -29 144 -29z" />
    <glyph glyph-name="ugrave" unicode="&#xf9;" horiz-adv-x="1249" 
d="M510 1182l-274 383h315l201 -383h-242zM526 1214h172l-168 318h-229zM625 -49q-498 0 -498 477v647h254v-653v-14t4 -34t11.5 -48t25.5 -51.5t42.5 -48.5t66.5 -34t94 -14t94 13.5t66.5 35t42.5 47.5t25.5 52t11 47.5t3.5 34.5v14v653h254v-647q0 -477 -497 -477z
M625 -16q39 0 68.5 1.5t81 11t90 25.5t83.5 49t74 78.5t48.5 117.5t19.5 161v614h-189v-620v-16t-4.5 -38.5t-13 -55t-28.5 -58.5t-48.5 -54.5t-75.5 -38.5t-106 -16t-106 15.5t-75.5 39.5t-49 53.5t-29 59.5t-13 54t-4.5 39v16v620h-188v-614q0 -89 19.5 -161t48.5 -117.5
t74 -78.5t83.5 -49t90 -25.5t81 -11t68.5 -1.5z" />
    <glyph glyph-name="uacute" unicode="&#xfa;" horiz-adv-x="1249" 
d="M500 1182l200 383h316l-275 -383h-241zM553 1214h172l225 318h-229zM625 -49q-498 0 -498 477v647h254v-653v-14t4 -34t11.5 -48t25.5 -51.5t42.5 -48.5t66.5 -34t94 -14t94 13.5t66.5 35t42.5 47.5t25.5 52t11 47.5t3.5 34.5v14v653h254v-647q0 -477 -497 -477zM625 -16
q39 0 68.5 1.5t81 11t90 25.5t83.5 49t74 78.5t48.5 117.5t19.5 161v614h-189v-620v-16t-4.5 -38.5t-13 -55t-28.5 -58.5t-48.5 -54.5t-75.5 -38.5t-106 -16t-106 15.5t-75.5 39.5t-49 53.5t-29 59.5t-13 54t-4.5 39v16v620h-188v-614q0 -89 19.5 -161t48.5 -117.5t74 -78.5
t83.5 -49t90 -25.5t81 -11t68.5 -1.5z" />
    <glyph glyph-name="ucircumflex" unicode="&#xfb;" horiz-adv-x="1249" 
d="M264 1182l236 383h248l235 -383h-244l-114 157l-117 -157h-244zM322 1214h170l133 183l131 -183h170l-195 318h-215zM625 -49q-498 0 -498 477v647h254v-653v-14t4 -34t11.5 -48t25.5 -51.5t42.5 -48.5t66.5 -34t94 -14t94 13.5t66.5 35t42.5 47.5t25.5 52t11 47.5
t3.5 34.5v14v653h254v-647q0 -477 -497 -477zM625 -16q39 0 68.5 1.5t81 11t90 25.5t83.5 49t74 78.5t48.5 117.5t19.5 161v614h-189v-620v-16t-4.5 -38.5t-13 -55t-28.5 -58.5t-48.5 -54.5t-75.5 -38.5t-106 -16t-106 15.5t-75.5 39.5t-49 53.5t-29 59.5t-13 54t-4.5 39v16
v620h-188v-614q0 -89 19.5 -161t48.5 -117.5t74 -78.5t83.5 -49t90 -25.5t81 -11t68.5 -1.5z" />
    <glyph glyph-name="udieresis" unicode="&#xfc;" horiz-adv-x="1249" 
d="M428 1206q-54 0 -92.5 37.5t-38.5 91.5t38.5 92.5t92.5 38.5t91.5 -38.5t37.5 -92.5q0 -53 -38.5 -91t-90.5 -38zM821 1206q-54 0 -92.5 37.5t-38.5 91.5t38.5 92.5t92.5 38.5t91.5 -38.5t37.5 -92.5q0 -53 -38 -91t-91 -38zM428 1239q40 0 68 28t28 68t-28.5 69.5
t-67.5 29.5q-41 0 -69.5 -29t-28.5 -70q0 -40 29 -68t69 -28zM821 1239q40 0 68.5 28t28.5 68t-28.5 69.5t-68.5 29.5q-41 0 -69.5 -29t-28.5 -70q0 -40 29 -68t69 -28zM625 -49q-498 0 -498 477v647h254v-653v-14t4 -34t11.5 -48t25.5 -51.5t42.5 -48.5t66.5 -34t94 -14
t94 13.5t66.5 35t42.5 47.5t25.5 52t11 47.5t3.5 34.5v14v653h254v-647q0 -477 -497 -477zM625 -16q39 0 68.5 1.5t81 11t90 25.5t83.5 49t74 78.5t48.5 117.5t19.5 161v614h-189v-620v-16t-4.5 -38.5t-13 -55t-28.5 -58.5t-48.5 -54.5t-75.5 -38.5t-106 -16t-106 15.5
t-75.5 39.5t-49 53.5t-29 59.5t-13 54t-4.5 39v16v620h-188v-614q0 -89 19.5 -161t48.5 -117.5t74 -78.5t83.5 -49t90 -25.5t81 -11t68.5 -1.5z" />
    <glyph glyph-name="yacute" unicode="&#xfd;" horiz-adv-x="1200" 
d="M475 1182l201 383h315l-274 -383h-242zM528 1214h172l226 318h-230zM182 -442l285 565l-453 952h269l317 -680l318 680h268l-731 -1517h-273zM236 -410h198l699 1452h-195l-338 -725l-338 725h-194l436 -919z" />
    <glyph glyph-name="thorn" unicode="&#xfe;" horiz-adv-x="1378" 
d="M150 -451v1856l253 41v-453q64 54 153.5 83.5t186.5 29.5q160 0 290.5 -75.5t205 -208t74.5 -294.5q0 -161 -74.5 -292.5t-205 -207t-290.5 -75.5q-207 0 -340 121v-525h-253zM182 -418h189v576q132 -172 372 -172q150 0 273.5 70.5t193.5 195t70 276.5t-70 277
t-193.5 196.5t-273.5 71.5q-115 0 -215.5 -43t-156.5 -117v496l-189 -33v-1794zM748 150q-170 0 -280 106t-110 272q0 167 110 274t280 107q150 0 250 -109t100 -272t-99.5 -270.5t-250.5 -107.5zM748 182q137 0 227 98.5t90 247.5q0 151 -90 250t-227 99q-157 0 -257 -97.5
t-100 -251.5q0 -152 100 -249t257 -97z" />
    <glyph glyph-name="ydieresis" unicode="&#xff;" horiz-adv-x="1200" 
d="M403 1206q-54 0 -92.5 37.5t-38.5 91.5t38.5 92.5t92.5 38.5t91.5 -38.5t37.5 -92.5q0 -53 -38 -91t-91 -38zM797 1206q-54 0 -92.5 37.5t-38.5 91.5t38.5 92.5t92.5 38.5t91.5 -38.5t37.5 -92.5q0 -53 -38 -91t-91 -38zM403 1239q40 0 68.5 28t28.5 68t-28.5 69.5
t-68.5 29.5q-41 0 -69.5 -29t-28.5 -70q0 -40 29 -68t69 -28zM797 1239q40 0 68 28t28 68t-28.5 69.5t-67.5 29.5q-41 0 -70 -29t-29 -70q0 -39 29.5 -67.5t69.5 -28.5zM182 -442l285 565l-453 952h269l317 -680l318 680h268l-731 -1517h-273zM236 -410h198l699 1452h-195
l-338 -725l-338 725h-194l436 -919z" />
    <glyph glyph-name="Amacron" unicode="&#x100;" horiz-adv-x="1542" 
d="M465 1546v217h600v-217h-600zM498 1579h534v152h-534v-152zM18 -16l633 1423h240l633 -1423h-295l-133 329h-650l-133 -329h-295zM68 16h225l133 330h690l133 -330h226l-605 1358h-198zM496 522l276 649l275 -649h-551zM545 555h452l-225 535z" />
    <glyph glyph-name="amacron" unicode="&#x101;" horiz-adv-x="1376" 
d="M377 1212v218h600v-218h-600zM410 1245h534v152h-534v-152zM635 -47q-160 0 -290.5 75.5t-204.5 207t-74 292.5q0 121 43.5 228.5t119 184t181 121t225.5 44.5q97 0 186.5 -29.5t153.5 -83.5v82h252v-1091h-256l2 86q-142 -117 -338 -117zM635 -14q238 0 371 168l-2 -138
h190v1026h-186v-129q-55 73 -156 116.5t-217 43.5q-150 0 -273.5 -71.5t-193.5 -196.5t-70 -277t70 -276.5t193.5 -195t273.5 -70.5zM651 150q-154 0 -259 110t-105 270t105 269.5t259 109.5q164 0 266.5 -105t102.5 -274q0 -170 -102 -275t-267 -105zM651 182
q151 0 243.5 95.5t92.5 252.5q0 155 -92.5 251t-243.5 96q-140 0 -236 -100.5t-96 -246.5t96 -247t236 -101z" />
    <glyph glyph-name="Abreve" unicode="&#x102;" horiz-adv-x="1542" 
d="M764 1516q-74 0 -135 24t-100 63t-65.5 90t-37 102.5t-8.5 102.5h239q-2 -22 3 -49t16 -55t34 -46.5t54 -18.5q40 0 67.5 32.5t35.5 70t5 66.5h240q2 -51 -8.5 -103t-37.5 -102.5t-66 -89.5t-100.5 -63t-135.5 -24zM764 1548q64 0 117 19t88 50t60 72.5t36.5 85.5
t13.5 91h-174q-3 -38 -17 -74t-46.5 -66t-77.5 -30t-77 30t-45.5 66t-16.5 74h-174q2 -59 21 -113.5t54.5 -101.5t97 -75t140.5 -28zM18 -16l633 1423h240l633 -1423h-295l-133 329h-650l-133 -329h-295zM68 16h225l133 330h690l133 -330h226l-605 1358h-198zM496 522
l276 649l275 -649h-551zM545 555h452l-225 535z" />
    <glyph glyph-name="abreve" unicode="&#x103;" horiz-adv-x="1376" 
d="M676 1182q-74 0 -135 24t-100 63.5t-65.5 90t-37 102.5t-8.5 103h239q-2 -22 3 -49t16 -55.5t34 -47t54 -18.5q40 0 67.5 33t35.5 70.5t5 66.5h240q2 -51 -8.5 -103t-37.5 -102.5t-66 -90t-100.5 -63.5t-135.5 -24zM676 1214q64 0 117 19t88 50t60 72.5t36.5 85.5
t13.5 91h-174q-3 -38 -17 -74t-46.5 -66t-77.5 -30t-77 30t-45.5 66t-16.5 74h-175q2 -59 21 -113.5t55 -101.5t97.5 -75t140.5 -28zM635 -47q-160 0 -290.5 75.5t-204.5 207t-74 292.5q0 121 43.5 228.5t119 184t181 121t225.5 44.5q97 0 186.5 -29.5t153.5 -83.5v82h252
v-1091h-256l2 86q-142 -117 -338 -117zM635 -14q238 0 371 168l-2 -138h190v1026h-186v-129q-55 73 -156 116.5t-217 43.5q-150 0 -273.5 -71.5t-193.5 -196.5t-70 -277t70 -276.5t193.5 -195t273.5 -70.5zM651 150q-154 0 -259 110t-105 270t105 269.5t259 109.5
q164 0 266.5 -105t102.5 -274q0 -170 -102 -275t-267 -105zM651 182q151 0 243.5 95.5t92.5 252.5q0 155 -92.5 251t-243.5 96q-140 0 -236 -100.5t-96 -246.5t96 -247t236 -101z" />
    <glyph glyph-name="Aogonek" unicode="&#x104;" horiz-adv-x="1542" 
d="M1542 -477q-32 -2 -72 3.5t-87.5 23.5t-86 45.5t-64.5 75t-26 106.5q0 108 94 207h-71l-133 329h-650l-133 -329h-295l633 1423h240l622 -1401l-2 -16q-10 -13 -25.5 -33.5t-41 -69.5t-25.5 -80q0 -43 26 -58t97 -13v-213zM1509 -444v147q-65 3 -94 27.5t-29 76.5
q0 75 95 195l-611 1372h-198l-604 -1358h225l133 330h690l133 -330h94l11 -28q-5 -4 -12.5 -10.5t-27.5 -28t-35 -44.5t-27.5 -58t-12.5 -70q0 -46 18.5 -84t47 -62t65.5 -41t71.5 -24.5t67.5 -9.5zM496 522l276 649l275 -649h-551zM545 555h452l-225 535z" />
    <glyph glyph-name="aogonek" unicode="&#x105;" horiz-adv-x="1376" 
d="M1128 -193q0 -43 26 -58t97 -13v-213q-32 -2 -72 3.5t-87.5 23.5t-86 45.5t-64.5 75t-26 106.5q0 107 95 207h-39l2 86q-142 -117 -338 -117q-160 0 -290.5 75.5t-204.5 207t-74 292.5q0 121 43.5 228.5t119 184t181 121t225.5 44.5q97 0 186.5 -29.5t153.5 -83.5v82h252
v-1091h-10q-16 -20 -33 -44.5t-36.5 -65t-19.5 -67.5zM1219 -444v147q-65 3 -94 27.5t-29 76.5q0 36 25 87t50 84l25 32l12 6h-14v1026h-186v-129q-55 73 -156 116.5t-217 43.5q-150 0 -273.5 -71.5t-193.5 -196.5t-70 -277t70 -276.5t193.5 -195t273.5 -70.5q238 0 371 168
l-2 -138h49l10 -28q-5 -4 -12.5 -10.5t-27.5 -28t-35 -44.5t-27.5 -58t-12.5 -70q0 -46 18.5 -84t47 -62t66 -41t72 -24.5t67.5 -9.5zM651 909q164 0 266.5 -105t102.5 -274q0 -170 -102 -275t-267 -105q-154 0 -259 110t-105 270t105 269.5t259 109.5zM651 182
q151 0 243.5 95.5t92.5 252.5q0 155 -92.5 251t-243.5 96q-140 0 -236 -100.5t-96 -246.5t96 -247t236 -101z" />
    <glyph glyph-name="Cacute" unicode="&#x106;" horiz-adv-x="1441" 
d="M733 1516l201 382h315l-274 -382h-242zM786 1548h172l226 318h-230zM860 -47q-221 -3 -402 94.5t-283 269t-99 379.5q-2 156 57.5 295t163.5 238t251 156t312 55q160 0 277 -40t190 -91v-244l-31 -8q-4 6 -26 21t-63.5 35.5t-92 39.5t-118.5 32t-136 13
q-233 0 -376.5 -139t-143.5 -363q0 -226 142.5 -362.5t377.5 -136.5q153 0 289.5 47t216.5 127v-277l-8 -14q-1 0 -20.5 -12t-37.5 -21t-50.5 -24t-70.5 -26t-85.5 -21.5t-108 -16.5t-125.5 -6zM860 -14q290 0 473 118v197q-88 -65 -212.5 -101t-260.5 -36
q-248 0 -400.5 146.5t-152.5 385.5q0 238 153 386.5t400 148.5q131 0 246.5 -41.5t187.5 -89.5v192q-181 115 -434 115q-159 2 -299.5 -52t-240 -148.5t-156.5 -227.5t-55 -283q-2 -150 55 -282.5t156.5 -227t240 -148.5t299.5 -52z" />
    <glyph glyph-name="cacute" unicode="&#x107;" horiz-adv-x="1132" 
d="M539 1182l200 383h316l-275 -383h-241zM592 1214h172l225 318h-229zM682 -47q-279 0 -447.5 158t-168.5 419q0 122 45.5 229t124 183t189.5 120t237 44q119 0 225 -36.5t170 -100.5v-234l-29 -10q-5 6 -14.5 16.5t-43.5 37t-73 47t-102.5 37t-132.5 16.5
q-148 0 -248.5 -100.5t-100.5 -248.5q0 -159 100.5 -254.5t268.5 -95.5q68 0 131 11t104 26.5t73 31.5t46 27l15 11l26 -13v-213q-67 -56 -179.5 -82t-215.5 -26zM682 -14q94 0 196 22t166 70v166q-150 -97 -362 -97q-181 0 -291 105t-110 278q0 160 110.5 270.5
t270.5 110.5q125 0 215.5 -42t146.5 -93v178q-61 55 -158.5 87t-203.5 32q-243 0 -403.5 -155t-160.5 -388q0 -248 158.5 -396t425.5 -148z" />
    <glyph glyph-name="Cdotaccent" unicode="&#x10a;" horiz-adv-x="1441" 
d="M856 1526q-58 0 -99.5 41t-41.5 100q0 60 40.5 101.5t100.5 41.5t101.5 -41.5t41.5 -101.5t-41.5 -100.5t-101.5 -40.5zM856 1559q46 0 78.5 31.5t32.5 76.5q0 47 -32 79t-79 32q-45 0 -76.5 -32.5t-31.5 -78.5t31 -77t77 -31zM860 -47q-221 -3 -402 94.5t-283 269
t-99 379.5q-2 156 57.5 295t163.5 238t251 156t312 55q160 0 277 -40t190 -91v-244l-31 -8q-4 6 -26 21t-63.5 35.5t-92 39.5t-118.5 32t-136 13q-233 0 -376.5 -139t-143.5 -363q0 -226 142.5 -362.5t377.5 -136.5q153 0 289.5 47t216.5 127v-277l-8 -14q-1 0 -20.5 -12
t-37.5 -21t-50.5 -24t-70.5 -26t-85.5 -21.5t-108 -16.5t-125.5 -6zM860 -14q290 0 473 118v197q-88 -65 -212.5 -101t-260.5 -36q-248 0 -400.5 146.5t-152.5 385.5q0 238 153 386.5t400 148.5q131 0 246.5 -41.5t187.5 -89.5v192q-181 115 -434 115q-159 2 -299.5 -52
t-240 -148.5t-156.5 -227.5t-55 -283q-2 -150 55 -282.5t156.5 -227t240 -148.5t299.5 -52z" />
    <glyph glyph-name="cdotaccent" unicode="&#x10b;" horiz-adv-x="1132" 
d="M662 1192q-59 0 -100.5 41.5t-41.5 99.5q0 60 41 102t101 42t101.5 -42t41.5 -102t-41.5 -100.5t-101.5 -40.5zM662 1225q46 0 78 31t32 77q0 47 -31.5 79t-78.5 32q-46 0 -77.5 -32.5t-31.5 -78.5t31.5 -77t77.5 -31zM682 -47q-279 0 -447.5 158t-168.5 419
q0 122 45.5 229t124 183t189.5 120t237 44q119 0 225 -36.5t170 -100.5v-234l-29 -10q-5 6 -14.5 16.5t-43.5 37t-73 47t-102.5 37t-132.5 16.5q-148 0 -248.5 -100.5t-100.5 -248.5q0 -159 100.5 -254.5t268.5 -95.5q68 0 131 11t104 26.5t73 31.5t46 27l15 11l26 -13v-213
q-67 -56 -179.5 -82t-215.5 -26zM682 -14q94 0 196 22t166 70v166q-150 -97 -362 -97q-181 0 -291 105t-110 278q0 160 110.5 270.5t270.5 110.5q125 0 215.5 -42t146.5 -93v178q-61 55 -158.5 87t-203.5 32q-243 0 -403.5 -155t-160.5 -388q0 -248 158.5 -396t425.5 -148z
" />
    <glyph glyph-name="Ccaron" unicode="&#x10c;" horiz-adv-x="1441" 
d="M733 1516l-235 382h243l117 -157l115 157h244l-236 -382h-248zM750 1548h215l194 318h-170l-131 -183l-133 183h-170zM860 -47q-221 -3 -402 94.5t-283 269t-99 379.5q-2 156 57.5 295t163.5 238t251 156t312 55q160 0 277 -40t190 -91v-244l-31 -8q-4 6 -26 21
t-63.5 35.5t-92 39.5t-118.5 32t-136 13q-233 0 -376.5 -139t-143.5 -363q0 -226 142.5 -362.5t377.5 -136.5q153 0 289.5 47t216.5 127v-277l-8 -14q-1 0 -20.5 -12t-37.5 -21t-50.5 -24t-70.5 -26t-85.5 -21.5t-108 -16.5t-125.5 -6zM860 -14q290 0 473 118v197
q-88 -65 -212.5 -101t-260.5 -36q-248 0 -400.5 146.5t-152.5 385.5q0 238 153 386.5t400 148.5q131 0 246.5 -41.5t187.5 -89.5v192q-181 115 -434 115q-159 2 -299.5 -52t-240 -148.5t-156.5 -227.5t-55 -283q-2 -150 55 -282.5t156.5 -227t240 -148.5t299.5 -52z" />
    <glyph glyph-name="ccaron" unicode="&#x10d;" horiz-adv-x="1132" 
d="M539 1182l-236 383h244l117 -158l114 158h244l-236 -383h-247zM555 1214h215l195 318h-170l-131 -182l-134 182h-170zM682 -47q-279 0 -447.5 158t-168.5 419q0 122 45.5 229t124 183t189.5 120t237 44q119 0 225 -36.5t170 -100.5v-234l-29 -10q-5 6 -14.5 16.5
t-43.5 37t-73 47t-102.5 37t-132.5 16.5q-148 0 -248.5 -100.5t-100.5 -248.5q0 -159 100.5 -254.5t268.5 -95.5q68 0 131 11t104 26.5t73 31.5t46 27l15 11l26 -13v-213q-67 -56 -179.5 -82t-215.5 -26zM682 -14q94 0 196 22t166 70v166q-150 -97 -362 -97q-181 0 -291 105
t-110 278q0 160 110.5 270.5t270.5 110.5q125 0 215.5 -42t146.5 -93v178q-61 55 -158.5 87t-203.5 32q-243 0 -403.5 -155t-160.5 -388q0 -248 158.5 -396t425.5 -148z" />
    <glyph glyph-name="Dcaron" unicode="&#x10e;" horiz-adv-x="1556" 
d="M653 1516l-235 382h244l116 -157l115 157h244l-236 -382h-248zM670 1548h215l194 318h-170l-131 -183l-133 183h-170zM168 -16v1423h520q352 0 562 -193.5t210 -517.5q0 -156 -56.5 -289t-157 -226t-244.5 -145t-314 -52h-520zM201 16h487q330 0 534.5 188t204.5 492
q0 310 -200.5 494t-538.5 184h-487v-1358zM391 195v1003h279q269 0 414 -130.5t145 -371.5q-7 -244 -150.5 -372.5t-406.5 -128.5h-281zM424 227h248q250 0 383 120t141 349q0 227 -135.5 348t-390.5 121h-246v-938z" />
    <glyph glyph-name="dcaron" unicode="&#x10f;" horiz-adv-x="1536" 
d="M635 -47q-160 0 -290.5 75.5t-204.5 207t-74 292.5q0 121 43.5 228.5t119 184t181 121t225.5 44.5q97 0 186.5 -29.5t153.5 -83.5v412l254 41v-1462h-258l2 86q-142 -117 -338 -117zM1307 1092l53 352h262l-149 -352h-166zM1343 1124h109l121 287h-184zM635 -14
q238 0 371 168l-2 -138h192v1393l-188 -33v-463q-55 73 -156 116.5t-217 43.5q-150 0 -273.5 -71.5t-193.5 -196.5t-70 -277t70 -276.5t193.5 -195t273.5 -70.5zM651 150q-154 0 -262 111t-108 269t107.5 268.5t262.5 110.5q164 0 266.5 -105t102.5 -274q0 -170 -102 -275
t-267 -105zM651 182q151 0 243.5 95.5t92.5 252.5q0 155 -92.5 251t-243.5 96q-141 0 -239.5 -101t-98.5 -246q0 -146 98.5 -247t239.5 -101z" />
    <glyph glyph-name="Dcroat" unicode="&#x110;" horiz-adv-x="1617" 
d="M229 -16v608h-245v217h245v598h521q352 0 562 -193.5t210 -517.5q0 -156 -56.5 -289t-157 -226t-244.5 -145t-314 -52h-521zM262 16h488q330 0 534.5 188t204.5 492q0 310 -200.5 494t-538.5 184h-488v-598h-246v-151h246v-609zM453 195v430h241v151h-241v422h278
q269 0 414 -130.5t145 -371.5q-7 -244 -150.5 -372.5t-406.5 -128.5h-280zM485 227h248q250 0 383 120t141 349q0 227 -135.5 348t-390.5 121h-246v-356h242v-217h-242v-365z" />
    <glyph glyph-name="dcroat" unicode="&#x111;" horiz-adv-x="1359" 
d="M1229 1300h127v-217h-127v-1099h-258l2 86q-142 -117 -338 -117q-160 0 -290.5 75.5t-204.5 207t-74 292.5q0 121 43.5 228.5t119 184t181 121t225.5 44.5q78 0 162 -23v217h178v105l254 41v-146zM1323 1116v152h-127v141l-188 -33v-108h-179v-152h179v-203
q-55 73 -156 116.5t-217 43.5q-150 0 -273.5 -71.5t-193.5 -196.5t-70 -277t70 -276.5t193.5 -195t273.5 -70.5q238 0 371 168l-2 -138h192v1100h127zM799 1083q100 -26 176 -90v90h-176zM651 909q164 0 266.5 -105t102.5 -274q0 -170 -102 -275t-267 -105q-154 0 -262 111
t-108 269t107.5 268.5t262.5 110.5zM651 182q151 0 243.5 95.5t92.5 252.5q0 155 -92.5 251t-243.5 96q-141 0 -239.5 -101t-98.5 -246q0 -146 98.5 -247t239.5 -101z" />
    <glyph glyph-name="Emacron" unicode="&#x112;" horiz-adv-x="1314" 
d="M397 1546v217h600v-217h-600zM430 1579h535v152h-535v-152zM168 -16v1423h1049v-242h-793v-303h631v-241h-631v-396h805v-241h-1061zM201 16h995v177h-805v460h631v176h-631v369h793v176h-983v-1358z" />
    <glyph glyph-name="emacron" unicode="&#x113;" horiz-adv-x="1220" 
d="M352 1212v218h600v-218h-600zM385 1245h535v152h-535v-152zM668 -47q-267 0 -434.5 161t-167.5 416q0 121 45 228t123 183.5t187 120.5t232 44q141 0 256.5 -69t180.5 -189.5t65 -267.5v-119h-844q26 -132 120.5 -205.5t240.5 -73.5q51 0 101.5 6t90.5 16t76.5 22
t63.5 23.5t46.5 21.5t30.5 16l11 6l16 -17v-198l-6 -12q-5 -5 -15 -12.5t-47.5 -27t-82.5 -34.5t-123 -27t-166 -12zM668 -14q92 0 169.5 12t125.5 31t72.5 32t39.5 25v164q-31 -20 -76 -39.5t-136.5 -40t-190.5 -20.5q-167 0 -273 91.5t-125 252.5h848v86q0 211 -134 352
t-335 141q-156 0 -283.5 -71t-199.5 -195.5t-72 -276.5q0 -242 158.5 -393t411.5 -151zM285 633q1 24 10.5 57.5t35 75.5t62 77t97.5 59t135 24q75 0 133 -24t90 -58.5t53 -78t27.5 -75t7.5 -57.5h-651zM324 666h575q-6 38 -20.5 72t-44 72t-83.5 60.5t-126 22.5
q-59 0 -108 -16t-81.5 -39.5t-56.5 -55.5t-36.5 -60t-18.5 -56z" />
    <glyph glyph-name="Edotaccent" unicode="&#x116;" horiz-adv-x="1314" 
d="M696 1526q-58 0 -99.5 41t-41.5 100q0 60 40.5 101.5t100.5 41.5t102 -41.5t42 -101.5t-42 -100.5t-102 -40.5zM696 1559q46 0 78.5 31.5t32.5 76.5q0 47 -32 79t-79 32q-45 0 -76.5 -32.5t-31.5 -78.5t31 -77t77 -31zM168 -16v1423h1049v-242h-793v-303h631v-241h-631
v-396h805v-241h-1061zM201 16h995v177h-805v460h631v176h-631v369h793v176h-983v-1358z" />
    <glyph glyph-name="edotaccent" unicode="&#x117;" horiz-adv-x="1220" 
d="M651 1192q-59 0 -100 41t-41 100q0 60 40.5 102t100.5 42t102 -42t42 -102t-42 -100.5t-102 -40.5zM651 1225q46 0 78.5 31.5t32.5 76.5q0 47 -32 79t-79 32q-45 0 -76.5 -32.5t-31.5 -78.5t31 -77t77 -31zM668 -47q-267 0 -434.5 161t-167.5 416q0 121 45 228t123 183.5
t187 120.5t232 44q141 0 256.5 -69t180.5 -189.5t65 -267.5v-119h-844q26 -132 120.5 -205.5t240.5 -73.5q51 0 101.5 6t90.5 16t76.5 22t63.5 23.5t46.5 21.5t30.5 16l11 6l16 -17v-198l-6 -12q-5 -5 -15 -12.5t-47.5 -27t-82.5 -34.5t-123 -27t-166 -12zM668 -14
q92 0 169.5 12t125.5 31t72.5 32t39.5 25v164q-31 -20 -76 -39.5t-136.5 -40t-190.5 -20.5q-167 0 -273 91.5t-125 252.5h848v86q0 211 -134 352t-335 141q-156 0 -283.5 -71t-199.5 -195.5t-72 -276.5q0 -242 158.5 -393t411.5 -151zM285 633q1 24 10.5 57.5t35 75.5t62 77
t97.5 59t135 24q75 0 133 -24t90 -58.5t53 -78t27.5 -75t7.5 -57.5h-651zM324 666h575q-6 38 -20.5 72t-44 72t-83.5 60.5t-126 22.5q-59 0 -108 -16t-81.5 -39.5t-56.5 -55.5t-36.5 -60t-18.5 -56z" />
    <glyph glyph-name="Eogonek" unicode="&#x118;" horiz-adv-x="1314" 
d="M1255 -477q-32 -2 -72 3.5t-87 23.5t-85.5 45.5t-64.5 75t-26 106.5q0 108 94 207h-846v1423h1049v-242h-793v-303h631v-241h-631v-396h805v-225l-4 -10q-10 -13 -25.5 -33.5t-41 -69.5t-25.5 -80q0 -43 25.5 -58t96.5 -13v-213zM1223 -444v147q-65 3 -94 27.5t-29 76.5
q0 76 96 199v187h-805v460h631v176h-631v369h793v176h-983v-1358h856l10 -28q-5 -4 -12.5 -10.5t-27.5 -28t-35 -44.5t-27.5 -58t-12.5 -70q0 -46 18.5 -84t47 -62t66 -41t72 -24.5t67.5 -9.5z" />
    <glyph glyph-name="eogonek" unicode="&#x119;" horiz-adv-x="1220" 
d="M1135 -401q-32 -2 -72 3.5t-87.5 23.5t-86 45.5t-64.5 75t-26 106.5q0 57 26 110q-85 -10 -157 -10q-267 0 -434.5 161t-167.5 416q0 121 45 228t123 183.5t187 120.5t232 44q141 0 256.5 -69t180.5 -189.5t65 -267.5v-119h-844q26 -132 120.5 -205.5t240.5 -73.5
q51 0 101.5 6t90.5 16t76.5 22t63.5 23.5t46.5 21.5t30.5 16l11 6l16 -17v-184h-16l12 -26q-10 -13 -25.5 -33.5t-41 -69.5t-25.5 -80q0 -43 26 -58t97 -13v-213zM1102 -369v148q-65 3 -94 27.5t-29 76.5q0 63 80 176h-8l24 25v166q-31 -20 -76 -39.5t-136.5 -40
t-190.5 -20.5q-167 0 -273 91.5t-125 252.5h848v86q0 211 -134 352t-335 141q-156 0 -283.5 -71t-199.5 -195.5t-72 -276.5q0 -242 158.5 -393t411.5 -151q114 0 225 20q-62 -72 -62 -153q0 -57 27.5 -101.5t70.5 -68.5t86.5 -36.5t86.5 -15.5zM285 633q1 24 10.5 57.5
t35 75.5t62 77t97.5 59t135 24q75 0 133 -24t90 -58.5t53 -78t27.5 -75t7.5 -57.5h-651zM324 666h575q-6 38 -20.5 72t-44 72t-83.5 60.5t-126 22.5q-59 0 -108 -16t-81.5 -39.5t-56.5 -55.5t-36.5 -60t-18.5 -56z" />
    <glyph glyph-name="Ecaron" unicode="&#x11a;" horiz-adv-x="1314" 
d="M573 1516l-235 382h244l116 -157l115 157h244l-236 -382h-248zM590 1548h215l194 318h-170l-131 -183l-133 183h-170zM168 -16v1423h1049v-242h-793v-303h631v-241h-631v-396h805v-241h-1061zM201 16h995v177h-805v460h631v176h-631v369h793v176h-983v-1358z" />
    <glyph glyph-name="ecaron" unicode="&#x11b;" horiz-adv-x="1220" 
d="M528 1182l-235 383h244l116 -158l115 158h244l-236 -383h-248zM545 1214h215l194 318h-170l-131 -182l-133 182h-170zM668 -47q-267 0 -434.5 161t-167.5 416q0 121 45 228t123 183.5t187 120.5t232 44q141 0 256.5 -69t180.5 -189.5t65 -267.5v-119h-844
q26 -132 120.5 -205.5t240.5 -73.5q51 0 101.5 6t90.5 16t76.5 22t63.5 23.5t46.5 21.5t30.5 16l11 6l16 -17v-198l-6 -12q-5 -5 -15 -12.5t-47.5 -27t-82.5 -34.5t-123 -27t-166 -12zM668 -14q92 0 169.5 12t125.5 31t72.5 32t39.5 25v164q-31 -20 -76 -39.5t-136.5 -40
t-190.5 -20.5q-167 0 -273 91.5t-125 252.5h848v86q0 211 -134 352t-335 141q-156 0 -283.5 -71t-199.5 -195.5t-72 -276.5q0 -242 158.5 -393t411.5 -151zM285 633q1 24 10.5 57.5t35 75.5t62 77t97.5 59t135 24q75 0 133 -24t90 -58.5t53 -78t27.5 -75t7.5 -57.5h-651z
M324 666h575q-6 38 -20.5 72t-44 72t-83.5 60.5t-126 22.5q-59 0 -108 -16t-81.5 -39.5t-56.5 -55.5t-36.5 -60t-18.5 -56z" />
    <glyph glyph-name="Gbreve" unicode="&#x11e;" horiz-adv-x="1589" 
d="M793 1516q-92 0 -163 36t-110 94t-57.5 122.5t-16.5 129.5h240q-2 -22 3 -49t16 -55t34 -46.5t54 -18.5q40 0 67.5 32.5t35.5 70t5 66.5h240q2 -51 -8.5 -103t-37.5 -102.5t-66 -89.5t-100.5 -63t-135.5 -24zM793 1548q64 0 117 19t88 50t60 72.5t36.5 85.5t13.5 91h-174
q-3 -38 -17 -74t-46.5 -66t-77.5 -30t-77 30t-46 66t-17 74h-174q2 -59 21 -113.5t55 -101.5t97.5 -75t140.5 -28zM834 -47q-211 0 -383.5 98t-270 268.5t-94.5 376.5q-2 156 57.5 295t163.5 238t251 156t312 55q178 0 308 -45q144 -50 198 -88v-285q-42 54 -202 123
q-127 53 -304 53q-233 0 -376.5 -139t-143.5 -363q0 -215 138.5 -358t345.5 -143q200 0 360 116v277h-416v241h672v-845h-256v59q-161 -90 -360 -90zM834 -14q109 0 212 30.5t181 85.5v-86h190v781h-606v-176h416v-326q-72 -55 -174 -94t-219 -39q-221 0 -369 152.5
t-148 381.5q0 238 153 386.5t400 148.5q190 0 316 -57q97 -39 157 -80v196q-59 32 -178 72q-116 45 -295 45q-159 2 -299.5 -52t-240 -148.5t-156.5 -227.5t-55 -283q-2 -147 52 -278.5t149 -226.5t229 -150t285 -55z" />
    <glyph glyph-name="gbreve" unicode="&#x11f;" horiz-adv-x="1320" 
d="M655 1182q-74 0 -135 24t-100 63.5t-65.5 90t-37 102.5t-8.5 103h240q-2 -31 5.5 -68t34 -69.5t66.5 -32.5q31 0 54.5 19t35.5 47t16.5 55.5t2.5 48.5h240q2 -51 -9 -103t-37.5 -102.5t-66 -90t-101 -63.5t-135.5 -24zM516 1532h-174q2 -59 21 -113.5t54.5 -101.5t97 -75
t140.5 -28t141 28t98 75t55.5 101.5t21.5 113.5h-174q-3 -38 -17.5 -74t-47 -66t-77.5 -30t-77 30t-45.5 66t-16.5 74zM975 1075h254l-4 -964q0 -280 -163 -434t-458 -154q-88 0 -165 11.5t-124.5 28t-82 33t-48.5 28.5l-14 11l-6 13v198l26 15q6 -4 18 -11.5t52 -26.5
t83.5 -33t112.5 -26t140 -12q366 0 375 316q-137 -115 -336 -115q-160 0 -290.5 75.5t-204.5 207t-74 292.5q0 121 43.5 228.5t119 184t181 121t225.5 44.5q97 0 186.5 -29.5t153.5 -83.5v82zM1192 111l4 931h-188v-129q-55 73 -156 116.5t-217 43.5q-150 0 -273.5 -71.5
t-193.5 -196.5t-70 -277t70 -276.5t193.5 -195t273.5 -70.5q213 0 340 133l29 -13v-24q0 -180 -103.5 -271.5t-304.5 -91.5q-134 0 -236 31.5t-163 67.5v-162q15 -12 39.5 -25t72.5 -32t125.5 -31t169.5 -12q282 0 435 144.5t153 410.5zM651 909q164 0 266.5 -105
t102.5 -274q0 -170 -102 -275t-267 -105q-154 0 -259 110t-105 270t105 269.5t259 109.5zM651 182q151 0 243.5 95.5t92.5 252.5q0 155 -92.5 251t-243.5 96q-140 0 -236 -100.5t-96 -246.5t96 -247t236 -101z" />
    <glyph glyph-name="Gdotaccent" unicode="&#x120;" horiz-adv-x="1589" 
d="M793 1526q-59 0 -100.5 41.5t-41.5 99.5q0 60 41 101.5t101 41.5t101.5 -41.5t41.5 -101.5t-41.5 -100.5t-101.5 -40.5zM793 1559q46 0 78 31t32 77q0 47 -31.5 79t-78.5 32q-46 0 -77.5 -32.5t-31.5 -78.5t31.5 -77t77.5 -31zM834 -47q-211 0 -383.5 98t-270 268.5
t-94.5 376.5q-2 156 57.5 295t163.5 238t251 156t312 55q178 0 308 -45q144 -50 198 -88v-285q-42 54 -202 123q-127 53 -304 53q-233 0 -376.5 -139t-143.5 -363q0 -215 138.5 -358t345.5 -143q200 0 360 116v277h-416v241h672v-845h-256v59q-161 -90 -360 -90zM834 -14
q109 0 212 30.5t181 85.5v-86h190v781h-606v-176h416v-326q-72 -55 -174 -94t-219 -39q-221 0 -369 152.5t-148 381.5q0 238 153 386.5t400 148.5q190 0 316 -57q97 -39 157 -80v196q-59 32 -178 72q-116 45 -295 45q-159 2 -299.5 -52t-240 -148.5t-156.5 -227.5t-55 -283
q-2 -147 52 -278.5t149 -226.5t229 -150t285 -55z" />
    <glyph glyph-name="gdotaccent" unicode="&#x121;" horiz-adv-x="1320" 
d="M655 1192q-59 0 -100 41t-41 100q0 60 40.5 102t100.5 42t102 -42t42 -102t-42 -100.5t-102 -40.5zM655 1444q-45 0 -76.5 -32.5t-31.5 -78.5t31 -77t77 -31t78.5 31.5t32.5 76.5q0 47 -32 79t-79 32zM975 1075h254l-4 -964q0 -280 -163 -434t-458 -154q-88 0 -165 11.5
t-124.5 28t-82 33t-48.5 28.5l-14 11l-6 13v198l26 15q6 -4 18 -11.5t52 -26.5t83.5 -33t112.5 -26t140 -12q366 0 375 316q-137 -115 -336 -115q-160 0 -290.5 75.5t-204.5 207t-74 292.5q0 121 43.5 228.5t119 184t181 121t225.5 44.5q97 0 186.5 -29.5t153.5 -83.5v82z
M1192 111l4 931h-188v-129q-55 73 -156 116.5t-217 43.5q-150 0 -273.5 -71.5t-193.5 -196.5t-70 -277t70 -276.5t193.5 -195t273.5 -70.5q213 0 340 133l29 -13v-24q0 -180 -103.5 -271.5t-304.5 -91.5q-134 0 -236 31.5t-163 67.5v-162q15 -12 39.5 -25t72.5 -32
t125.5 -31t169.5 -12q282 0 435 144.5t153 410.5zM651 909q164 0 266.5 -105t102.5 -274q0 -170 -102 -275t-267 -105q-154 0 -259 110t-105 270t105 269.5t259 109.5zM651 182q151 0 243.5 95.5t92.5 252.5q0 155 -92.5 251t-243.5 96q-140 0 -236 -100.5t-96 -246.5
t96 -247t236 -101z" />
    <glyph glyph-name="uni0122" unicode="&#x122;" horiz-adv-x="1589" 
d="M834 -47q-211 0 -383.5 98t-270 268.5t-94.5 376.5q-2 156 57.5 295t163.5 238t251 156t312 55q178 0 308 -45q144 -50 198 -88v-285q-42 54 -202 123q-127 53 -304 53q-233 0 -376.5 -139t-143.5 -363q0 -215 138.5 -358t345.5 -143q200 0 360 116v277h-416v241h672
v-845h-256v59q-161 -90 -360 -90zM834 -14q109 0 212 30.5t181 85.5v-86h190v781h-606v-176h416v-326q-72 -55 -174 -94t-219 -39q-221 0 -369 152.5t-148 381.5q0 238 153 386.5t400 148.5q190 0 316 -57q97 -39 157 -80v196q-59 32 -178 72q-116 45 -295 45
q-159 2 -299.5 -52t-240 -148.5t-156.5 -227.5t-55 -283q-2 -147 52 -278.5t149 -226.5t229 -150t285 -55zM528 -465l201 383h275l-275 -383h-201zM582 -432h131l225 317h-188z" />
    <glyph glyph-name="uni0123" unicode="&#x123;" horiz-adv-x="1320" 
d="M1006 1565l-201 -383h-316l275 383h242zM555 1214h229l168 318h-172zM975 1075h254l-4 -964q0 -280 -163 -434t-458 -154q-88 0 -165 11.5t-124.5 28t-82 33t-48.5 28.5l-14 11l-6 13v198l26 15q6 -4 18 -11.5t52 -26.5t83.5 -33t112.5 -26t140 -12q366 0 375 316
q-137 -115 -336 -115q-160 0 -290.5 75.5t-204.5 207t-74 292.5q0 121 43.5 228.5t119 184t181 121t225.5 44.5q97 0 186.5 -29.5t153.5 -83.5v82zM1192 111l4 931h-188v-129q-55 73 -156 116.5t-217 43.5q-150 0 -273.5 -71.5t-193.5 -196.5t-70 -277t70 -276.5t193.5 -195
t273.5 -70.5q213 0 340 133l29 -13v-24q0 -180 -103.5 -271.5t-304.5 -91.5q-134 0 -236 31.5t-163 67.5v-162q15 -12 39.5 -25t72.5 -32t125.5 -31t169.5 -12q282 0 435 144.5t153 410.5zM651 909q164 0 266.5 -105t102.5 -274q0 -170 -102 -275t-267 -105q-154 0 -259 110
t-105 270t105 269.5t259 109.5zM651 182q151 0 243.5 95.5t92.5 252.5q0 155 -92.5 251t-243.5 96q-140 0 -236 -100.5t-96 -246.5t96 -247t236 -101z" />
    <glyph glyph-name="Hbar" unicode="&#x126;" horiz-adv-x="1538" 
d="M168 -16v1032h-113v217h113v174h256v-174h690v174h256v-174h113v-217h-113v-1032h-256v637h-690v-637h-256zM201 16h190v637h756v-637h190v1033h113v151h-113v174h-190v-174h-756v174h-190v-174h-113v-151h113v-1033zM391 829v220h756v-220h-756zM424 862h690v154h-690
v-154z" />
    <glyph glyph-name="hbar" unicode="&#x127;" horiz-adv-x="1249" 
d="M680 1108q201 0 321.5 -124t120.5 -333v-667h-254v645q0 118 -58.5 184t-162.5 66q-125 0 -202.5 -78t-77.5 -205v-612h-254v1099h-129v217h129v105l254 41v-146h176v-210q59 18 137 18zM1090 16v635q0 195 -111 309.5t-299 114.5q-69 0 -127 -16t-91.5 -38.5
t-56.5 -44.5t-31 -38l-9 -16l-31 6v188h176v152h-176v141l-189 -33v-108h-129v-152h129v-1100h189v580q0 139 87.5 227t225.5 88q119 0 186.5 -75t67.5 -207v-613h189zM520 1083h-153v-102q56 68 153 102z" />
    <glyph glyph-name="Imacron" unicode="&#x12a;" horiz-adv-x="591" 
d="M-4 1546v217h600v-217h-600zM29 1579h534v152h-534v-152zM168 -16v1423h256v-1423h-256zM201 16h190v1358h-190v-1358z" />
    <glyph glyph-name="imacron" unicode="&#x12b;" horiz-adv-x="561" 
d="M-12 1212v218h600v-218h-600zM20 1245h535v152h-535v-152zM160 -16v1091h254v-1091h-254zM193 16h188v1026h-188v-1026z" />
    <glyph glyph-name="Iogonek" unicode="&#x12e;" horiz-adv-x="591" 
d="M438 -459q-32 -2 -72 3.5t-87.5 23.5t-86 45.5t-64.5 75t-26 106.5q0 98 78 189h-12v1423h256v-1423h-35q-74 -107 -74 -158q0 -43 26.5 -58t96.5 -14v-213zM406 -426v147q-65 3 -94 28t-29 77q0 71 90 190h18v1358h-190v-1358h18l10 -28q-94 -94 -94 -193
q0 -46 18.5 -84t47 -62t66 -41t72 -24.5t67.5 -9.5z" />
    <glyph glyph-name="iogonek" unicode="&#x12f;" horiz-adv-x="579" 
d="M289 1194q-59 0 -100.5 41.5t-41.5 99.5q0 60 41 102t101 42t101.5 -42t41.5 -102t-41.5 -100.5t-101.5 -40.5zM289 1227q46 0 78 31t32 77q0 47 -31.5 79t-78.5 32q-46 0 -77.5 -32.5t-31.5 -78.5t31.5 -77t77.5 -31zM453 -477q-32 -2 -72 3.5t-87.5 23.5t-86 45.5
t-64.5 75t-26 106.5q0 108 94 207h-39v1093h254v-1077l-4 -10q-10 -13 -25.5 -33.5t-41 -69.5t-25.5 -80q0 -43 26 -58t97 -13v-213zM420 -444v147q-65 3 -94 27.5t-29 76.5q0 76 96 199v1038h-188v-1028h49l10 -28q-5 -4 -12.5 -10.5t-27 -28t-34.5 -44.5t-27.5 -58
t-12.5 -70q0 -46 18.5 -84t47 -62t65.5 -41t71.5 -24.5t67.5 -9.5z" />
    <glyph glyph-name="Idotaccent" unicode="&#x130;" horiz-adv-x="591" 
d="M295 1526q-59 0 -100 41t-41 100q0 60 40.5 101.5t100.5 41.5t101.5 -41.5t41.5 -101.5t-41.5 -100.5t-101.5 -40.5zM295 1559q46 0 78.5 31.5t32.5 76.5q0 47 -32 79t-79 32q-46 0 -77.5 -32.5t-31.5 -78.5t31.5 -77t77.5 -31zM168 -16v1423h256v-1423h-256zM201 16h190
v1358h-190v-1358z" />
    <glyph glyph-name="dotlessi" unicode="&#x131;" horiz-adv-x="561" 
d="M160 -16v1091h254v-1091h-254zM193 16h188v1026h-188v-1026z" />
    <glyph glyph-name="uni0136" unicode="&#x136;" horiz-adv-x="1404" 
d="M168 -16v1423h254v-610l649 610h340l-635 -582l625 -841h-320l-491 665l-168 -157v-508h-254zM201 16h188v488l205 194l504 -682h237l-604 813l594 545h-242l-694 -655v655h-188v-1358zM383 -446l201 383h274l-274 -383h-201zM436 -414h131l226 318h-189z" />
    <glyph glyph-name="uni0137" unicode="&#x137;" horiz-adv-x="1179" 
d="M147 -16v1421l254 41v-725l424 354h338l-493 -413l565 -678h-328l-426 522l-80 -70v-452h-254zM180 16h189v437l116 98l439 -535h241l-540 650l448 376h-235l-469 -391v758l-189 -33v-1360zM334 -446l201 383h274l-274 -383h-201zM387 -414h131l225 318h-188z" />
    <glyph glyph-name="Lacute" unicode="&#x139;" horiz-adv-x="1327" 
d="M158 1516l200 382h316l-275 -382h-241zM211 1548h172l225 318h-229zM168 -16v1423h254v-1182h844v-241h-1098zM201 16h1032v177h-844v1181h-188v-1358z" />
    <glyph glyph-name="lacute" unicode="&#x13a;" horiz-adv-x="548" 
d="M139 1516l201 382h315l-274 -382h-242zM193 1548h172l225 318h-230zM147 -16v1421l254 41v-1462h-254zM180 16h189v1393l-189 -33v-1360z" />
    <glyph glyph-name="uni013B" unicode="&#x13b;" horiz-adv-x="1327" 
d="M168 -16v1423h254v-1182h844v-241h-1098zM201 16h1032v177h-844v1181h-188v-1358zM354 -446l201 383h274l-274 -383h-201zM408 -414h131l225 318h-189z" />
    <glyph glyph-name="uni013C" unicode="&#x13c;" horiz-adv-x="548" 
d="M147 -16v1421l254 41v-1462h-254zM180 16h189v1393l-189 -33v-1360zM-51 -446l201 383h274l-274 -383h-201zM2 -414h131l225 318h-188z" />
    <glyph glyph-name="Lcaron" unicode="&#x13d;" horiz-adv-x="1327" 
d="M168 -16v1423h254v-1182h844v-241h-1098zM674 1055l53 352h262l-149 -352h-166zM201 16h1032v177h-844v1181h-188v-1358zM711 1087h108l121 287h-184z" />
    <glyph glyph-name="lcaron" unicode="&#x13e;" horiz-adv-x="710" 
d="M147 -16v1421l254 41v-1462h-254zM481 1092l54 352h262l-150 -352h-166zM518 1124h109l121 287h-185zM180 16h189v1393l-189 -33v-1360z" />
    <glyph glyph-name="Ldot" unicode="&#x13f;" horiz-adv-x="1327" 
d="M168 -16v1423h254v-1182h844v-241h-1098zM201 16h1032v177h-844v1181h-188v-1358zM823 528q-76 0 -128 52t-52 129q0 75 52.5 127.5t127.5 52.5q74 0 127.5 -53.5t53.5 -126.5q0 -75 -53 -128t-128 -53zM823 561q63 0 105.5 42.5t42.5 105.5q0 61 -43 104t-105 43
q-63 0 -105 -42t-42 -105q0 -65 41.5 -106.5t105.5 -41.5z" />
    <glyph glyph-name="ldot" unicode="&#x140;" horiz-adv-x="829" 
d="M147 -16v1421l254 41v-1462h-254zM180 16h189v1393l-189 -33v-1360zM625 528q-77 0 -129 52t-52 129q0 75 53 127.5t128 52.5q73 0 126.5 -53.5t53.5 -126.5q0 -75 -52.5 -128t-127.5 -53zM625 561q63 0 105 42.5t42 105.5q0 61 -43 104t-104 43q-63 0 -105.5 -42
t-42.5 -105q0 -65 41.5 -106.5t106.5 -41.5z" />
    <glyph glyph-name="Lslash" unicode="&#x141;" horiz-adv-x="1327" 
d="M168 -16v651h-244v217h244v555h254v-555h246v-217h-246v-410h844v-241h-1098zM201 16h1032v177h-844v475h246v151h-246v555h-188v-555h-244v-151h244v-652z" />
    <glyph glyph-name="lslash" unicode="&#x142;" horiz-adv-x="548" 
d="M147 -16v516l-77 -74l-140 166l217 207v606l254 41v-402l62 60l139 -166l-201 -193v-761h-254zM180 16h189v742l188 184l-98 113l-90 -88v442l-189 -33v-590l-205 -198l99 -113l106 103v-562z" />
    <glyph glyph-name="Nacute" unicode="&#x143;" horiz-adv-x="1579" 
d="M666 1516l200 382h316l-275 -382h-241zM719 1548h172l225 318h-229zM168 -16v1423h281l708 -1018v1018h254v-1423h-272l-717 1034v-1034h-254zM201 16h188v1108l766 -1108h223v1358h-188v-1087l-758 1087h-231v-1358z" />
    <glyph glyph-name="nacute" unicode="&#x144;" horiz-adv-x="1296" 
d="M590 1182l201 383h315l-275 -383h-241zM643 1214h172l225 318h-229zM160 -16v1091h254v-94q107 127 313 127q201 0 321.5 -124t120.5 -333v-667h-254v645q0 118 -58.5 184t-162.5 66q-125 0 -202.5 -78t-77.5 -205v-612h-254zM193 16h188v580q0 139 87.5 227t225.5 88
q119 0 186.5 -75t67.5 -207v-613h189v635q0 195 -111 309.5t-299 114.5q-69 0 -127 -16t-91.5 -38.5t-56.5 -44.5t-32 -38l-8 -16l-31 6v114h-188v-1026z" />
    <glyph glyph-name="uni0145" unicode="&#x145;" horiz-adv-x="1579" 
d="M168 -16v1423h281l708 -1018v1018h254v-1423h-272l-717 1034v-1034h-254zM201 16h188v1108l766 -1108h223v1358h-188v-1087l-758 1087h-231v-1358zM481 -446l201 383h274l-274 -383h-201zM535 -414h131l225 318h-189z" />
    <glyph glyph-name="uni0146" unicode="&#x146;" horiz-adv-x="1296" 
d="M160 -16v1091h254v-94q107 127 313 127q201 0 321.5 -124t120.5 -333v-667h-254v645q0 118 -58.5 184t-162.5 66q-125 0 -202.5 -78t-77.5 -205v-612h-254zM193 16h188v580q0 139 87.5 227t225.5 88q119 0 186.5 -75t67.5 -207v-613h189v635q0 195 -111 309.5t-299 114.5
q-69 0 -127 -16t-91.5 -38.5t-56.5 -44.5t-32 -38l-8 -16l-31 6v114h-188v-1026zM334 -446l201 383h274l-274 -383h-201zM387 -414h131l225 318h-188z" />
    <glyph glyph-name="Ncaron" unicode="&#x147;" horiz-adv-x="1579" 
d="M666 1516l-236 382h244l117 -157l114 157h244l-236 -382h-247zM682 1548h215l195 318h-170l-131 -183l-134 183h-170zM168 -16v1423h281l708 -1018v1018h254v-1423h-272l-717 1034v-1034h-254zM201 16h188v1108l766 -1108h223v1358h-188v-1087l-758 1087h-231v-1358z" />
    <glyph glyph-name="ncaron" unicode="&#x148;" horiz-adv-x="1296" 
d="M590 1182l-236 383h244l117 -158l114 158h244l-235 -383h-248zM606 1214h215l195 318h-170l-131 -182l-133 182h-170zM160 -16v1091h254v-94q107 127 313 127q201 0 321.5 -124t120.5 -333v-667h-254v645q0 118 -58.5 184t-162.5 66q-125 0 -202.5 -78t-77.5 -205v-612
h-254zM193 16h188v580q0 139 87.5 227t225.5 88q119 0 186.5 -75t67.5 -207v-613h189v635q0 195 -111 309.5t-299 114.5q-69 0 -127 -16t-91.5 -38.5t-56.5 -44.5t-32 -38l-8 -16l-31 6v114h-188v-1026z" />
    <glyph glyph-name="Eng" unicode="&#x14a;" horiz-adv-x="1579" 
d="M1067 -475q-66 0 -122.5 14t-90 34t-57.5 40.5t-33 34.5l-10 14l-2 8v230l30 8q4 -6 11.5 -16.5t33 -37t53 -47t70 -37t86.5 -16.5q59 0 90 42.5t31 121.5v66h-18l-717 1034v-1034h-254v1423h281l708 -1018v1018h254v-1470q0 -54 -8 -105t-31 -108.5t-59.5 -100
t-100 -70.5t-145.5 -28zM1067 -442q75 0 132.5 25t90.5 63t53.5 91t27.5 100.5t7 99.5v1437h-188v-1087l-758 1087h-231v-1358h188v1108l766 -1108h35v-98q0 -93 -40.5 -145t-113.5 -52q-79 0 -144 40.5t-108 91.5v-179q9 -13 24.5 -27.5t48.5 -37t88 -37t122 -14.5z" />
    <glyph glyph-name="eng" unicode="&#x14b;" horiz-adv-x="1296" 
d="M825 -475q-66 0 -122.5 14t-90 34t-57.5 40.5t-33 34.5l-10 14l-2 8v230l31 8q4 -6 11.5 -16.5t33 -37t53 -47t70 -37t86.5 -16.5q58 0 89 42t31 122v711q0 118 -58.5 184t-162.5 66q-125 0 -202.5 -78t-77.5 -205v-612h-254v1091h254v-94q107 127 313 127
q201 0 321.5 -124t120.5 -333v-714q0 -54 -8 -105t-31 -108.5t-59.5 -100t-100 -70.5t-145.5 -28zM825 -442q75 0 132.5 25t90.5 63t54 90.5t28 100.5t7 100v714q0 195 -111 309.5t-299 114.5q-69 0 -127 -16t-91.5 -38.5t-56.5 -44.5t-32 -38l-8 -16l-31 6v114h-188v-1026
h188v580q0 139 87.5 227t225.5 88q119 0 186.5 -75t67.5 -207v-711q0 -93 -40 -145t-113 -52q-79 0 -144 40.5t-108 91.5v-179q9 -13 24.5 -27.5t48 -37t87.5 -37t122 -14.5z" />
    <glyph glyph-name="Omacron" unicode="&#x14c;" horiz-adv-x="1644" 
d="M522 1546v217h600v-217h-600zM555 1579h535v152h-535v-152zM821 -47q-155 -2 -294 55.5t-238.5 156.5t-157 238t-55.5 293q-2 154 55.5 293t157 238.5t238.5 157t294 55.5q155 2 295 -55.5t240 -157t157.5 -238.5t55.5 -293q2 -154 -55.5 -293t-157.5 -238t-240 -156.5
t-295 -55.5zM821 -14q148 -2 282 53t229.5 150t150.5 227.5t53 279.5q2 147 -53 280t-150.5 228t-229.5 150t-282 53q-148 2 -281.5 -52.5t-228.5 -149.5t-149.5 -228t-52.5 -281q-3 -197 90.5 -361.5t258.5 -258t363 -90.5zM821 164q-227 0 -371.5 149.5t-144.5 382.5
t145 384t371 151q227 0 371.5 -150t144.5 -385t-144 -383.5t-372 -148.5zM821 197q215 0 349.5 138t134.5 361q0 221 -135 361.5t-349 140.5q-212 0 -347.5 -141t-135.5 -361q0 -221 134.5 -360t348.5 -139z" />
    <glyph glyph-name="omacron" unicode="&#x14d;" horiz-adv-x="1323" 
d="M360 1212v218h601v-218h-601zM393 1245h535v152h-535v-152zM662 -47q-122 0 -232 45.5t-190 122t-127 183t-47 224.5q0 157 79.5 290t217 210.5t299.5 77.5t299 -77.5t216.5 -210.5t79.5 -290t-79.5 -289.5t-216.5 -209t-299 -76.5zM662 -14q153 0 282.5 72t205 197
t75.5 273t-75.5 273.5t-205 198.5t-282.5 73t-283 -73t-205.5 -198.5t-75.5 -273.5q0 -111 44.5 -211.5t120.5 -173t180 -115t219 -42.5zM662 152q-161 0 -272 109t-111 267q0 160 111 269.5t272 109.5t271.5 -109.5t110.5 -269.5q0 -158 -110.5 -267t-271.5 -109zM662 184
q148 0 249 99.5t101 244.5q0 146 -101 246t-249 100t-249.5 -100t-101.5 -246q0 -145 101.5 -244.5t249.5 -99.5z" />
    <glyph glyph-name="Ohungarumlaut" unicode="&#x150;" horiz-adv-x="1644" 
d="M516 1516l201 382h315l-274 -382h-242zM883 1516l223 382h315l-295 -382h-243zM569 1548h172l226 318h-230zM940 1548h170l246 318h-230zM821 -47q-155 -2 -294 55.5t-238.5 156.5t-157 238t-55.5 293q-2 154 55.5 293t157 238.5t238.5 157t294 55.5q155 2 295 -55.5
t240 -157t157.5 -238.5t55.5 -293q2 -154 -55.5 -293t-157.5 -238t-240 -156.5t-295 -55.5zM821 -14q148 -2 282 53t229.5 150t150.5 227.5t53 279.5q2 147 -53 280t-150.5 228t-229.5 150t-282 53q-148 2 -281.5 -52.5t-228.5 -149.5t-149.5 -228t-52.5 -281
q-3 -197 90.5 -361.5t258.5 -258t363 -90.5zM821 164q-227 0 -371.5 149.5t-144.5 382.5t145 384t371 151q227 0 371.5 -150t144.5 -385t-144 -383.5t-372 -148.5zM821 197q215 0 349.5 138t134.5 361q0 221 -135 361.5t-349 140.5q-212 0 -347.5 -141t-135.5 -361
q0 -221 134.5 -360t348.5 -139z" />
    <glyph glyph-name="ohungarumlaut" unicode="&#x151;" horiz-adv-x="1323" 
d="M354 1182l201 383h315l-274 -383h-242zM721 1182l223 383h316l-295 -383h-244zM408 1214h172l225 318h-230zM778 1214h170l246 318h-229zM662 -47q-122 0 -232 45.5t-190 122t-127 183t-47 224.5q0 157 79.5 290t217 210.5t299.5 77.5t299 -77.5t216.5 -210.5t79.5 -290
t-79.5 -289.5t-216.5 -209t-299 -76.5zM662 -14q153 0 282.5 72t205 197t75.5 273t-75.5 273.5t-205 198.5t-282.5 73t-283 -73t-205.5 -198.5t-75.5 -273.5q0 -111 44.5 -211.5t120.5 -173t180 -115t219 -42.5zM662 152q-161 0 -272 109t-111 267q0 160 111 269.5
t272 109.5t271.5 -109.5t110.5 -269.5q0 -158 -110.5 -267t-271.5 -109zM662 184q148 0 249 99.5t101 244.5q0 146 -101 246t-249 100t-249.5 -100t-101.5 -246q0 -145 101.5 -244.5t249.5 -99.5z" />
    <glyph glyph-name="OE" unicode="&#x152;" horiz-adv-x="2451" 
d="M821 -47q-155 -2 -294 55.5t-238.5 156.5t-157 238t-55.5 293q-2 154 55.5 293t157 238.5t238.5 157t294 55.5q276 3 484 -168v135h1048v-242h-792v-303h630v-241h-630v-396h804v-241h-1060v137q-208 -171 -484 -168zM821 -14q149 -1 282 52.5t234 156.5v-179h996v177
h-805v460h631v176h-631v369h792v176h-983v-176q-101 103 -234 156.5t-282 52.5q-148 2 -281.5 -52.5t-228.5 -149.5t-149.5 -228t-52.5 -281q-3 -197 90.5 -361.5t258.5 -258t363 -90.5zM821 164q-227 0 -371.5 149.5t-144.5 382.5t145 384t371 151q227 0 371.5 -150
t144.5 -385t-144 -383.5t-372 -148.5zM821 197q215 0 349.5 138t134.5 361q0 221 -135 361.5t-349 140.5q-212 0 -347.5 -141t-135.5 -361q0 -221 134.5 -360t348.5 -139z" />
    <glyph glyph-name="oe" unicode="&#x153;" horiz-adv-x="2166" 
d="M662 -47q-122 0 -232 45.5t-190 122t-127 183t-47 224.5q0 157 79.5 290t217 210.5t299.5 77.5q136 0 259.5 -58.5t208.5 -162.5q82 105 204.5 163t264.5 58q141 0 256.5 -69t180.5 -189.5t65 -267.5v-119h-844q26 -132 120.5 -205.5t240.5 -73.5q51 0 101.5 6t90.5 16
t76.5 22t63.5 23.5t46.5 21.5t30.5 16l11 6l16 -17v-198l-6 -12q-5 -5 -15 -12.5t-47.5 -27t-82.5 -34.5t-123 -27t-166 -12q-153 0 -278.5 56t-207.5 161q-85 -103 -207.5 -160t-258.5 -57zM662 -14q141 0 264.5 63.5t201.5 175.5q75 -115 201 -177t285 -62q92 0 169.5 12
t125.5 31t72.5 32t39.5 25v164q-31 -20 -76 -39.5t-136.5 -40t-190.5 -20.5q-167 0 -272.5 91.5t-124.5 252.5h847v86q0 211 -134 352t-335 141q-147 0 -271.5 -64.5t-197.5 -179.5q-78 114 -202.5 179t-265.5 65q-153 0 -283 -73t-205.5 -198.5t-75.5 -273.5
q0 -111 44.5 -211.5t120.5 -173t180 -115t219 -42.5zM1231 633q1 24 10.5 57.5t35 75.5t62 77t97.5 59t135 24q75 0 133 -24t90 -58.5t53 -78t27.5 -75t7.5 -57.5h-651zM662 152q-161 0 -272 109t-111 267q0 160 111 269.5t272 109.5t271.5 -109.5t110.5 -269.5
q0 -158 -110.5 -267t-271.5 -109zM1270 666h575q-6 38 -20.5 72t-44 72t-83.5 60.5t-126 22.5q-59 0 -108 -16t-81.5 -39.5t-56.5 -55.5t-36.5 -60t-18.5 -56zM662 184q148 0 249 99.5t101 244.5q0 146 -101 246t-249 100t-249.5 -100t-101.5 -246q0 -145 101.5 -244.5
t249.5 -99.5z" />
    <glyph glyph-name="Racute" unicode="&#x154;" horiz-adv-x="1411" 
d="M532 1516l201 382h316l-275 -382h-242zM586 1548h172l225 318h-229zM168 -16v1423h629q230 0 369 -120.5t139 -321.5q0 -154 -85 -264t-239 -154l420 -563h-320l-397 538h-260v-538h-256zM201 16h190v539h309l398 -539h237l-409 551q164 34 255 138.5t91 259.5
q0 186 -129 297.5t-346 111.5h-596v-1358zM391 727v471h389q135 0 215 -64t80 -173q0 -107 -80 -170.5t-215 -63.5h-389zM424 760h356q123 0 192.5 53.5t69.5 147.5q0 95 -69.5 149.5t-192.5 54.5h-356v-405z" />
    <glyph glyph-name="racute" unicode="&#x155;" horiz-adv-x="839" 
d="M336 1182l201 383h315l-274 -383h-242zM389 1214h172l225 318h-229zM147 -16v1093h254v-155q60 89 176.5 139t258.5 47v-215q-196 4 -314 -94.5t-121 -268.5v-546h-254zM180 16h189v514q3 177 121 284t313 112v149q-144 -3 -255 -65t-149 -160l-30 6v188h-189v-1028z" />
    <glyph glyph-name="uni0156" unicode="&#x156;" horiz-adv-x="1411" 
d="M168 -16v1423h629q230 0 369 -120.5t139 -321.5q0 -154 -85 -264t-239 -154l420 -563h-320l-397 538h-260v-538h-256zM201 16h190v539h309l398 -539h237l-409 551q164 34 255 138.5t91 259.5q0 186 -129 297.5t-346 111.5h-596v-1358zM391 727v471h389q135 0 215 -64
t80 -173q0 -107 -80 -170.5t-215 -63.5h-389zM424 760h356q123 0 192.5 53.5t69.5 147.5q0 95 -69.5 149.5t-192.5 54.5h-356v-405zM432 -446l201 383h274l-274 -383h-201zM485 -414h131l226 318h-189z" />
    <glyph glyph-name="uni0157" unicode="&#x157;" horiz-adv-x="839" 
d="M147 -16v1093h254v-155q60 89 176.5 139t258.5 47v-215q-196 4 -314 -94.5t-121 -268.5v-546h-254zM180 16h189v514q3 177 121 284t313 112v149q-144 -3 -255 -65t-149 -160l-30 6v188h-189v-1028zM-49 -446l201 383h274l-274 -383h-201zM4 -414h131l225 318h-188z" />
    <glyph glyph-name="Rcaron" unicode="&#x158;" horiz-adv-x="1411" 
d="M532 1516l-235 382h244l116 -157l115 157h244l-236 -382h-248zM549 1548h215l194 318h-170l-131 -183l-133 183h-170zM168 -16v1423h629q230 0 369 -120.5t139 -321.5q0 -154 -85 -264t-239 -154l420 -563h-320l-397 538h-260v-538h-256zM201 16h190v539h309l398 -539
h237l-409 551q164 34 255 138.5t91 259.5q0 186 -129 297.5t-346 111.5h-596v-1358zM391 727v471h389q135 0 215 -64t80 -173q0 -107 -80 -170.5t-215 -63.5h-389zM424 760h356q123 0 192.5 53.5t69.5 147.5q0 95 -69.5 149.5t-192.5 54.5h-356v-405z" />
    <glyph glyph-name="rcaron" unicode="&#x159;" horiz-adv-x="839" 
d="M336 1182l-236 383h244l117 -158l114 158h244l-235 -383h-248zM352 1214h215l195 318h-170l-131 -182l-133 182h-170zM147 -16v1093h254v-155q60 89 176.5 139t258.5 47v-215q-196 4 -314 -94.5t-121 -268.5v-546h-254zM180 16h189v514q3 177 121 284t313 112v149
q-144 -3 -255 -65t-149 -160l-30 6v188h-189v-1028z" />
    <glyph glyph-name="Sacute" unicode="&#x15a;" horiz-adv-x="1191" 
d="M414 1516l200 382h316l-275 -382h-241zM467 1548h172l225 318h-229zM557 -49q-164 0 -287.5 44t-193.5 107v273q95 -83 224.5 -131.5t256.5 -48.5q277 0 277 174q0 67 -61.5 111.5t-217.5 109.5q-112 47 -183.5 87.5t-128.5 95t-82.5 124t-25.5 162.5q0 170 145.5 279.5
t372.5 109.5q195 3 363 -115v-289q-62 72 -165.5 115t-217.5 43q-112 -1 -174 -39t-62 -104q0 -21 3 -38.5t13.5 -33.5t19 -28t30.5 -26t36 -23t48 -24.5t54.5 -24t66.5 -27.5q91 -37 153 -68.5t118 -72.5t88 -86.5t50.5 -105t18.5 -134.5q0 -184 -151 -300t-388 -116z
M557 -16q224 0 365 107t141 276q0 70 -17 125.5t-46.5 97t-83 80t-112.5 68t-149 67.5q-45 19 -67 28.5t-56.5 25t-51.5 26t-40 26.5t-33.5 30t-22 33t-15.5 39.5t-4 45.5q0 82 71 128t197 48q96 0 188.5 -30.5t161.5 -84.5v197q-152 101 -330 98q-214 0 -349.5 -99.5
t-135.5 -256.5q0 -88 22.5 -151.5t76.5 -115t121.5 -89.5t178.5 -85q82 -34 128 -56.5t90 -52.5t62.5 -63.5t18.5 -76.5q0 -101 -78.5 -154t-230.5 -53q-116 0 -234 38.5t-214 106.5v-188q75 -64 193 -99.5t255 -35.5z" />
    <glyph glyph-name="sacute" unicode="&#x15b;" horiz-adv-x="894" 
d="M348 1182l201 383h315l-274 -383h-242zM401 1214h172l226 318h-230zM395 -47q-52 0 -104.5 10.5t-90 26t-68 31t-45.5 25.5l-15 11l-6 13v217l26 12q5 -5 15.5 -13t42.5 -28t65.5 -35.5t82.5 -28t95 -12.5q95 0 146 25.5t51 71.5q0 49 -41.5 84.5t-147.5 95.5
q-35 20 -47 26.5t-43 25.5t-43.5 29l-37.5 30t-35.5 34.5t-26.5 37.5t-23 45t-12.5 50t-5.5 58q0 135 104.5 223t262.5 88q94 0 169 -23.5t121 -54.5v-272q-29 52 -106 86.5t-158 34.5q-151 0 -151 -78q0 -35 31.5 -60.5t136.5 -86.5q13 -7 20.5 -11.5t19.5 -11.5t23 -13
q59 -34 97 -62.5t70 -67t47 -86t15 -109.5q0 -154 -118 -246t-316 -92zM395 -14q184 0 293 82.5t109 222.5q0 56 -13 98.5t-42.5 77t-64.5 61t-93 60.5q-21 12 -51 29t-45 26t-37.5 22t-33 20.5t-25.5 18t-21.5 18t-15 17.5t-11.5 18.5t-5.5 19t-2.5 22.5q0 54 48 82t136 28
q61 0 123.5 -19.5t108.5 -51.5v172q-111 63 -258 63q-146 0 -240 -78t-94 -200q0 -35 8 -66t18 -53.5t33 -47.5t38 -39t50 -36.5t52 -32t59 -33.5q109 -61 157 -105t48 -103q0 -63 -60 -96t-170 -33q-87 0 -165.5 33t-129.5 71v-176q148 -92 297 -92z" />
    <glyph glyph-name="Scedilla" unicode="&#x15e;" horiz-adv-x="1191" 
d="M401 -430v151q52 -3 87.5 14t35.5 44q0 24 -25.5 39.5t-50.5 18.5l-26 3l-14 21l26 96q-228 28 -358 145v273q95 -83 224.5 -131.5t256.5 -48.5q277 0 277 174q0 67 -61.5 111.5t-217.5 109.5q-112 47 -183.5 87.5t-128.5 95t-82.5 124t-25.5 162.5q0 170 145.5 279.5
t372.5 109.5q195 3 363 -115v-289q-62 72 -165.5 115t-217.5 43q-112 -1 -174 -39t-62 -104q0 -21 3 -38.5t13.5 -33.5t19 -28t30.5 -26t36 -23t48 -24.5t54.5 -24t66.5 -27.5q91 -37 153 -68.5t118 -72.5t88 -86.5t50.5 -105t18.5 -134.5q0 -172 -134.5 -287.5
t-351.5 -128.5l-16 -53q19 -6 37.5 -15t41 -25.5t36.5 -43t14 -58.5q0 -89 -87 -139t-235 -47zM434 -397q119 3 187.5 43.5t68.5 109.5q0 40 -30 68t-60 36l-31 9l-12 20l29 95q213 7 345 113.5t132 269.5q0 70 -17 125.5t-46.5 97t-83 80t-112.5 68t-149 67.5
q-45 19 -67 28.5t-56.5 25t-51.5 26t-40 26.5t-33.5 30t-22 33t-15.5 39.5t-4 45.5q0 82 71 128t197 48q96 0 188.5 -30.5t161.5 -84.5v197q-152 101 -330 98q-214 0 -349.5 -99.5t-135.5 -256.5q0 -88 22.5 -151.5t76.5 -115t121.5 -89.5t178.5 -85q82 -34 128 -56.5
t90 -52.5t62.5 -63.5t18.5 -76.5q0 -101 -78.5 -154t-230.5 -53q-116 0 -234 38.5t-214 106.5v-188q136 -115 366 -133l-31 -115q17 -3 34 -8.5t36 -16t31 -28t12 -39.5q0 -36 -34 -60.5t-89 -29.5v-86z" />
    <glyph glyph-name="scedilla" unicode="&#x15f;" horiz-adv-x="894" 
d="M301 -430v151q52 -3 87.5 14t35.5 44q0 24 -25.5 39.5t-50.5 18.5l-26 3l-15 21l27 96q-68 8 -133.5 33t-96.5 46l-32 21l-6 13v217l26 12q5 -5 15.5 -13t42.5 -28t65.5 -35.5t82.5 -28t95 -12.5q95 0 146 25.5t51 71.5q0 49 -41.5 84.5t-147.5 95.5q-35 20 -47 26.5
t-43 25.5t-43.5 29l-37.5 30t-35.5 34.5t-26.5 37.5t-23 45t-12.5 50t-5.5 58q0 135 104.5 223t262.5 88q94 0 169 -23.5t121 -54.5v-272q-29 52 -106 86.5t-158 34.5q-151 0 -151 -78q0 -35 31.5 -60.5t136.5 -86.5q13 -7 20.5 -11.5t19.5 -11.5t23 -13q59 -34 97 -62.5
t70 -67t47 -86t15 -109.5q0 -128 -84.5 -215.5t-230.5 -112.5l-20 -65q19 -6 37.5 -15t41 -25.5t36.5 -43t14 -58.5q0 -89 -87 -139t-235 -47zM334 -397q119 3 187.5 43.5t68.5 109.5q0 40 -30 68t-60 36l-31 9l-12 20l32 103q143 19 225.5 99t82.5 200q0 56 -13 98.5
t-42.5 77t-64.5 61t-93 60.5q-21 12 -51 29t-45 26t-37.5 22t-33 20.5t-25.5 18t-21.5 18t-15 17.5t-11.5 18.5t-5.5 19t-2.5 22.5q0 54 48 82t136 28q61 0 123.5 -19.5t108.5 -51.5v172q-111 63 -258 63q-146 0 -240 -78t-94 -200q0 -35 8 -66t18 -53.5t33 -47.5t38 -39
t50 -36.5t52 -32t59 -33.5q109 -61 157 -105t48 -103q0 -63 -60 -96t-170 -33q-87 0 -165.5 33t-129.5 71v-176q129 -86 277 -92l-31 -115q17 -3 34 -8.5t36 -16t31 -28t12 -39.5q0 -36 -34 -60.5t-89 -29.5v-86z" />
    <glyph glyph-name="Scaron" unicode="&#x160;" horiz-adv-x="1191" 
d="M414 1516l-236 382h244l117 -157l114 157h244l-235 -382h-248zM430 1548h215l195 318h-170l-131 -183l-133 183h-170zM557 -49q-164 0 -287.5 44t-193.5 107v273q95 -83 224.5 -131.5t256.5 -48.5q277 0 277 174q0 67 -61.5 111.5t-217.5 109.5q-112 47 -183.5 87.5
t-128.5 95t-82.5 124t-25.5 162.5q0 170 145.5 279.5t372.5 109.5q195 3 363 -115v-289q-62 72 -165.5 115t-217.5 43q-112 -1 -174 -39t-62 -104q0 -21 3 -38.5t13.5 -33.5t19 -28t30.5 -26t36 -23t48 -24.5t54.5 -24t66.5 -27.5q91 -37 153 -68.5t118 -72.5t88 -86.5
t50.5 -105t18.5 -134.5q0 -184 -151 -300t-388 -116zM557 -16q224 0 365 107t141 276q0 70 -17 125.5t-46.5 97t-83 80t-112.5 68t-149 67.5q-45 19 -67 28.5t-56.5 25t-51.5 26t-40 26.5t-33.5 30t-22 33t-15.5 39.5t-4 45.5q0 82 71 128t197 48q96 0 188.5 -30.5
t161.5 -84.5v197q-152 101 -330 98q-214 0 -349.5 -99.5t-135.5 -256.5q0 -88 22.5 -151.5t76.5 -115t121.5 -89.5t178.5 -85q82 -34 128 -56.5t90 -52.5t62.5 -63.5t18.5 -76.5q0 -101 -78.5 -154t-230.5 -53q-116 0 -234 38.5t-214 106.5v-188q75 -64 193 -99.5t255 -35.5
z" />
    <glyph glyph-name="scaron" unicode="&#x161;" horiz-adv-x="894" 
d="M348 1182l-235 383h243l117 -158l115 158h243l-235 -383h-248zM365 1214h215l194 318h-170l-131 -182l-133 182h-170zM395 -47q-52 0 -104.5 10.5t-90 26t-68 31t-45.5 25.5l-15 11l-6 13v217l26 12q5 -5 15.5 -13t42.5 -28t65.5 -35.5t82.5 -28t95 -12.5q95 0 146 25.5
t51 71.5q0 49 -41.5 84.5t-147.5 95.5q-35 20 -47 26.5t-43 25.5t-43.5 29l-37.5 30t-35.5 34.5t-26.5 37.5t-23 45t-12.5 50t-5.5 58q0 135 104.5 223t262.5 88q94 0 169 -23.5t121 -54.5v-272q-29 52 -106 86.5t-158 34.5q-151 0 -151 -78q0 -35 31.5 -60.5t136.5 -86.5
q13 -7 20.5 -11.5t19.5 -11.5t23 -13q59 -34 97 -62.5t70 -67t47 -86t15 -109.5q0 -154 -118 -246t-316 -92zM395 -14q184 0 293 82.5t109 222.5q0 56 -13 98.5t-42.5 77t-64.5 61t-93 60.5q-21 12 -51 29t-45 26t-37.5 22t-33 20.5t-25.5 18t-21.5 18t-15 17.5t-11.5 18.5
t-5.5 19t-2.5 22.5q0 54 48 82t136 28q61 0 123.5 -19.5t108.5 -51.5v172q-111 63 -258 63q-146 0 -240 -78t-94 -200q0 -35 8 -66t18 -53.5t33 -47.5t38 -39t50 -36.5t52 -32t59 -33.5q109 -61 157 -105t48 -103q0 -63 -60 -96t-170 -33q-87 0 -165.5 33t-129.5 71v-176
q148 -92 297 -92z" />
    <glyph glyph-name="uni0162" unicode="&#x162;" horiz-adv-x="1359" 
d="M543 -430v151q52 -3 87.5 14t35.5 44q0 24 -26 39.5t-52 18.5l-25 3l-14 21l35 123h-31v1181h-487v242h1228v-242h-487v-1181h-45l-27 -86q19 -6 37.5 -15t41 -25.5t36.5 -43t14 -58.5q0 -89 -86.5 -139t-234.5 -47zM575 -397q119 3 187.5 43.5t68.5 109.5q0 40 -30 68
t-60 36l-30 9l-13 20l39 127h37v1182h488v176h-1164v-176h488v-1182h39l-39 -145q24 -4 46.5 -12.5t44 -29.5t21.5 -50q0 -36 -34 -60.5t-89 -29.5v-86z" />
    <glyph glyph-name="uni0163" unicode="&#x163;" horiz-adv-x="1028" 
d="M375 -430v151q52 -3 87.5 14t35.5 44q0 24 -26 39.5t-52 18.5l-25 3l-14 21l35 123h-15v907h-436l690 569v-356h363v-213h-363v-907h-61l-27 -86q19 -6 37.5 -15t41 -25.5t36.5 -43t14 -58.5q0 -89 -86.5 -139t-234.5 -47zM408 -397q119 3 187.5 43.5t68.5 109.5
q0 40 -30 68t-60 36l-31 9l-13 20l39 127h54v908h362v147h-362v320l-568 -467h379v-908h23l-39 -145q24 -4 46.5 -12.5t44 -29.5t21.5 -50q0 -36 -33.5 -60.5t-88.5 -29.5v-86z" />
    <glyph glyph-name="Tcaron" unicode="&#x164;" horiz-adv-x="1359" 
d="M555 1516l-236 382h244l117 -157l115 157h243l-235 -382h-248zM571 1548h215l195 318h-170l-131 -183l-133 183h-170zM553 -16v1181h-487v242h1228v-242h-487v-1181h-254zM586 16h188v1182h488v176h-1164v-176h488v-1182z" />
    <glyph glyph-name="tcaron" unicode="&#x165;" horiz-adv-x="1028" 
d="M1036 1444l-143 -340h125v-213h-363v-907h-254v907h-436l690 569v-356h68l51 340h262zM803 1411l-45 -287h108l121 287h-184zM985 924v147h-362v320l-568 -467h379v-908h189v908h362z" />
    <glyph glyph-name="Tbar" unicode="&#x166;" horiz-adv-x="1359" 
d="M553 -16v772h-246v217h246v192h-487v242h1228v-242h-487v-192h244v-217h-244v-772h-254zM586 16h188v772h244v152h-244v258h488v176h-1164v-176h488v-258h-246v-152h246v-772z" />
    <glyph glyph-name="tbar" unicode="&#x167;" horiz-adv-x="1028" 
d="M401 -16v532h-233v217h233v158h-436l690 569v-356h363v-213h-363v-158h256v-217h-256v-532h-254zM434 16h189v533h256v151h-256v224h362v147h-362v320l-568 -467h379v-224h-233v-151h233v-533z" />
    <glyph glyph-name="Umacron" unicode="&#x16a;" horiz-adv-x="1445" 
d="M422 1546v217h600v-217h-600zM455 1579h534v152h-534v-152zM723 -47q-283 0 -434.5 149.5t-151.5 427.5v877h256v-872q0 -158 86.5 -246t243.5 -88q169 0 249.5 82t80.5 252v872h256v-877q0 -278 -151.5 -427.5t-434.5 -149.5zM723 -14q268 0 410.5 140t142.5 404v844
h-191v-839q0 -185 -89.5 -276t-272.5 -91q-169 0 -266 98t-97 269v839h-190v-844q0 -264 142.5 -404t410.5 -140z" />
    <glyph glyph-name="umacron" unicode="&#x16b;" horiz-adv-x="1249" 
d="M324 1212v218h600v-218h-600zM356 1245h535v152h-535v-152zM625 -49q-498 0 -498 477v647h254v-653v-14t4 -34t11.5 -48t25.5 -51.5t42.5 -48.5t66.5 -34t94 -14t94 13.5t66.5 35t42.5 47.5t25.5 52t11 47.5t3.5 34.5v14v653h254v-647q0 -477 -497 -477zM625 -16
q39 0 68.5 1.5t81 11t90 25.5t83.5 49t74 78.5t48.5 117.5t19.5 161v614h-189v-620v-16t-4.5 -38.5t-13 -55t-28.5 -58.5t-48.5 -54.5t-75.5 -38.5t-106 -16t-106 15.5t-75.5 39.5t-49 53.5t-29 59.5t-13 54t-4.5 39v16v620h-188v-614q0 -89 19.5 -161t48.5 -117.5t74 -78.5
t83.5 -49t90 -25.5t81 -11t68.5 -1.5z" />
    <glyph glyph-name="Uring" unicode="&#x16e;" horiz-adv-x="1445" 
d="M721 1505q-95 0 -160 65.5t-65 160.5q0 97 65 163t160 66t161 -67t66 -162q0 -94 -66 -160t-161 -66zM721 1538q81 0 137.5 56.5t56.5 136.5q0 82 -56 139t-138 57t-137.5 -56.5t-55.5 -139.5q0 -82 55.5 -137.5t137.5 -55.5zM721 1653q-32 0 -55 23t-23 55q0 34 23 57.5
t55 23.5q34 0 57 -23.5t23 -57.5q0 -32 -23 -55t-57 -23zM721 1686q20 0 33.5 13t13.5 32q0 20 -13.5 34.5t-33.5 14.5t-32.5 -13.5t-12.5 -35.5q0 -20 12.5 -32.5t32.5 -12.5zM723 -47q-283 0 -434.5 149.5t-151.5 427.5v877h256v-872q0 -158 86.5 -246t243.5 -88
q169 0 249.5 82t80.5 252v872h256v-877q0 -278 -151.5 -427.5t-434.5 -149.5zM723 -14q268 0 410.5 140t142.5 404v844h-191v-839q0 -185 -89.5 -276t-272.5 -91q-169 0 -266 98t-97 269v839h-190v-844q0 -264 142.5 -404t410.5 -140z" />
    <glyph glyph-name="uring" unicode="&#x16f;" horiz-adv-x="1249" 
d="M623 1171q-95 0 -160.5 65.5t-65.5 160.5q0 97 65.5 163t160.5 66t161 -67t66 -162q0 -94 -66 -160t-161 -66zM623 1204q81 0 137.5 56.5t56.5 136.5q0 82 -56 139t-138 57t-137.5 -56.5t-55.5 -139.5q0 -82 55.5 -137.5t137.5 -55.5zM623 1319q-32 0 -55 23t-23 55
q0 34 23 58t55 24q33 0 56 -24t23 -58q0 -33 -23 -55.5t-56 -22.5zM623 1352q20 0 33.5 13t13.5 32q0 20 -13.5 34.5t-33.5 14.5t-32.5 -13.5t-12.5 -35.5q0 -20 12.5 -32.5t32.5 -12.5zM625 -49q-498 0 -498 477v647h254v-653v-14t4 -34t11.5 -48t25.5 -51.5t42.5 -48.5
t66.5 -34t94 -14t94 13.5t66.5 35t42.5 47.5t25.5 52t11 47.5t3.5 34.5v14v653h254v-647q0 -477 -497 -477zM625 -16q39 0 68.5 1.5t81 11t90 25.5t83.5 49t74 78.5t48.5 117.5t19.5 161v614h-189v-620v-16t-4.5 -38.5t-13 -55t-28.5 -58.5t-48.5 -54.5t-75.5 -38.5
t-106 -16t-106 15.5t-75.5 39.5t-49 53.5t-29 59.5t-13 54t-4.5 39v16v620h-188v-614q0 -89 19.5 -161t48.5 -117.5t74 -78.5t83.5 -49t90 -25.5t81 -11t68.5 -1.5z" />
    <glyph glyph-name="Uhungarumlaut" unicode="&#x170;" horiz-adv-x="1445" 
d="M416 1516l200 382h316l-275 -382h-241zM782 1516l224 382h315l-295 -382h-244zM469 1548h172l225 318h-229zM840 1548h170l245 318h-229zM723 -47q-283 0 -434.5 149.5t-151.5 427.5v877h256v-872q0 -158 86.5 -246t243.5 -88q169 0 249.5 82t80.5 252v872h256v-877
q0 -278 -151.5 -427.5t-434.5 -149.5zM723 -14q268 0 410.5 140t142.5 404v844h-191v-839q0 -185 -89.5 -276t-272.5 -91q-169 0 -266 98t-97 269v839h-190v-844q0 -264 142.5 -404t410.5 -140z" />
    <glyph glyph-name="uhungarumlaut" unicode="&#x171;" horiz-adv-x="1249" 
d="M317 1182l201 383h316l-275 -383h-242zM684 1182l223 383h316l-295 -383h-244zM371 1214h172l225 318h-229zM741 1214h170l246 318h-229zM625 -49q-498 0 -498 477v647h254v-653v-14t4 -34t11.5 -48t25.5 -51.5t42.5 -48.5t66.5 -34t94 -14t94 13.5t66.5 35t42.5 47.5
t25.5 52t11 47.5t3.5 34.5v14v653h254v-647q0 -477 -497 -477zM625 -16q39 0 68.5 1.5t81 11t90 25.5t83.5 49t74 78.5t48.5 117.5t19.5 161v614h-189v-620v-16t-4.5 -38.5t-13 -55t-28.5 -58.5t-48.5 -54.5t-75.5 -38.5t-106 -16t-106 15.5t-75.5 39.5t-49 53.5t-29 59.5
t-13 54t-4.5 39v16v620h-188v-614q0 -89 19.5 -161t48.5 -117.5t74 -78.5t83.5 -49t90 -25.5t81 -11t68.5 -1.5z" />
    <glyph glyph-name="Uogonek" unicode="&#x172;" horiz-adv-x="1445" 
d="M889 -459q-32 -2 -72 3.5t-87.5 23.5t-86 45.5t-64.5 75t-26 106.5q0 87 57 166q-230 28 -351.5 174t-121.5 395v877h256v-872q0 -158 86.5 -246t243.5 -88q169 0 249.5 82t80.5 252v872h256v-877q0 -252 -125 -399.5t-363 -173.5q-55 -79 -55 -131q0 -43 26.5 -58
t96.5 -14v-213zM856 -426v147q-65 3 -94 28t-29 77q0 63 72 164q231 22 351 159t120 381v844h-191v-839q0 -185 -89.5 -276t-272.5 -91q-169 0 -266 98t-97 269v839h-190v-844q0 -255 130.5 -393t379.5 -149q-94 -89 -94 -193q0 -46 18.5 -84t47 -62t65.5 -41t71.5 -24.5
t67.5 -9.5z" />
    <glyph glyph-name="uogonek" unicode="&#x173;" horiz-adv-x="1249" 
d="M805 -492q-32 -2 -72 3.5t-87.5 23.5t-86 45.5t-64.5 75t-26 106.5q0 102 80 191q-207 15 -314.5 135.5t-107.5 339.5v647h254v-653v-14t4 -34t11.5 -48t25.5 -51.5t42.5 -48.5t66.5 -34t94 -14t94 13.5t66.5 35t42.5 47.5t25.5 52t11 47.5t3.5 34.5v14v653h254v-647
q0 -201 -90.5 -319.5t-267.5 -147.5q-82 -106 -82 -168q0 -43 26.5 -58t96.5 -14v-213zM772 -459v148q-65 3 -94 27.5t-29 76.5q0 74 96 197q345 53 345 438v614h-189v-620v-16t-4.5 -38.5t-13 -55t-28.5 -58.5t-48.5 -54.5t-75.5 -38.5t-106 -16t-106 15.5t-75.5 39.5
t-49 53.5t-29 59.5t-13 54t-4.5 39v16v620h-188v-614q0 -451 463 -448q0 -1 -13 -12t-30.5 -30.5t-35.5 -44.5t-30 -60t-12 -71q0 -46 18.5 -84t47 -62t65.5 -41t71.5 -24.5t67.5 -9.5z" />
    <glyph glyph-name="Wcircumflex" unicode="&#x174;" horiz-adv-x="2117" 
d="M698 1516l236 382h248l235 -382h-243l-115 157l-117 -157h-244zM756 1548h170l133 183l131 -183h170l-195 318h-215zM483 -16l-442 1423h289l297 -1065l295 1065h274l297 -1065l295 1065h289l-443 -1423h-282l-293 1030l-291 -1030h-285zM508 16h235l316 1117l317 -1117
h234l422 1358h-220l-319 -1155l-322 1155h-225l-319 -1155l-322 1155h-219z" />
    <glyph glyph-name="wcircumflex" unicode="&#x175;" horiz-adv-x="1529" 
d="M406 1182l235 383h248l235 -383h-243l-115 157l-117 -157h-243zM463 1214h170l133 183l131 -183h170l-195 318h-215zM471 -129l-432 1204h266l201 -579l256 649l278 -651l185 581h266l-430 -1204l-301 709zM471 -39l289 705l297 -705l389 1081h-197l-205 -643l-282 660
l-260 -658l-221 641h-197z" />
    <glyph glyph-name="Ycircumflex" unicode="&#x176;" horiz-adv-x="1384" 
d="M332 1516l235 382h248l236 -382h-244l-115 157l-117 -157h-243zM389 1548h170l133 183l131 -183h170l-194 318h-215zM563 -16v608l-553 815h305l377 -578l375 578h307l-553 -815v-608h-258zM596 16h192v584l525 774h-230l-391 -606l-393 606h-227l524 -774v-584z" />
    <glyph glyph-name="ycircumflex" unicode="&#x177;" horiz-adv-x="1200" 
d="M240 1182l235 383h248l235 -383h-243l-115 157l-117 -157h-243zM297 1214h170l133 183l131 -183h170l-194 318h-215zM182 -442l285 565l-453 952h269l317 -680l318 680h268l-731 -1517h-273zM236 -410h198l699 1452h-195l-338 -725l-338 725h-194l436 -919z" />
    <glyph glyph-name="Ydieresis" unicode="&#x178;" horiz-adv-x="1384" 
d="M496 1540q-54 0 -92.5 37.5t-38.5 91.5t38.5 92.5t92.5 38.5t91.5 -38.5t37.5 -92.5q0 -53 -38.5 -91t-90.5 -38zM889 1540q-54 0 -92.5 37.5t-38.5 91.5t38.5 92.5t92.5 38.5t91.5 -38.5t37.5 -92.5q0 -53 -38 -91t-91 -38zM496 1573q40 0 68 28t28 68t-28 69t-68 29
q-41 0 -70 -28.5t-29 -69.5q0 -39 29.5 -67.5t69.5 -28.5zM889 1573q40 0 68 28t28 68t-28 69t-68 29q-41 0 -69.5 -28.5t-28.5 -69.5q0 -40 29 -68t69 -28zM563 -16v608l-553 815h305l377 -578l375 578h307l-553 -815v-608h-258zM596 16h192v584l525 774h-230l-391 -606
l-393 606h-227l524 -774v-584z" />
    <glyph glyph-name="Zacute" unicode="&#x179;" horiz-adv-x="1400" 
d="M575 1516l201 382h316l-275 -382h-242zM629 1548h172l225 318h-229zM137 -16v231l807 950h-768v242h1102v-231l-801 -951h828v-241h-1168zM170 16h1102v177h-864l837 995v186h-1036v-176h805l-844 -995v-187z" />
    <glyph glyph-name="zacute" unicode="&#x17a;" horiz-adv-x="1179" 
d="M465 1182l201 383h315l-274 -383h-242zM518 1214h172l225 318h-229zM86 -16v174l649 694h-608v225h946v-194l-631 -674h652v-225h-1008zM119 16h942v160h-692l671 719v149h-880v-159h649l-690 -740v-129z" />
    <glyph glyph-name="Zdotaccent" unicode="&#x17b;" horiz-adv-x="1400" 
d="M698 1526q-58 0 -99.5 41t-41.5 100q0 60 40.5 101.5t100.5 41.5t102 -41.5t42 -101.5t-42 -100.5t-102 -40.5zM698 1559q46 0 78.5 31.5t32.5 76.5q0 47 -32 79t-79 32q-45 0 -76.5 -32.5t-31.5 -78.5t31 -77t77 -31zM137 -16v231l807 950h-768v242h1102v-231l-801 -951
h828v-241h-1168zM170 16h1102v177h-864l837 995v186h-1036v-176h805l-844 -995v-187z" />
    <glyph glyph-name="zdotaccent" unicode="&#x17c;" horiz-adv-x="1179" 
d="M588 1192q-59 0 -100.5 41.5t-41.5 99.5q0 60 41 102t101 42t101.5 -42t41.5 -102t-41.5 -100.5t-101.5 -40.5zM588 1225q46 0 78 31t32 77q0 47 -31.5 79t-78.5 32q-46 0 -77.5 -32.5t-31.5 -78.5t31.5 -77t77.5 -31zM86 -16v174l649 694h-608v225h946v-194l-631 -674
h652v-225h-1008zM119 16h942v160h-692l671 719v149h-880v-159h649l-690 -740v-129z" />
    <glyph glyph-name="Zcaron" unicode="&#x17d;" horiz-adv-x="1400" 
d="M575 1516l-235 382h244l116 -157l115 157h244l-236 -382h-248zM592 1548h215l194 318h-170l-131 -183l-133 183h-170zM137 -16v231l807 950h-768v242h1102v-231l-801 -951h828v-241h-1168zM170 16h1102v177h-864l837 995v186h-1036v-176h805l-844 -995v-187z" />
    <glyph glyph-name="zcaron" unicode="&#x17e;" horiz-adv-x="1179" 
d="M465 1182l-236 383h244l117 -158l115 158h243l-235 -383h-248zM481 1214h215l195 318h-170l-131 -182l-133 182h-170zM86 -16v174l649 694h-608v225h946v-194l-631 -674h652v-225h-1008zM119 16h942v160h-692l671 719v149h-880v-159h649l-690 -740v-129z" />
    <glyph glyph-name="florin" unicode="&#x192;" horiz-adv-x="1067" 
d="M57 -451q-65 0 -121.5 12t-90 29t-58 34.5t-33.5 29.5l-10 12l-2 10v197l29 12l11.5 -11.5t33 -25.5t53 -32t71 -25.5t87.5 -11.5q127 0 185 75.5t58 241.5v381h-260v242h260v219q0 250 126.5 398.5t340.5 148.5q65 0 121.5 -12t90.5 -29.5t58.5 -34.5t34.5 -29l9 -12
l2 -10v-197l-29 -12l-11.5 11.5t-33 25.5t-53 32t-71 25.5t-87.5 11.5q-128 0 -186 -75.5t-58 -241.5v-219h355v-242h-355v-381q0 -250 -126.5 -398.5t-340.5 -148.5zM57 -418q200 0 317.5 139t117.5 375v414h354v176h-354v252q0 179 67.5 264.5t208.5 85.5q135 0 252 -90
v154q-8 11 -25 24.5t-49.5 32t-87.5 31t-121 12.5q-199 0 -316.5 -139t-117.5 -375v-252h-260v-176h260v-414q0 -179 -67.5 -264.5t-208.5 -85.5q-135 0 -252 90v-153q8 -11 24.5 -25t49 -32.5t87.5 -31t121 -12.5z" />
    <glyph glyph-name="uni0218" unicode="&#x218;" horiz-adv-x="1191" 
d="M557 -49q-164 0 -287.5 44t-193.5 107v273q95 -83 224.5 -131.5t256.5 -48.5q277 0 277 174q0 67 -61.5 111.5t-217.5 109.5q-112 47 -183.5 87.5t-128.5 95t-82.5 124t-25.5 162.5q0 170 145.5 279.5t372.5 109.5q195 3 363 -115v-289q-62 72 -165.5 115t-217.5 43
q-112 -1 -174 -39t-62 -104q0 -21 3 -38.5t13.5 -33.5t19 -28t30.5 -26t36 -23t48 -24.5t54.5 -24t66.5 -27.5q91 -37 153 -68.5t118 -72.5t88 -86.5t50.5 -105t18.5 -134.5q0 -184 -151 -300t-388 -116zM557 -16q224 0 365 107t141 276q0 70 -17 125.5t-46.5 97t-83 80
t-112.5 68t-149 67.5q-45 19 -67 28.5t-56.5 25t-51.5 26t-40 26.5t-33.5 30t-22 33t-15.5 39.5t-4 45.5q0 82 71 128t197 48q96 0 188.5 -30.5t161.5 -84.5v197q-152 101 -330 98q-214 0 -349.5 -99.5t-135.5 -256.5q0 -88 22.5 -151.5t76.5 -115t121.5 -89.5t178.5 -85
q82 -34 128 -56.5t90 -52.5t62.5 -63.5t18.5 -76.5q0 -101 -78.5 -154t-230.5 -53q-116 0 -234 38.5t-214 106.5v-188q75 -64 193 -99.5t255 -35.5zM229 -446l201 383h275l-275 -383h-201zM283 -414h131l225 318h-188z" />
    <glyph glyph-name="uni0219" unicode="&#x219;" horiz-adv-x="894" 
d="M395 -47q-52 0 -104.5 10.5t-90 26t-68 31t-45.5 25.5l-15 11l-6 13v217l26 12q5 -5 15.5 -13t42.5 -28t65.5 -35.5t82.5 -28t95 -12.5q95 0 146 25.5t51 71.5q0 49 -41.5 84.5t-147.5 95.5q-35 20 -47 26.5t-43 25.5t-43.5 29l-37.5 30t-35.5 34.5t-26.5 37.5t-23 45
t-12.5 50t-5.5 58q0 135 104.5 223t262.5 88q94 0 169 -23.5t121 -54.5v-272q-29 52 -106 86.5t-158 34.5q-151 0 -151 -78q0 -35 31.5 -60.5t136.5 -86.5q13 -7 20.5 -11.5t19.5 -11.5t23 -13q59 -34 97 -62.5t70 -67t47 -86t15 -109.5q0 -154 -118 -246t-316 -92zM395 -14
q184 0 293 82.5t109 222.5q0 56 -13 98.5t-42.5 77t-64.5 61t-93 60.5q-21 12 -51 29t-45 26t-37.5 22t-33 20.5t-25.5 18t-21.5 18t-15 17.5t-11.5 18.5t-5.5 19t-2.5 22.5q0 54 48 82t136 28q61 0 123.5 -19.5t108.5 -51.5v172q-111 63 -258 63q-146 0 -240 -78t-94 -200
q0 -35 8 -66t18 -53.5t33 -47.5t38 -39t50 -36.5t52 -32t59 -33.5q109 -61 157 -105t48 -103q0 -63 -60 -96t-170 -33q-87 0 -165.5 33t-129.5 71v-176q148 -92 297 -92zM129 -446l201 383h274l-274 -383h-201zM182 -414h131l226 318h-189z" />
    <glyph glyph-name="uni021A" unicode="&#x21a;" horiz-adv-x="1359" 
d="M553 -16v1181h-487v242h1228v-242h-487v-1181h-254zM586 16h188v1182h488v176h-1164v-176h488v-1182zM371 -446l200 383h275l-275 -383h-200zM424 -414h131l225 318h-188z" />
    <glyph glyph-name="uni021B" unicode="&#x21b;" horiz-adv-x="1028" 
d="M401 -16v907h-436l690 569v-356h363v-213h-363v-907h-254zM434 16h189v908h362v147h-362v320l-568 -467h379v-908zM203 -446l200 383h275l-275 -383h-200zM256 -414h131l225 318h-188z" />
    <glyph glyph-name="circumflex" unicode="&#x2c6;" horiz-adv-x="743" 
d="M12 1184l236 383h248l235 -383h-244l-114 157l-117 -157h-244zM70 1217h170l133 182l131 -182h170l-195 317h-215z" />
    <glyph glyph-name="caron" unicode="&#x2c7;" horiz-adv-x="743" 
d="M248 1184l-236 383h244l117 -158l114 158h244l-235 -383h-248zM264 1217h215l195 317h-170l-131 -182l-133 182h-170z" />
    <glyph glyph-name="breve" unicode="&#x2d8;" horiz-adv-x="743" 
d="M371 1184q-74 0 -135 24t-100 63.5t-65.5 90t-37 102.5t-8.5 103h239q-2 -22 3 -49t16 -55.5t34 -47t54 -18.5q40 0 67.5 33t35.5 70.5t5 66.5h240q2 -51 -8.5 -103t-37.5 -102.5t-66 -90t-100.5 -63.5t-135.5 -24zM371 1217q79 0 141 28t98 75t55 101t21 113h-174
q-3 -38 -17 -74t-46.5 -66t-77.5 -30t-77 30t-46 66t-17 74h-174q2 -59 21 -113t55 -101t97.5 -75t140.5 -28z" />
    <glyph glyph-name="dotaccent" unicode="&#x2d9;" horiz-adv-x="333" 
d="M166 1174q-68 0 -115 47t-47 114q0 69 47 116.5t115 47.5t116 -48.5t48 -115.5q0 -68 -47.5 -114.5t-116.5 -46.5zM166 1206q55 0 93 37.5t38 91.5q0 55 -37.5 93t-93.5 38q-54 0 -91.5 -38t-37.5 -93t36.5 -92t92.5 -37z" />
    <glyph glyph-name="ring" unicode="&#x2da;" horiz-adv-x="501" 
d="M250 1174q-95 0 -160 65t-65 160q0 97 65 163t160 66t161 -67t66 -162q0 -94 -66 -159.5t-161 -65.5zM250 1206q81 0 137.5 56.5t56.5 136.5q0 82 -56 139t-138 57t-137.5 -56.5t-55.5 -139.5q0 -82 55.5 -137.5t137.5 -55.5zM250 1321q-32 0 -55 23t-23 55q0 34 23 58
t55 24q34 0 57 -24t23 -58q0 -32 -23 -55t-57 -23zM250 1354q20 0 33.5 13t13.5 32q0 20 -13.5 34.5t-33.5 14.5t-32.5 -13.5t-12.5 -35.5q0 -20 12.5 -32.5t32.5 -12.5z" />
    <glyph glyph-name="ogonek" unicode="&#x2db;" horiz-adv-x="303" 
d="M319 -461q-32 -2 -72 3.5t-87 23.5t-85.5 45.5t-64.5 75t-26 106.5q0 39 13 78t32 66.5t37.5 49t31.5 31.5l13 11l10 4h155l13 -27q-10 -13 -25.5 -33.5t-41 -69t-25.5 -79.5q0 -43 26 -58t96 -14v-213zM287 -428v147q-65 3 -94 28t-29 77q0 63 80 176h-117
q-12 -10 -26.5 -24.5t-36 -42t-35 -64.5t-13.5 -76q0 -46 18.5 -84t47 -62t66 -41t72 -24.5t67.5 -9.5z" />
    <glyph glyph-name="tilde" unicode="&#x2dc;" horiz-adv-x="901" 
d="M600 1174q-78 0 -156 53h-12v2h14l-10 4q-70 51 -98 51q-11 0 -18 -5.5t-11 -17t-6.5 -22t-5.5 -28.5t-6 -29l-201 73q17 117 71 181.5t136 64.5q78 0 156 -53h12v-2h-14l10 -4q70 -51 98 -51q11 0 18 5.5t11 17t6.5 22t5.5 28.5t6 29l201 -74q-17 -117 -71 -181
t-136 -64zM600 1206q63 0 107 50t63 143l-139 49q-14 -90 -72 -90q-40 0 -115 55h-12v2h14l-10 2q-68 51 -139 51q-63 0 -107 -49.5t-63 -142.5l139 -49q14 90 72 90q40 0 115 -55h12v-2h-14l10 -3q68 -51 139 -51z" />
    <glyph glyph-name="hungarumlaut" unicode="&#x2dd;" horiz-adv-x="886" 
d="M14 1184l201 383h315l-274 -383h-242zM381 1184l223 383h316l-295 -383h-244zM68 1217h172l225 317h-229zM438 1217h170l246 317h-229z" />
    <glyph glyph-name="gravecomb" unicode="&#x300;" 
d="M-256 1184l-274 383h315l201 -383h-242zM-240 1217h172l-168 317h-229z" />
    <glyph glyph-name="acutecomb" unicode="&#x301;" 
d="M-524 1184l200 383h316l-275 -383h-241zM-471 1217h172l225 317h-229z" />
    <glyph glyph-name="uni0302" unicode="&#x302;" 
d="M-731 1184l235 383h248l236 -383h-244l-115 157l-116 -157h-244zM-674 1217h170l133 182l131 -182h170l-194 317h-215z" />
    <glyph glyph-name="tildecomb" unicode="&#x303;" 
d="M-301 1174q-78 0 -156 53h-12v2h14l-10 4q-70 51 -98 51q-11 0 -18 -5.5t-11 -17t-6.5 -22t-5.5 -28.5t-6 -29l-201 73q17 117 71 181.5t136 64.5q77 0 155 -53h13v-2h-15l11 -4q70 -51 98 -51q11 0 18 5.5t11 17t6.5 22t5.5 28.5t6 29l201 -74q-17 -117 -71 -181
t-136 -64zM-301 1206q63 0 107 50t63 143l-139 49q-14 -90 -72 -90q-40 0 -115 55h-12v2h14l-10 2q-68 51 -139 51q-63 0 -107 -49.5t-63 -142.5l139 -49q14 90 72 90q39 0 114 -55h13v-2h-15l11 -3q68 -51 139 -51z" />
    <glyph glyph-name="uni0304" unicode="&#x304;" 
d="M-604 1214v218h600v-218h-600zM-571 1247h534v152h-534v-152z" />
    <glyph glyph-name="uni0306" unicode="&#x306;" 
d="M-373 1184q-74 0 -135 24t-100 63.5t-65.5 90t-37 102.5t-8.5 103h240q-2 -31 5.5 -68t34 -69.5t66.5 -32.5q31 0 54.5 19t35.5 47t16.5 55.5t2.5 48.5h239q2 -51 -8.5 -103t-37.5 -102.5t-66 -90t-100.5 -63.5t-135.5 -24zM-373 1217q79 0 141 28t98 75t55.5 101
t21.5 113h-174q-3 -38 -17.5 -74t-47 -66t-77.5 -30t-77 30t-45.5 66t-16.5 74h-174q2 -59 21 -113t54.5 -101t97 -75t140.5 -28z" />
    <glyph glyph-name="uni0307" unicode="&#x307;" 
d="M-168 1194q-58 0 -99.5 41t-41.5 100q0 60 40.5 102t100.5 42t101.5 -42t41.5 -102t-41.5 -100.5t-101.5 -40.5zM-168 1227q46 0 78.5 31.5t32.5 76.5q0 47 -32 79t-79 32q-45 0 -76.5 -32.5t-31.5 -78.5t31 -77t77 -31z" />
    <glyph glyph-name="uni0308" unicode="&#x308;" 
d="M-547 1208q-54 0 -92.5 37.5t-38.5 91.5t38.5 92.5t92.5 38.5t91.5 -38.5t37.5 -92.5q0 -53 -38 -91t-91 -38zM-154 1208q-54 0 -92.5 37.5t-38.5 91.5t38.5 92.5t92.5 38.5t91.5 -38.5t37.5 -92.5q0 -53 -38.5 -91t-90.5 -38zM-547 1241q40 0 68 28t28 68t-28.5 69.5
t-67.5 29.5q-41 0 -69.5 -29t-28.5 -70q0 -40 29 -68t69 -28zM-154 1241q40 0 68.5 28t28.5 68t-28.5 69.5t-68.5 29.5q-41 0 -69.5 -29t-28.5 -70q0 -40 29 -68t69 -28z" />
    <glyph glyph-name="uni030A" unicode="&#x30a;" 
d="M-252 1174q-95 0 -160 65t-65 160q0 97 65 163t160 66t161 -67t66 -162q0 -94 -66 -159.5t-161 -65.5zM-252 1206q81 0 138 56.5t57 136.5q0 82 -56.5 139t-138.5 57t-137 -56.5t-55 -139.5q0 -82 55 -137.5t137 -55.5zM-252 1321q-32 0 -55 23t-23 55q0 34 23 58t55 24
q34 0 57 -24t23 -58q0 -32 -23 -55t-57 -23zM-252 1354q20 0 33.5 13t13.5 32q0 20 -13.5 34.5t-33.5 14.5t-32.5 -13.5t-12.5 -35.5q0 -20 12.5 -32.5t32.5 -12.5z" />
    <glyph glyph-name="uni030B" unicode="&#x30b;" 
d="M-872 1184l200 383h316l-275 -383h-241zM-506 1184l223 383h316l-295 -383h-244zM-819 1217h172l225 317h-229zM-449 1217h170l246 317h-229z" />
    <glyph glyph-name="uni030C" unicode="&#x30c;" 
d="M-496 1184l-235 383h244l116 -158l115 158h244l-236 -383h-248zM-479 1217h215l194 317h-170l-131 -182l-133 182h-170z" />
    <glyph glyph-name="uni0312" unicode="&#x312;" 
d="M-401 1184l274 383h242l-201 -383h-315zM-336 1217h230l167 317h-172z" />
    <glyph glyph-name="uni0326" unicode="&#x326;" 
d="M-471 -430l201 383h274l-274 -383h-201zM-418 -397h131l226 317h-189z" />
    <glyph glyph-name="uni0327" unicode="&#x327;" 
d="M-305 -459v152q52 -3 87.5 13.5t35.5 43.5q0 24 -26 39.5t-52 18.5l-25 4l-14 20l43 156h180l-37 -119q19 -6 37.5 -15t41 -25t36.5 -42.5t14 -58.5q0 -89 -86.5 -139.5t-234.5 -47.5zM-272 -426q119 3 187.5 44t68.5 110q0 25 -12.5 46t-30 32.5t-35.5 19.5t-30 11
l-13 3l-13 21l29 94h-110l-31 -113q24 -4 46.5 -12.5t44 -29.5t21.5 -50q0 -36 -33.5 -60.5t-88.5 -29.5v-86z" />
    <glyph glyph-name="uni0328" unicode="&#x328;" 
d="M16 -461q-32 -2 -72 3.5t-87 23.5t-85.5 45.5t-64.5 75t-26 106.5q0 39 13 78t31.5 66.5t37 49t31.5 31.5l13 11l11 4h155l13 -27q-10 -13 -25.5 -33.5t-41 -69t-25.5 -79.5q0 -43 26 -58t96 -14v-213zM-16 -428v147q-65 3 -94 28t-29 77q0 63 80 176h-117
q-12 -10 -26.5 -24.5t-36 -42t-35 -64.5t-13.5 -76q0 -46 18.5 -84t47 -62t66 -41t72 -24.5t67.5 -9.5z" />
    <glyph glyph-name="uni0335" unicode="&#x335;" 
d="M-768 516v217h743v-217h-743zM-735 549h678v151h-678v-151z" />
    <glyph glyph-name="uni0336" unicode="&#x336;" 
d="M-1309 958v218h1428v-218h-1428zM-1276 991h1362v152h-1362v-152z" />
    <glyph glyph-name="uni0337" unicode="&#x337;" 
d="M-561 201l-139 166l532 512l139 -166zM-557 250l483 467l-98 112l-483 -467z" />
    <glyph glyph-name="uni0338" unicode="&#x338;" 
d="M-1399 -53l-184 182l1423 1325l185 -182zM-1399 -8l1374 1280l-135 137l-1374 -1280z" />
    <glyph glyph-name="uni037E" unicode="&#x37e;" horiz-adv-x="856" 
d="M457 637q-77 0 -129 52t-52 128q0 75 53 127.5t128 52.5q73 0 126.5 -53.5t53.5 -126.5q0 -75 -52.5 -127.5t-127.5 -52.5zM457 670q63 0 105 42t42 105q0 62 -43 105t-104 43q-63 0 -105.5 -42.5t-42.5 -105.5q0 -64 41.5 -105.5t106.5 -41.5zM88 -326l195 557h311
l-264 -557h-242zM133 -293h176l232 492h-234z" />
    <glyph glyph-name="tonos" unicode="&#x384;" horiz-adv-x="854" 
d="M4 1214v238h846v-238h-846zM37 1247h780v172h-780v-172z" />
    <glyph glyph-name="dieresistonos" unicode="&#x385;" horiz-adv-x="702" 
d="M51 1575v237h600v-237h-600zM84 1608h534v172h-534v-172zM156 1208q-54 0 -92.5 37.5t-38.5 91.5t38.5 92.5t92.5 38.5t91.5 -38.5t37.5 -92.5q0 -53 -38.5 -91t-90.5 -38zM549 1208q-54 0 -92.5 37.5t-38.5 91.5t38.5 92.5t92.5 38.5t91.5 -38.5t37.5 -92.5
q0 -53 -38 -91t-91 -38zM156 1241q40 0 68 28t28 68t-28.5 69.5t-67.5 29.5q-41 0 -70 -29t-29 -70q0 -39 29.5 -67.5t69.5 -28.5zM549 1241q40 0 68 28t28 68t-28.5 69.5t-67.5 29.5q-41 0 -69.5 -29t-28.5 -70q0 -40 29 -68t69 -28z" />
    <glyph glyph-name="Alphatonos" unicode="&#x386;" horiz-adv-x="1542" 
d="M631 1516l200 382h316l-275 -382h-241zM684 1548h172l225 318h-229zM18 -16l633 1423h240l633 -1423h-295l-133 329h-650l-133 -329h-295zM68 16h225l133 330h690l133 -330h226l-605 1358h-198zM496 522l276 649l275 -649h-551zM545 555h452l-225 535z" />
    <glyph glyph-name="Epsilontonos" unicode="&#x388;" horiz-adv-x="1314" 
d="M563 1516l201 382h315l-274 -382h-242zM616 1548h172l226 318h-230zM168 -16v1423h1049v-242h-793v-303h631v-241h-631v-396h805v-241h-1061zM201 16h995v177h-805v460h631v176h-631v369h793v176h-983v-1358z" />
    <glyph glyph-name="Etatonos" unicode="&#x389;" horiz-adv-x="1538" 
d="M635 1516l201 382h315l-274 -382h-242zM688 1548h172l225 318h-229zM168 -16v1423h256v-545h690v545h256v-1423h-256v637h-690v-637h-256zM201 16h190v637h756v-637h190v1358h-190v-545h-756v545h-190v-1358z" />
    <glyph glyph-name="Iotatonos" unicode="&#x38a;" horiz-adv-x="591" 
d="M162 1516l200 382h316l-275 -382h-241zM215 1548h172l225 318h-229zM168 -16v1423h256v-1423h-256zM201 16h190v1358h-190v-1358z" />
    <glyph glyph-name="Omicrontonos" unicode="&#x38c;" horiz-adv-x="1644" 
d="M688 1516l201 382h315l-274 -382h-242zM741 1548h172l226 318h-230zM821 -47q-155 -2 -294 55.5t-238.5 156.5t-157 238t-55.5 293q-2 154 55.5 293t157 238.5t238.5 157t294 55.5q155 2 295 -55.5t240 -157t157.5 -238.5t55.5 -293q2 -154 -55.5 -293t-157.5 -238
t-240 -156.5t-295 -55.5zM821 -14q148 -2 282 53t229.5 150t150.5 227.5t53 279.5q2 147 -53 280t-150.5 228t-229.5 150t-282 53q-148 2 -281.5 -52.5t-228.5 -149.5t-149.5 -228t-52.5 -281q-3 -197 90.5 -361.5t258.5 -258t363 -90.5zM821 164q-227 0 -371.5 149.5
t-144.5 382.5t145 384t371 151q227 0 371.5 -150t144.5 -385t-144 -383.5t-372 -148.5zM821 197q215 0 349.5 138t134.5 361q0 221 -135 361.5t-349 140.5q-212 0 -347.5 -141t-135.5 -361q0 -221 134.5 -360t348.5 -139z" />
    <glyph glyph-name="Upsilontonos" unicode="&#x38e;" horiz-adv-x="1341" 
d="M535 1516l200 382h316l-275 -382h-241zM588 1548h172l225 318h-229zM543 -16v608l-555 815h293l391 -588l389 588h293l-553 -815v-608h-258zM575 16h193v584l524 774h-215l-405 -612l-408 612h-215l526 -774v-584z" />
    <glyph glyph-name="Omegatonos" unicode="&#x38f;" horiz-adv-x="1626" 
d="M678 1516l201 382h315l-274 -382h-242zM731 1548h172l225 318h-229zM66 -16v241h237q-109 91 -173 229t-64 285q0 200 96 360.5t267 250.5t384 90t384 -90t267.5 -250.5t96.5 -360.5q0 -147 -64.5 -285t-173.5 -229h238v-241h-639v237q173 56 273.5 195t100.5 323
q0 209 -131.5 334t-351.5 125t-351.5 -125t-131.5 -334q0 -184 101 -323t274 -195v-237h-639zM98 16h574v181q-174 65 -274.5 209.5t-100.5 332.5q0 221 142 356.5t374 135.5t374 -135.5t142 -356.5q0 -188 -100.5 -332.5t-274.5 -209.5v-181h574v177h-311q140 76 225.5 227
t85.5 319q0 191 -92 344t-255.5 238.5t-367.5 85.5t-367.5 -85.5t-255.5 -238.5t-92 -344q0 -168 86 -319t226 -227h-312v-177z" />
    <glyph glyph-name="iotadieresistonos" unicode="&#x390;" horiz-adv-x="548" 
d="M-27 1573v237h600v-237h-600zM6 1606h535v172h-535v-172zM78 1206q-54 0 -92.5 37.5t-38.5 91.5t38.5 92.5t92.5 38.5t91.5 -38.5t37.5 -92.5q0 -53 -38.5 -91t-90.5 -38zM471 1206q-54 0 -92.5 37.5t-38.5 91.5t38.5 92.5t92.5 38.5t91.5 -38.5t37.5 -92.5
q0 -53 -38 -91t-91 -38zM78 1239q40 0 68 28t28 68t-28.5 69.5t-67.5 29.5q-41 0 -69.5 -29t-28.5 -70q0 -40 29 -68t69 -28zM471 1239q40 0 68 28t28 68t-28.5 69.5t-67.5 29.5q-41 0 -69.5 -29t-28.5 -70q0 -40 29 -68t69 -28zM147 -16v1091h254v-1091h-254zM180 16h189
v1026h-189v-1026z" />
    <glyph glyph-name="Alpha" unicode="&#x391;" horiz-adv-x="1490" 
d="M-12 -16l630 1423h254l631 -1423h-295l-135 329h-659l-140 -329h-286zM37 16h217l139 330h701l135 -330h225l-602 1358h-213zM461 522l284 674l281 -674h-565zM510 555h467l-232 555z" />
    <glyph glyph-name="Beta" unicode="&#x392;" horiz-adv-x="1384" 
d="M168 -16v1423h586q237 0 353 -92.5t116 -282.5q0 -97 -45.5 -168.5t-128.5 -103.5q116 -32 182.5 -122t66.5 -216q0 -211 -132 -324.5t-375 -113.5h-623zM201 16h590q230 0 352.5 105.5t122.5 300.5q0 131 -78.5 217.5t-210.5 99.5v33q100 17 156.5 86.5t56.5 173.5
q0 175 -106 258.5t-330 83.5h-553v-1358zM387 819v379h338q33 0 51.5 -0.5t52.5 -4t54 -10t46 -19.5t40 -32t24.5 -48.5t10.5 -67.5q0 -39 -10.5 -70t-26.5 -51.5t-41.5 -35t-49 -22t-56 -12t-55 -5.5t-52.5 -1h-326zM420 852h293q35 0 59.5 1.5t57.5 6.5t55.5 16t43.5 28
t31.5 45.5t10.5 66.5q0 31 -8.5 55.5t-20 40t-33.5 26t-39 16t-48 8t-47 3t-50 0.5h-305v-313zM387 193v460h387q289 0 289 -227q0 -114 -74.5 -173.5t-214.5 -59.5h-387zM420 225h354q256 0 256 201q0 100 -62.5 147.5t-193.5 47.5h-354v-396z" />
    <glyph glyph-name="Gamma" unicode="&#x393;" horiz-adv-x="1339" 
d="M168 -16v1423h1065v-242h-811v-1181h-254zM201 16h188v1182h811v176h-999v-1358z" />
    <glyph glyph-name="uni0394" unicode="&#x394;" horiz-adv-x="1519" 
d="M18 -16l615 1423h254l614 -1423h-1483zM68 16h1384l-586 1358h-213zM358 193l402 1005l395 -1005h-797zM408 225h698l-346 883z" />
    <glyph glyph-name="Epsilon" unicode="&#x395;" horiz-adv-x="1325" 
d="M168 -16v1423h1049v-242h-795v-303h633v-241h-633v-396h807v-241h-1061zM201 16h995v177h-807v460h633v176h-633v369h795v176h-983v-1358z" />
    <glyph glyph-name="Zeta" unicode="&#x396;" horiz-adv-x="1257" 
d="M45 -16v231l805 950h-766v242h1102v-231l-801 -951h827v-241h-1167zM78 16h1102v177h-865l838 995v186h-1036v-176h803l-842 -995v-187z" />
    <glyph glyph-name="Eta" unicode="&#x397;" horiz-adv-x="1540" 
d="M168 -16v1423h256v-545h692v545h256v-1423h-256v637h-692v-637h-256zM201 16h190v637h758v-637h190v1358h-190v-545h-758v545h-190v-1358z" />
    <glyph glyph-name="Theta" unicode="&#x398;" horiz-adv-x="1624" 
d="M811 -47q-211 0 -381.5 96.5t-267 266.5t-96.5 380t96.5 380.5t267 267t381.5 96.5q159 0 298 -56.5t237.5 -155t155.5 -237t57 -295.5q0 -210 -96.5 -380t-268 -266.5t-383.5 -96.5zM811 -14q203 0 367 92t256 254.5t92 363.5q0 151 -54 283t-148.5 226t-227.5 148
t-285 54t-284.5 -54t-226.5 -147.5t-148 -225.5t-54 -284t54 -284t148 -225.5t226.5 -147t284.5 -53.5zM307 825q38 187 174.5 296.5t329.5 109.5q192 0 327 -109.5t175 -296.5h-1006zM348 858h924q-46 160 -168.5 250t-292.5 90t-293.5 -91t-169.5 -249zM811 164
q-215 0 -357 133.5t-159 351.5h1030q-15 -218 -157 -351.5t-357 -133.5zM811 197q193 0 322.5 114t154.5 305h-956q26 -191 156 -305t323 -114z" />
    <glyph glyph-name="Iota" unicode="&#x399;" horiz-adv-x="591" 
d="M168 -16v1423h256v-1423h-256zM201 16h190v1358h-190v-1358z" />
    <glyph glyph-name="Kappa" unicode="&#x39a;" horiz-adv-x="1396" 
d="M168 -16v1423h254v-610l649 610h340l-635 -582l625 -841h-320l-487 669l-172 -161v-508h-254zM201 16h188v488l209 198l500 -686h237l-604 813l594 545h-242l-694 -655v655h-188v-1358z" />
    <glyph glyph-name="Lambda" unicode="&#x39b;" horiz-adv-x="1488" 
d="M18 -16l603 1423h253l596 -1423h-296l-426 1124l-443 -1124h-287zM68 16h217l463 1182l450 -1182h223l-567 1358h-213z" />
    <glyph glyph-name="Mu" unicode="&#x39c;" horiz-adv-x="1701" 
d="M168 -16v1423h305l375 -606l383 606h303v-1423h-254v1044l-319 -506h-224l-315 506v-1044h-254zM201 16h188v1127l365 -588h190l369 588v-1127h188v1358h-254l-399 -635l-391 635h-256v-1358z" />
    <glyph glyph-name="Nu" unicode="&#x39d;" horiz-adv-x="1579" 
d="M168 -16v1423h270l719 -1010v1010h254v-1423h-270l-719 1028v-1028h-254zM201 16h188v1098l768 -1098h221v1358h-188v-1079l-768 1079h-221v-1358z" />
    <glyph glyph-name="Xi" unicode="&#x39e;" horiz-adv-x="1441" 
d="M137 1165v242h1168v-242h-1168zM170 1198h1102v176h-1102v-176zM246 600v242h952v-242h-952zM279 633h886v176h-886v-176zM106 -16v241h1229v-241h-1229zM139 16h1164v177h-1164v-177z" />
    <glyph glyph-name="Omicron" unicode="&#x39f;" horiz-adv-x="1624" 
d="M813 -47q-212 0 -383 96.5t-267.5 266.5t-96.5 380t96.5 380.5t267.5 267t383 96.5q158 0 296.5 -56.5t237 -155t155.5 -237t57 -295.5q0 -210 -96.5 -380t-267.5 -266.5t-382 -96.5zM813 -14q152 0 284.5 53.5t226.5 147t148 225.5t54 284t-54 284t-148 225.5
t-226.5 147.5t-284.5 54t-285 -54t-227.5 -148t-148.5 -226t-54 -283q0 -201 92 -363.5t256 -254.5t367 -92zM813 164q-229 0 -372.5 148t-143.5 384t143.5 385.5t372.5 149.5q227 0 371.5 -150t144.5 -385q0 -233 -144.5 -382.5t-371.5 -149.5zM813 197q214 0 348.5 139
t134.5 360t-134.5 361.5t-348.5 140.5q-215 0 -349 -139.5t-134 -362.5t134 -361t349 -138z" />
    <glyph glyph-name="Pi" unicode="&#x3a0;" horiz-adv-x="1490" 
d="M168 -16v1423h1155v-1423h-254v1181h-647v-1181h-254zM201 16h188v1182h713v-1182h188v1358h-1089v-1358z" />
    <glyph glyph-name="Rho" unicode="&#x3a1;" horiz-adv-x="1409" 
d="M168 -16v1423h627q258 0 404.5 -139t146.5 -385q0 -238 -151.5 -381.5t-403.5 -143.5h-369v-374h-254zM201 16h188v375h402q238 0 380 134t142 358q0 232 -137 361.5t-381 129.5h-594v-1358zM387 563v635h393q166 0 251 -80.5t85 -238.5q0 -316 -336 -316h-393zM420 596
h360q153 0 228 70t75 213q0 286 -303 286h-360v-569z" />
    <glyph glyph-name="Sigma" unicode="&#x3a3;" horiz-adv-x="1220" 
d="M106 -16v223l531 479l-531 500v221h1035v-242h-690l419 -383v-192l-399 -365h694v-241h-1059zM139 16h994v177h-748l453 413v160l-473 432h743v176h-969v-176l547 -512l-547 -496v-174z" />
    <glyph glyph-name="Tau" unicode="&#x3a4;" horiz-adv-x="1318" 
d="M532 -16v1181h-487v242h1229v-242h-488v-1181h-254zM565 16h189v1182h487v176h-1163v-176h487v-1182z" />
    <glyph glyph-name="Upsilon" unicode="&#x3a5;" horiz-adv-x="1341" 
d="M543 -16v608l-555 815h293l391 -588l389 588h293l-553 -815v-608h-258zM575 16h193v584l524 774h-215l-405 -612l-408 612h-215l526 -774v-584z" />
    <glyph glyph-name="Phi" unicode="&#x3a6;" horiz-adv-x="1624" 
d="M811 -47q-211 0 -381.5 96.5t-267 266.5t-96.5 380t96.5 380.5t267 267t381.5 96.5q159 0 298 -56.5t237.5 -155t155.5 -237t57 -295.5q0 -210 -96.5 -380t-268 -266.5t-383.5 -96.5zM811 -14q203 0 367 92t256 254.5t92 363.5q0 151 -54 283t-148.5 226t-227.5 148
t-285 54t-284.5 -54t-226.5 -147.5t-148 -225.5t-54 -284t54 -284t148 -225.5t226.5 -147t284.5 -53.5zM723 170q-193 28 -310.5 172.5t-117.5 353.5q0 211 117 355t311 172v-1053zM899 170v1053q194 -28 311 -172t117 -355q0 -209 -117.5 -353.5t-310.5 -172.5zM690 209
v975q-166 -37 -264 -169t-98 -319q0 -186 98.5 -318t263.5 -169zM932 209q165 37 263.5 169t98.5 318q0 187 -98 319t-264 169v-975z" />
    <glyph glyph-name="Chi" unicode="&#x3a7;" horiz-adv-x="1456" 
d="M31 -16l538 749l-508 674h312l350 -483l354 483h312l-515 -674l551 -749h-311l-391 538l-381 -538h-311zM96 16h230l397 564l407 -564h230l-526 717l489 641h-229l-371 -508l-367 508h-229l483 -641z" />
    <glyph glyph-name="Psi" unicode="&#x3a8;" horiz-adv-x="1472" 
d="M608 -16v313q-226 37 -353.5 187t-127.5 380v543h256v-541q0 -117 58.5 -198t166.5 -115v854h256v-854q108 34 167 115.5t59 197.5v541h256v-543q0 -230 -128 -380t-354 -187v-313h-256zM641 16h190v310q226 28 354 170.5t128 367.5v510h-191v-508q0 -138 -76.5 -231.5
t-214.5 -124.5v864h-190v-864q-138 31 -214.5 124.5t-76.5 231.5v508h-190v-510q0 -226 127.5 -368t353.5 -170v-310z" />
    <glyph glyph-name="uni03A9" unicode="&#x3a9;" horiz-adv-x="1626" 
d="M66 -16v241h237q-109 91 -173 229t-64 285q0 200 96 360.5t267 250.5t384 90t384 -90t267.5 -250.5t96.5 -360.5q0 -147 -64.5 -285t-173.5 -229h238v-241h-639v237q173 56 273.5 195t100.5 323q0 209 -131.5 334t-351.5 125t-351.5 -125t-131.5 -334q0 -184 101 -323
t274 -195v-237h-639zM98 16h574v181q-174 65 -274.5 209.5t-100.5 332.5q0 221 142 356.5t374 135.5t374 -135.5t142 -356.5q0 -188 -100.5 -332.5t-274.5 -209.5v-181h574v177h-311q140 76 225.5 227t85.5 319q0 191 -92 344t-255.5 238.5t-367.5 85.5t-367.5 -85.5
t-255.5 -238.5t-92 -344q0 -168 86 -319t226 -227h-312v-177z" />
    <glyph glyph-name="Iotadieresis" unicode="&#x3aa;" horiz-adv-x="591" 
d="M100 1540q-54 0 -92.5 37.5t-38.5 91.5t38.5 92.5t92.5 38.5t91.5 -38.5t37.5 -92.5q0 -53 -38.5 -91t-90.5 -38zM494 1540q-54 0 -93 37.5t-39 91.5t39 92.5t93 38.5t91.5 -38.5t37.5 -92.5q0 -53 -38.5 -91t-90.5 -38zM100 1573q40 0 68.5 28t28.5 68t-28.5 69
t-68.5 29q-41 0 -69.5 -28.5t-28.5 -69.5q0 -40 29 -68t69 -28zM494 1573q40 0 68 28t28 68t-28 69t-68 29q-41 0 -70 -28.5t-29 -69.5q0 -39 29.5 -67.5t69.5 -28.5zM168 -16v1423h256v-1423h-256zM201 16h190v1358h-190v-1358z" />
    <glyph glyph-name="Upsilondieresis" unicode="&#x3ab;" horiz-adv-x="1341" 
d="M473 1540q-54 0 -92.5 37.5t-38.5 91.5t38.5 92.5t92.5 38.5t91.5 -38.5t37.5 -92.5q0 -53 -38 -91t-91 -38zM866 1540q-54 0 -92.5 37.5t-38.5 91.5t38.5 92.5t92.5 38.5t91.5 -38.5t37.5 -92.5q0 -53 -38.5 -91t-90.5 -38zM473 1573q40 0 68 28t28 68t-28 69t-68 29
q-41 0 -69.5 -28.5t-28.5 -69.5q0 -40 29 -68t69 -28zM866 1573q40 0 68.5 28t28.5 68t-28.5 69t-68.5 29q-41 0 -69.5 -28.5t-28.5 -69.5q0 -40 29 -68t69 -28zM543 -16v608l-555 815h293l391 -588l389 588h293l-553 -815v-608h-258zM575 16h193v584l524 774h-215
l-405 -612l-408 612h-215l526 -774v-584z" />
    <glyph glyph-name="alphatonos" unicode="&#x3ac;" horiz-adv-x="1384" 
d="M518 1182l201 383h315l-274 -383h-242zM571 1214h172l226 318h-230zM653 -47q-161 0 -296 76.5t-213 209t-78 291.5t78 291t213 208.5t296 76.5q92 0 199 -38.5t170 -109.5l4 119h254l-70 -547q0 -251 72 -550h-252q-15 60 -20 102q-64 -66 -165.5 -97.5t-191.5 -31.5z
M653 -14q69 0 140 16t141.5 60.5t99.5 111.5q6 -86 21 -162h186q-63 280 -63 523l65 509h-184l-10 -231q-3 64 -44.5 116t-103.5 82t-126.5 46t-121.5 16q-153 0 -280.5 -72t-201 -197t-73.5 -274q0 -150 73.5 -275t201 -197t280.5 -72zM651 150q-154 0 -261 111t-107 269
t107 268.5t261 110.5q166 0 268.5 -105t102.5 -274q0 -170 -102.5 -275t-268.5 -105zM651 182q152 0 245 95.5t93 252.5q0 156 -93 251.5t-245 95.5q-140 0 -238 -101t-98 -246t98 -246.5t238 -101.5z" />
    <glyph glyph-name="epsilontonos" unicode="&#x3ad;" horiz-adv-x="997" 
d="M403 1182l201 383h316l-275 -383h-242zM457 1214h172l225 318h-229zM541 -47q-229 0 -352 84t-123 242q0 95 55 169t151 109q-73 30 -121.5 98t-48.5 146q0 137 121.5 221t317.5 84q232 0 360 -88v-209l-27 -12q-37 27 -130.5 53.5t-178.5 26.5q-221 0 -221 -101
q0 -114 176 -114h180v-213h-211q-77 0 -126.5 -38t-49.5 -96q0 -135 240 -135q79 0 167.5 27.5t137.5 54.5l49 27l25 -15v-213q-52 -45 -175.5 -76.5t-215.5 -31.5zM541 -14q84 0 194 26.5t164 65.5v168q-195 -99 -346 -99q-132 0 -202 43t-70 125q0 72 58.5 119t149.5 47
h179v148h-148q-102 0 -155.5 37.5t-53.5 109.5q0 133 254 133q78 0 164.5 -22t138.5 -49v163q-122 72 -327 72q-183 0 -294.5 -75t-111.5 -197q0 -83 60 -150t143 -76l2 -32q-112 -23 -177 -94t-65 -170q0 -143 113.5 -218t329.5 -75z" />
    <glyph glyph-name="etatonos" unicode="&#x3ae;" horiz-adv-x="1284" 
d="M584 1182l200 383h316l-275 -383h-241zM637 1214h172l225 318h-229zM903 -457v1086q0 118 -58 184t-161 66q-126 0 -204.5 -78.5t-78.5 -204.5v-612h-254v1093h254v-96q107 127 316 127q201 0 320.5 -125t119.5 -332v-1108h-254zM936 -424h188v1075q0 194 -110 309
t-297 115q-70 0 -128.5 -16t-92 -38.5t-57 -44.5t-31.5 -38l-9 -16l-30 6v116h-189v-1028h189v580q0 139 88.5 227t226.5 88q117 0 184.5 -75.5t67.5 -206.5v-1053z" />
    <glyph glyph-name="iotatonos" unicode="&#x3af;" horiz-adv-x="548" 
d="M139 1182l201 383h315l-274 -383h-242zM193 1214h172l225 318h-230zM147 -16v1091h254v-1091h-254zM180 16h189v1026h-189v-1026z" />
    <glyph glyph-name="upsilondieresistonos" unicode="&#x3b0;" horiz-adv-x="1249" 
d="M324 1573v237h600v-237h-600zM356 1606h535v172h-535v-172zM428 1206q-54 0 -92.5 37.5t-38.5 91.5t38.5 92.5t92.5 38.5t91.5 -38.5t37.5 -92.5q0 -53 -38.5 -91t-90.5 -38zM821 1206q-54 0 -92.5 37.5t-38.5 91.5t38.5 92.5t92.5 38.5t91.5 -38.5t37.5 -92.5
q0 -53 -38 -91t-91 -38zM428 1239q40 0 68 28t28 68t-28.5 69.5t-67.5 29.5q-41 0 -69.5 -29t-28.5 -70q0 -40 29 -68t69 -28zM821 1239q40 0 68.5 28t28.5 68t-28.5 69.5t-68.5 29.5q-41 0 -69.5 -29t-28.5 -70q0 -40 29 -68t69 -28zM625 -49q-498 0 -498 477v647h254v-657
q0 -18 2.5 -39.5t16.5 -60t38 -67.5t72.5 -51t114.5 -22t114.5 22t72 51t37.5 67.5t16.5 59.5t2.5 40v657h254v-647q0 -477 -497 -477zM625 -16q39 0 68.5 1.5t81 11t90 25.5t83.5 49t74 78.5t48.5 117.5t19.5 161v614h-189v-624q0 -12 -1 -27t-7 -43t-16.5 -53t-31.5 -53.5
t-49 -49t-72.5 -34t-98.5 -13.5q-63 0 -112.5 17t-78 46t-47.5 59t-26.5 64.5t-10 53t-2.5 33.5v624h-188v-614q0 -89 19.5 -161t48.5 -117.5t74 -78.5t83.5 -49t90 -25.5t81 -11t68.5 -1.5z" />
    <glyph glyph-name="alpha" unicode="&#x3b1;" horiz-adv-x="1384" 
d="M653 -47q-161 0 -296 76.5t-213 209t-78 291.5t78 291t213 208.5t296 76.5q92 0 199 -38.5t170 -109.5l4 119h254l-70 -547q0 -251 72 -550h-252q-15 60 -20 102q-64 -66 -165.5 -97.5t-191.5 -31.5zM653 -14q69 0 140 16t141.5 60.5t99.5 111.5q6 -86 21 -162h186
q-63 280 -63 523l65 509h-184l-10 -231q-3 64 -44.5 116t-103.5 82t-126.5 46t-121.5 16q-153 0 -280.5 -72t-201 -197t-73.5 -274q0 -150 73.5 -275t201 -197t280.5 -72zM651 150q-154 0 -261 111t-107 269t107 268.5t261 110.5q166 0 268.5 -105t102.5 -274
q0 -170 -102.5 -275t-268.5 -105zM651 182q152 0 245 95.5t93 252.5q0 156 -93 251.5t-245 95.5q-140 0 -238 -101t-98 -246t98 -246.5t238 -101.5z" />
    <glyph glyph-name="beta" unicode="&#x3b2;" horiz-adv-x="1243" 
d="M854 754q137 -46 220 -145t83 -220q0 -195 -134 -313.5t-355 -118.5q-144 0 -279 72l10 -6v-482h-252v1405q0 227 131 363.5t349 136.5q211 0 324.5 -101.5t113.5 -289.5q0 -107 -57 -188t-154 -113zM668 -10q207 0 331.5 109t124.5 290q0 141 -122.5 246t-307.5 115
l2 18q147 -13 241.5 69.5t94.5 217.5q0 175 -103.5 266.5t-301.5 91.5q-206 0 -326.5 -126t-120.5 -341v-1372h187v502l32 -17q135 -69 269 -69zM614 657q134 0 226 -78.5t92 -195.5q0 -108 -72 -172t-192 -64q-97 0 -179 36t-122 79v705q0 131 73 215t187 84
q112 0 170.5 -55t58.5 -158q0 -107 -70.5 -172t-189.5 -70v-154h18zM668 180q41 0 78.5 9.5t73.5 31t57.5 63t21.5 99.5q0 103 -82.5 172.5t-202.5 69.5h-51v219q120 -5 190 51.5t70 157.5q0 180 -196 180q-100 0 -164 -74.5t-64 -191.5v-693q45 -42 119 -68t150 -26z" />
    <glyph glyph-name="gamma" unicode="&#x3b3;" horiz-adv-x="1060" 
d="M401 -459v457l-405 1077h268l266 -794l267 794h268l-406 -1077v-457h-258zM434 -426h193v428l389 1040h-195l-291 -864l-290 864h-195l389 -1040v-428z" />
    <glyph glyph-name="delta" unicode="&#x3b4;" horiz-adv-x="1101" 
d="M571 -47q-138 0 -254.5 65t-183.5 177.5t-67 246.5q0 174 114 309.5t289 170.5l-287 280v203h830v-213h-502l381 -369h-2q89 -69 138.5 -169t49.5 -212q0 -134 -67.5 -246.5t-184 -177.5t-254.5 -65zM571 -14q197 0 335 133t138 323q0 105 -46 198t-130 159h-2l-438 426
h551v147h-764v-158l326 -315q-188 -12 -315.5 -144.5t-127.5 -312.5q0 -190 138 -323t335 -133zM571 150q-117 0 -197.5 84.5t-80.5 207.5t80.5 208t197.5 85t198 -85t81 -208t-81 -207.5t-198 -84.5zM571 182q104 0 175 75t71 185q0 109 -71.5 184.5t-174.5 75.5
t-174 -75.5t-71 -184.5q0 -110 70.5 -185t174.5 -75z" />
    <glyph glyph-name="epsilon" unicode="&#x3b5;" horiz-adv-x="997" 
d="M541 -47q-229 0 -352 84t-123 242q0 95 55 169t151 109q-73 30 -121.5 98t-48.5 146q0 137 121.5 221t317.5 84q232 0 360 -88v-209l-27 -12q-37 27 -130.5 53.5t-178.5 26.5q-221 0 -221 -101q0 -114 176 -114h180v-213h-211q-77 0 -126.5 -38t-49.5 -96
q0 -135 240 -135q79 0 167.5 27.5t137.5 54.5l49 27l25 -15v-213q-52 -45 -175.5 -76.5t-215.5 -31.5zM541 -14q84 0 194 26.5t164 65.5v168q-195 -99 -346 -99q-132 0 -202 43t-70 125q0 72 58.5 119t149.5 47h179v148h-148q-102 0 -155.5 37.5t-53.5 109.5q0 133 254 133
q78 0 164.5 -22t138.5 -49v163q-122 72 -327 72q-183 0 -294.5 -75t-111.5 -197q0 -83 60 -150t143 -76l2 -32q-112 -23 -177 -94t-65 -170q0 -143 113.5 -218t329.5 -75z" />
    <glyph glyph-name="zeta" unicode="&#x3b6;" horiz-adv-x="966" 
d="M647 -459v412q-159 4 -287.5 79.5t-201 205.5t-72.5 290q0 392 434 666h-373v213h752v-207q-305 -178 -432 -331.5t-127 -340.5q0 -144 103 -249t243 -105q63 0 102.5 10.5t68.5 27.5t44 21v-692h-254zM680 -426h188v606q-80 -39 -182 -39q-154 0 -266.5 114.5
t-112.5 272.5q0 193 129 353t430 340v153h-686v-147h459q-263 -143 -391.5 -315.5t-128.5 -383.5q0 -117 43 -219t117.5 -174t178.5 -112t222 -37v-412z" />
    <glyph glyph-name="eta" unicode="&#x3b7;" horiz-adv-x="1284" 
d="M903 -457v1086q0 118 -58 184t-161 66q-126 0 -204.5 -78.5t-78.5 -204.5v-612h-254v1093h254v-96q107 127 316 127q201 0 320.5 -125t119.5 -332v-1108h-254zM936 -424h188v1075q0 194 -110 309t-297 115q-70 0 -128.5 -16t-92 -38.5t-57 -44.5t-31.5 -38l-9 -16l-30 6
v116h-189v-1028h189v580q0 139 88.5 227t226.5 88q117 0 184.5 -75.5t67.5 -206.5v-1053z" />
    <glyph glyph-name="theta" unicode="&#x3b8;" horiz-adv-x="1142" 
d="M571 -47q-233 0 -359 193t-126 550q0 356 126 550t359 194q234 0 360 -193t126 -551q0 -356 -126.5 -549.5t-359.5 -193.5zM571 -14q219 0 336 183.5t117 526.5q0 344 -116.5 527.5t-336.5 183.5q-217 0 -334.5 -184.5t-117.5 -526.5q0 -343 116.5 -526.5t335.5 -183.5z
M301 813q2 54 6.5 100t15.5 99t30.5 93t47.5 74.5t71.5 53t98.5 18.5q65 0 113.5 -28t76.5 -70t46 -103.5t24.5 -116t8.5 -120.5h-539zM334 846h473q-11 191 -68.5 282t-167.5 91q-112 0 -169 -90.5t-68 -282.5zM571 141q-54 0 -97.5 19.5t-71.5 48.5t-48 76t-30.5 89
t-16.5 101t-7 98t-1 93h543q-1 -56 -2 -93.5t-7 -97.5t-16.5 -101t-30.5 -88.5t-48 -76.5t-70.5 -48.5t-96.5 -19.5zM571 174q45 0 81 15.5t60 40t42 63t28 76t16.5 87t8.5 89t2 88.5h-477q0 -57 3 -103.5t10.5 -103t24.5 -98.5t42.5 -78.5t66 -56t92.5 -19.5z" />
    <glyph glyph-name="iota" unicode="&#x3b9;" horiz-adv-x="548" 
d="M147 -16v1091h254v-1091h-254zM180 16h189v1026h-189v-1026z" />
    <glyph glyph-name="kappa" unicode="&#x3ba;" horiz-adv-x="1118" 
d="M147 -16v1091h254v-430l394 430h297l-387 -413l444 -678h-291l-317 512l-140 -146v-366h-254zM180 16h189v346l176 187l329 -533h213l-423 650l354 376h-207l-442 -483v483h-189v-1026z" />
    <glyph glyph-name="lambda" unicode="&#x3bb;" horiz-adv-x="1175" 
d="M16 -12l445 1052l-142 367h246l594 -1419h-266l-307 768l-303 -768h-267zM66 20h196l324 826l327 -826h197l-565 1354h-176l129 -334z" />
    <glyph glyph-name="uni03BC" unicode="&#x3bc;" horiz-adv-x="1288" 
d="M147 -459v1534h254v-581q0 -138 62 -210.5t180 -72.5q244 0 244 283v581h254v-1091h-254v116q-95 -118 -293 -118q-55 0 -107 19.5t-86 51.5v-512h-254zM180 -426h189v526l30 9q22 -40 77.5 -67.5t117.5 -27.5q64 0 117.5 14.5t83 32.5t52.5 43t30 38t12 24l31 -6v-144
h188v1026h-188v-548q0 -155 -70.5 -235.5t-206.5 -80.5q-132 0 -203 82t-71 234v548h-189v-1468z" />
    <glyph glyph-name="nu" unicode="&#x3bd;" horiz-adv-x="1101" 
d="M451 -16l-435 1087h269l266 -725l266 725h268l-434 -1087h-200zM471 16h160l405 1022h-194l-291 -786l-291 786h-194z" />
    <glyph glyph-name="xi" unicode="&#x3be;" horiz-adv-x="976" 
d="M680 -459v418q-55 -8 -113 -8q-231 0 -366 116.5t-135 315.5q0 122 80 223t208 142q-86 43 -141 131.5t-55 185.5q0 163 115.5 268t293.5 105q112 0 183.5 -28t134.5 -79v-237q-14 9 -56 38.5t-66.5 44t-71 28.5t-97.5 14q-89 0 -137.5 -42.5t-48.5 -117.5
q0 -100 66 -164t171 -64h143v-213h-157q-151 0 -228 -60t-77 -177q0 -96 63 -148.5t178 -52.5q92 0 195.5 15t146.5 34l23 -14v-674h-252zM713 -426h186v616q-55 -19 -150 -31t-182 -12q-127 0 -200.5 62.5t-73.5 171.5q0 132 87 201t251 69h125v148h-111q-120 0 -195 73
t-75 187q0 89 59 140.5t160 51.5q57 0 109.5 -16.5t80 -32.5t68.5 -45v158q-56 45 -119.5 67.5t-165.5 22.5q-164 0 -270.5 -96t-106.5 -244q0 -118 85 -216t196 -104q-158 -17 -265.5 -121.5t-107.5 -240.5q0 -185 125.5 -292t343.5 -107q48 0 146 12v-422z" />
    <glyph glyph-name="omicron" unicode="&#x3bf;" horiz-adv-x="1323" 
d="M662 -47q-122 0 -232 45.5t-190 122t-127 183t-47 224.5q0 157 79.5 290t217 210.5t299.5 77.5t299 -77.5t216.5 -210.5t79.5 -290t-79.5 -289.5t-216.5 -209t-299 -76.5zM662 -14q153 0 282.5 72t205 197t75.5 273t-75.5 273.5t-205 198.5t-282.5 73t-283 -73
t-205.5 -198.5t-75.5 -273.5q0 -111 44.5 -211.5t120.5 -173t180 -115t219 -42.5zM662 152q-160 0 -268.5 108t-108.5 268q0 161 108.5 270t268.5 109t268 -109t108 -270q0 -160 -108 -268t-268 -108zM662 184q146 0 245 99t99 245q0 148 -99 247t-245 99t-245.5 -99
t-99.5 -247q0 -146 99.5 -245t245.5 -99z" />
    <glyph glyph-name="pi" unicode="&#x3c0;" horiz-adv-x="1331" 
d="M293 -16v878h-227v213h1200v-213h-222v-878h-253v878h-244v-878h-254zM326 16h188v879h309v-879h189v879h221v147h-1135v-147h228v-879z" />
    <glyph glyph-name="rho" unicode="&#x3c1;" horiz-adv-x="1355" 
d="M127 -459v953q0 278 162.5 445t433.5 167q156 0 286.5 -76.5t205.5 -208.5t75 -291q0 -162 -74 -294t-204.5 -207.5t-290.5 -75.5q-218 0 -340 119v-531h-254zM160 -426h188v602q42 -92 139.5 -141t233.5 -49q150 0 273 71t193 196t70 277q0 149 -70.5 274t-193.5 197
t-270 72q-258 0 -410.5 -157t-152.5 -422v-920zM727 150q-169 0 -277 106.5t-108 273.5q0 166 108 272.5t277 106.5q149 0 245.5 -108t96.5 -271q0 -165 -96.5 -272.5t-245.5 -107.5zM727 182q134 0 221.5 98.5t87.5 249.5t-87 249t-222 98q-155 0 -253.5 -97.5
t-98.5 -249.5q0 -154 98.5 -251t253.5 -97z" />
    <glyph glyph-name="uni03C2" unicode="&#x3c2;" horiz-adv-x="1101" 
d="M485 -475v229q169 -1 236 23t67 84q0 92 -167 92q-253 0 -404 157t-151 418q0 122 45.5 229.5t124 184t189.5 120.5t237 44q175 0 311 -76v-256q-136 105 -311 105q-146 0 -244.5 -101t-98.5 -250q0 -158 82.5 -253t219.5 -95q190 0 302.5 -88.5t112.5 -238.5
q0 -334 -551 -328zM518 -442q248 3 367 75t119 220q0 135 -104 214.5t-279 79.5q-151 0 -242.5 104.5t-91.5 276.5q0 162 108 272.5t267 110.5q148 0 278 -73v172q-123 63 -278 63q-160 0 -289 -71t-202 -195.5t-73 -278.5q0 -249 142 -395.5t381 -146.5q200 0 200 -125
q0 -42 -22 -70.5t-65.5 -43t-93.5 -20t-122 -6.5v-163z" />
    <glyph glyph-name="sigma" unicode="&#x3c3;" horiz-adv-x="1372" 
d="M649 -47q-253 0 -418 159t-165 402q0 77 20 153.5t65.5 151t112 131t168 91t225.5 34.5h629v-213h-209q59 -38 96 -107.5t48.5 -128t11.5 -112.5q0 -161 -74.5 -289t-208 -200t-301.5 -72zM649 -14q241 0 396 148.5t155 379.5q0 45 -8.5 92.5t-29 101.5t-63.5 96t-102 58
l4 33h252v147h-596q-118 0 -214.5 -32t-159 -84.5t-105.5 -122t-61.5 -142t-18.5 -147.5q0 -230 156 -379t395 -149zM649 152q-166 0 -265 99t-99 263q0 167 98.5 266t265.5 99q161 0 264 -102.5t103 -262.5q0 -166 -100 -264t-267 -98zM649 184q154 0 244 89t90 241
q0 146 -93 239t-241 93q-154 0 -243 -89t-89 -243q0 -151 90 -240.5t242 -89.5z" />
    <glyph glyph-name="tau" unicode="&#x3c4;" horiz-adv-x="1148" 
d="M451 -16v878h-385v213h1017v-213h-378v-878h-254zM483 16h189v879h379v147h-953v-147h385v-879z" />
    <glyph glyph-name="upsilon" unicode="&#x3c5;" horiz-adv-x="1249" 
d="M625 -49q-498 0 -498 477v647h254v-657q0 -18 2.5 -39.5t16.5 -60t38 -67.5t72.5 -51t114.5 -22t114.5 22t72 51t37.5 67.5t16.5 59.5t2.5 40v657h254v-647q0 -477 -497 -477zM625 -16q39 0 68.5 1.5t81 11t90 25.5t83.5 49t74 78.5t48.5 117.5t19.5 161v614h-189v-624
q0 -12 -1 -27t-7 -43t-16.5 -53t-31.5 -53.5t-49 -49t-72.5 -34t-98.5 -13.5q-63 0 -112.5 17t-78 46t-47.5 59t-26.5 64.5t-10 53t-2.5 33.5v624h-188v-614q0 -89 19.5 -161t48.5 -117.5t74 -78.5t83.5 -49t90 -25.5t81 -11t68.5 -1.5z" />
    <glyph glyph-name="phi" unicode="&#x3c6;" horiz-adv-x="1523" 
d="M633 -459v412q-242 11 -404.5 171t-162.5 388q0 204 132.5 354.5t352.5 194.5v-227q-234 -81 -234 -322q0 -135 88 -226t228 -102v871l16 16q102 6 213 6q259 0 427.5 -160.5t168.5 -406.5q0 -144 -78 -270.5t-209.5 -203.5t-283.5 -83v-412h-254zM666 -426h188v412
q112 -1 217.5 40.5t183 112.5t124 168.5t46.5 202.5q0 232 -158.5 383t-404.5 151q-97 0 -196 -6v-886q-165 -1 -273 101t-108 259q0 252 233 346v162q-192 -51 -306 -188t-114 -320q0 -146 75 -267.5t205.5 -190.5t287.5 -68v-412zM854 152v745q180 1 282.5 -101
t102.5 -284q0 -159 -109 -261t-276 -99zM887 184q141 9 230 100.5t89 227.5q0 158 -84 251.5t-235 100.5v-680z" />
    <glyph glyph-name="chi" unicode="&#x3c7;" horiz-adv-x="1075" 
d="M-27 -459l406 836l-338 698h276l228 -485l211 485h278l-338 -710l406 -824h-279l-286 604l-285 -604h-279zM27 -426h204l306 649l307 -649h205l-390 791l322 677h-205l-231 -530l-248 530h-203l322 -665z" />
    <glyph glyph-name="psi" unicode="&#x3c8;" horiz-adv-x="1468" 
d="M608 -459v410q-36 1 -72.5 5.5t-86 18t-92 34.5t-86.5 58t-74.5 85t-50 119t-19.5 157v647h254v-657q0 -18 2 -38t15 -58t35 -66t67.5 -51.5t107.5 -26.5v897h254v-897q103 9 164 74.5t61 169.5v653h254v-647q0 -85 -19.5 -156t-50 -119t-73.5 -85t-86 -58t-92 -35
t-85.5 -18.5t-72.5 -5.5v-410h-254zM641 -426h188v410q31 -1 64.5 1t82.5 12t92.5 27.5t89 51.5t78 79.5t53 116t20.5 156.5v614h-189v-620q0 -126 -80 -202.5t-211 -74.5v897h-188v-897q-58 -2 -104.5 10.5t-76.5 32.5t-52 48.5t-33 54t-17.5 54.5t-8 44.5t-1.5 28.5v624
h-188v-614q0 -87 21 -157.5t53 -116t78 -79t89 -50.5t93 -27t82.5 -12.5t64.5 -1.5v-410z" />
    <glyph glyph-name="omega" unicode="&#x3c9;" horiz-adv-x="1396" 
d="M426 -49q-167 0 -263.5 176t-96.5 481q0 117 18 231.5t36 170.5l19 55l15 10h233q-65 -246 -65 -473q0 -203 33 -313.5t94 -110.5q65 0 93.5 61.5t28.5 200.5v394h254v-394q0 -139 29 -200.5t94 -61.5q61 0 94 110.5t33 313.5q0 227 -65 473h233l14 -10q8 -22 20.5 -61
t33 -159t20.5 -237q0 -305 -96.5 -481t-263.5 -176q-89 0 -162 46t-111 126q-38 -80 -110.5 -126t-161.5 -46zM426 -16q105 0 181 70t91 184q15 -114 91.5 -184t181.5 -70q152 0 239.5 167t87.5 457q0 101 -14.5 201.5t-27.5 150.5t-25 82h-180q57 -224 57 -440
q0 -457 -160 -457q-82 0 -118.5 70.5t-36.5 224.5v361h-189v-361q0 -154 -36.5 -224.5t-118.5 -70.5q-160 0 -160 457q0 216 57 440h-180q-12 -33 -25.5 -82t-28 -150t-14.5 -202q0 -290 88 -457t240 -167z" />
    <glyph glyph-name="iotadieresis" unicode="&#x3ca;" horiz-adv-x="548" 
d="M78 1206q-54 0 -92.5 37.5t-38.5 91.5t38.5 92.5t92.5 38.5t91.5 -38.5t37.5 -92.5q0 -53 -38.5 -91t-90.5 -38zM471 1206q-54 0 -92.5 37.5t-38.5 91.5t38.5 92.5t92.5 38.5t91.5 -38.5t37.5 -92.5q0 -53 -38 -91t-91 -38zM78 1239q40 0 68 28t28 68t-28.5 69.5
t-67.5 29.5q-41 0 -69.5 -29t-28.5 -70q0 -40 29 -68t69 -28zM471 1239q40 0 68 28t28 68t-28.5 69.5t-67.5 29.5q-41 0 -69.5 -29t-28.5 -70q0 -40 29 -68t69 -28zM147 -16v1091h254v-1091h-254zM180 16h189v1026h-189v-1026z" />
    <glyph glyph-name="upsilondieresis" unicode="&#x3cb;" horiz-adv-x="1249" 
d="M428 1206q-54 0 -92.5 37.5t-38.5 91.5t38.5 92.5t92.5 38.5t91.5 -38.5t37.5 -92.5q0 -53 -38.5 -91t-90.5 -38zM821 1206q-54 0 -92.5 37.5t-38.5 91.5t38.5 92.5t92.5 38.5t91.5 -38.5t37.5 -92.5q0 -53 -38 -91t-91 -38zM428 1239q40 0 68 28t28 68t-28.5 69.5
t-67.5 29.5q-41 0 -69.5 -29t-28.5 -70q0 -40 29 -68t69 -28zM821 1239q40 0 68.5 28t28.5 68t-28.5 69.5t-68.5 29.5q-41 0 -69.5 -29t-28.5 -70q0 -40 29 -68t69 -28zM625 -49q-498 0 -498 477v647h254v-657q0 -18 2.5 -39.5t16.5 -60t38 -67.5t72.5 -51t114.5 -22
t114.5 22t72 51t37.5 67.5t16.5 59.5t2.5 40v657h254v-647q0 -477 -497 -477zM625 -16q39 0 68.5 1.5t81 11t90 25.5t83.5 49t74 78.5t48.5 117.5t19.5 161v614h-189v-624q0 -12 -1 -27t-7 -43t-16.5 -53t-31.5 -53.5t-49 -49t-72.5 -34t-98.5 -13.5q-63 0 -112.5 17t-78 46
t-47.5 59t-26.5 64.5t-10 53t-2.5 33.5v624h-188v-614q0 -89 19.5 -161t48.5 -117.5t74 -78.5t83.5 -49t90 -25.5t81 -11t68.5 -1.5z" />
    </font>
</defs>
</svg>
