<?xml version="1.0" standalone="no"?>
<!DOCTYPE svg PUBLIC "-//W3C//DTD SVG 1.1//EN" "http://www.w3.org/Graphics/SVG/1.1/DTD/svg11.dtd" >
<svg xmlns="http://www.w3.org/2000/svg" xmlns:xlink="http://www.w3.org/1999/xlink" version="1.1">
<metadata>
Created by FontForge 20170731 at Mon Sep 26 19:51:27 2011
 By Aleksey,,,
Copyright 2011 Canonical Ltd.  Licensed under the Ubuntu Font Licence 1.0
</metadata>
<defs>
<font id="UbuntuMono-Bold" horiz-adv-x="500" >
  <font-face 
    font-family="Ubuntu Mono"
    font-weight="700"
    font-stretch="normal"
    units-per-em="1000"
    panose-1="2 11 8 9 3 6 2 3 2 4"
    ascent="800"
    descent="-200"
    x-height="470"
    cap-height="619"
    bbox="-386 -170 665 831"
    underline-thickness="20"
    underline-position="-153"
    unicode-range="U+0008-FFFD"
  />
<missing-glyph 
d="M50 0v750h400v-750h-400zM400 50v650h-300v-650h300z" />
    <glyph glyph-name=".notdef" 
d="M50 0v750h400v-750h-400zM400 50v650h-300v-650h300z" />
    <glyph glyph-name=".null" 
 />
    <glyph glyph-name=".null" 
 />
    <glyph glyph-name=".null" 
 />
    <glyph glyph-name="nonmarkingreturn" unicode="&#x9;" 
 />
    <glyph glyph-name="nonmarkingreturn" unicode="&#xd;" 
 />
    <glyph glyph-name="space" unicode=" " 
 />
    <glyph glyph-name="exclam" unicode="!" 
d="M321 455q0 -36 -1.5 -64.5t-4 -55t-6 -52.5t-7.5 -58h-102q-5 32 -8.5 58.5t-6.5 52.5t-4.5 54.5t-1.5 64.5v164h142v-164zM333 71q0 -39 -25.5 -61t-57.5 -22t-57.5 22t-25.5 61q0 38 25.5 60t57.5 22t57.5 -22t25.5 -60z" />
    <glyph glyph-name="quotedbl" unicode="&#x22;" 
d="M415 679v-49q0 -25 -2.5 -54.5t-7 -60.5t-9.5 -61t-10 -56h-72q-5 26 -10 56t-9.5 61t-7.5 61t-3 55v48h131zM218 679v-49q0 -25 -2.5 -54.5t-7 -60.5t-10 -61t-10.5 -56h-71q-5 26 -10 56t-9.5 61t-7.5 61t-3 55v48h131z" />
    <glyph glyph-name="numbersign" unicode="#" 
d="M138 467l29 152h102l-30 -152h80l29 152h102l-29 -152h62v-102h-82l-21 -110h103v-102h-122l-29 -153h-102l29 153h-80l-28 -153h-102l29 153h-60v102h79l21 110h-100v102h120zM199 255h80l20 110h-79z" />
    <glyph glyph-name="dollar" unicode="$" 
d="M193 9q-63 6 -101.5 20t-57.5 25l38 98q32 -15 75 -27.5t91 -12.5q56 0 78 14.5t22 45.5q0 18 -8.5 31t-25 23.5t-40.5 19t-54 19.5q-29 10 -57 23t-50 31.5t-35.5 45t-13.5 65.5q0 28 7.5 54t24 48t43.5 38.5t66 25.5v97h114v-92q46 -4 81.5 -14t55.5 -18l-28 -103
q-29 12 -68.5 21.5t-81.5 9.5q-48 0 -66.5 -17t-18.5 -40q0 -16 6.5 -26.5t20 -18.5t32.5 -15.5t45 -16.5q39 -15 72 -31.5t57 -38t37.5 -50.5t13.5 -68q0 -27 -8 -53.5t-26.5 -49t-49 -39t-76.5 -23.5v-107h-114v106z" />
    <glyph glyph-name="percent" unicode="%" 
d="M91 0h-89l407 619h89zM265 142q0 76 30 115.5t82 39.5q53 0 83 -39.5t30 -115.5t-30 -115.5t-83 -39.5q-52 0 -82 39.5t-30 115.5zM410 142q0 42 -10 60t-24 18t-22.5 -18t-8.5 -60t8.5 -59t22.5 -17t24 17t10 59zM10 478q0 76 30 115.5t81 39.5q54 0 84 -39.5t30 -115.5
t-30 -116t-84 -40q-51 0 -81 40t-30 116zM154 478q0 42 -10 59.5t-23 17.5q-14 0 -23 -17.5t-9 -59.5t9 -59t23 -17q13 0 23 17t10 59z" />
    <glyph glyph-name="ampersand" unicode="&#x26;" 
d="M365 0q-11 29 -24 53q-34 -30 -70 -45.5t-71 -15.5q-45 0 -78.5 14t-56 37.5t-33.5 54.5t-11 65q0 48 24.5 91.5t73.5 73.5q-24 33 -39.5 69t-15.5 75q0 40 14 70.5t37 50.5t51.5 30t58.5 10q28 0 55 -9t48 -26.5t34 -44t13 -61.5q0 -48 -29 -93.5t-91 -77.5
q20 -24 42 -49t45 -51q14 51 15 121l102 -13q-1 -56 -14.5 -104t-34.5 -87q24 -33 43 -68t29 -70h-117zM292 125q-28 35 -58 68t-59 65q-22 -15 -35.5 -36.5t-13.5 -52.5q0 -34 17.5 -59t59.5 -25q23 0 46 9t43 31zM170 478q0 -22 9 -44.5t25 -46.5q32 18 49 47.5t17 56.5
q0 26 -12.5 39.5t-32.5 13.5q-25 0 -40 -17t-15 -49z" />
    <glyph glyph-name="quotesingle" unicode="'" 
d="M317 679v-66q0 -25 -2.5 -54.5t-7 -60.5t-9.5 -61.5t-10 -56.5h-72q-5 26 -10 56.5t-9.5 61.5t-7.5 60.5t-3 54.5v66h131z" />
    <glyph glyph-name="parenleft" unicode="(" 
d="M208 266q0 -123 54.5 -213.5t150.5 -146.5l-57 -76q-136 75 -199 187t-63 249q0 138 65 253.5t201 190.5l57 -76q-96 -56 -152.5 -150t-56.5 -218z" />
    <glyph glyph-name="parenright" unicode=")" 
d="M294 266q0 124 -56.5 218t-152.5 150l57 76q136 -75 201 -190.5t65 -253.5q0 -137 -63 -249t-199 -187l-57 76q96 56 150.5 146.5t54.5 213.5z" />
    <glyph glyph-name="asterisk" unicode="*" 
d="M252 374q-3 -12 -9 -29t-12.5 -34t-14 -32t-14.5 -25l-19 -25l-94 67l19 25q7 10 19.5 22t26 24t27.5 22.5t24 17.5h-30.5t-35.5 1.5t-35 4.5t-28 7l-30 10l37 109l30 -9q11 -4 26 -12.5t30 -18.5t29.5 -20t24.5 -18q-4 12 -9 28.5t-9.5 34.5t-7.5 35t-3 29v31h116v-31
q0 -12 -3 -29t-7.5 -35t-10 -34.5l-9.5 -28.5q10 7 25 17t30.5 19.5t30.5 17.5t27 12l29 10l36 -111l-30 -9q-12 -4 -29 -6t-35 -3.5t-35.5 -1.5h-30.5q11 -7 25 -17.5t28 -22t26 -23.5t19 -22l19 -25l-94 -68l-18 25q-7 10 -14.5 25t-14.5 32.5t-12.5 34t-9.5 29.5z" />
    <glyph glyph-name="plus" unicode="+" 
d="M40 313h157v174h106v-174h157v-101h-157v-174h-106v174h-157v101z" />
    <glyph glyph-name="comma" unicode="," 
d="M126 -73q18 4 36.5 7t35 9t29.5 17t21 30q-38 4 -59 30t-21 58q0 39 25.5 64t64.5 25q42 0 65.5 -28t23.5 -76q0 -35 -11 -70t-35.5 -65t-63.5 -52t-95 -29z" />
    <glyph glyph-name="hyphen" unicode="-" 
d="M113 317h274v-121h-274v121z" />
    <glyph glyph-name="period" unicode="." 
d="M340 79q0 -44 -27 -67t-62 -23q-18 0 -34 6t-28.5 17.5t-20 28t-7.5 38.5q0 21 7.5 37.5t20 27.5t28.5 17t34 6q35 0 62 -23t27 -65z" />
    <glyph glyph-name="slash" unicode="/" 
d="M175 -165h-128l280 864h126z" />
    <glyph glyph-name="zero" unicode="0" 
d="M465 311q0 -164 -55 -244t-160 -80t-160 80t-55 244q0 162 56 242t159 80q105 0 160 -79.5t55 -242.5zM354 311q0 106 -26.5 161.5t-77.5 55.5q-50 0 -77 -55.5t-27 -161.5q0 -107 27 -162.5t77 -55.5q51 0 77.5 55.5t26.5 162.5zM306 321q0 -27 -15.5 -46.5t-39.5 -19.5
q-26 0 -41 19.5t-15 46.5t15 47t41 20q24 0 39.5 -20t15.5 -47z" />
    <glyph glyph-name="one" unicode="1" 
d="M213 102v346q-28 -20 -64 -35.5t-61 -24.5l-40 102q24 9 52 23t56 31t53 36t43 39h84v-517h123v-102h-376v102h130z" />
    <glyph glyph-name="two" unicode="2" 
d="M434 456q0 -32 -12 -61.5t-32 -57.5t-45 -54t-51 -50q-13 -12 -30 -28.5t-32 -34t-25.5 -35.5t-10.5 -33h266v-102h-404q-3 10 -2.5 25t0.5 21q0 50 18.5 92t47 77.5t61 66t61 58.5t47 54t18.5 53q0 38 -23 58.5t-58 20.5q-29 0 -61 -14t-63 -47l-61 86q40 42 92.5 62
t104.5 20q38 0 73 -11t62 -33t43 -55.5t16 -77.5z" />
    <glyph glyph-name="three" unicode="3" 
d="M213 -13q-23 0 -48.5 3.5t-49 8.5t-43.5 11t-31 11l24 103q23 -10 59.5 -21t87.5 -11q63 0 88.5 27t25.5 67q0 49 -39 68.5t-99 19.5h-38v102h46q19 0 38 4t34 13t24.5 24t9.5 38q0 34 -20.5 53.5t-56.5 19.5q-35 0 -69.5 -11.5t-59.5 -28.5l-44 90q27 18 71.5 36.5
t100.5 18.5q52 0 90.5 -13t63.5 -36.5t37 -55.5t12 -69t-21 -71t-56 -52q48 -20 74.5 -59t26.5 -93q0 -43 -14 -79t-43 -62.5t-74 -41t-107 -14.5z" />
    <glyph glyph-name="four" unicode="4" 
d="M285 465q-18 -23 -37 -49t-37.5 -54.5t-35.5 -57.5t-30 -57h140v218zM408 619v-372h67v-101h-67v-146h-123v146h-258v90q19 39 49 88.5t66 101.5t76 102.5t80 90.5h110z" />
    <glyph glyph-name="five" unicode="5" 
d="M321 182q0 26 -8.5 47.5t-34 37t-72.5 24t-123 8.5q10 84 16 164.5t9 155.5h316v-102h-213q-2 -32 -5 -67t-5 -57q124 -8 185 -60t61 -146q0 -43 -15 -79.5t-46 -63.5t-77 -42t-107 -15q-24 0 -49 3t-48 7.5t-41.5 10.5t-28.5 11l25 102q22 -11 56 -20t85 -9q36 0 59.5 8
t37 20.5t18.5 28.5t5 33z" />
    <glyph glyph-name="six" unicode="6" 
d="M241 294q-19 0 -39 -4t-33 -11q-1 -9 -1.5 -18t-0.5 -19q0 -29 4 -55.5t14 -47.5t27.5 -33.5t43.5 -12.5q21 0 36 10t24.5 25t14 33t4.5 35q0 47 -21 72.5t-73 25.5zM257 396q54 0 91.5 -16t61.5 -43t34.5 -63t10.5 -76q0 -36 -11.5 -73t-35.5 -68t-61 -50.5t-88 -19.5
q-104 0 -158.5 64.5t-54.5 201.5q0 90 26.5 159t75.5 116t118 71t153 24l7 -105q-40 -1 -78 -8t-70 -23.5t-55.5 -42.5t-34.5 -65q19 8 37 12.5t32 4.5z" />
    <glyph glyph-name="seven" unicode="7" 
d="M132 0q3 64 21 135.5t43.5 141.5t55.5 132.5t57 107.5h-260v102h404v-93q-27 -31 -59 -87t-60.5 -127t-50 -151.5t-26.5 -160.5h-125z" />
    <glyph glyph-name="eight" unicode="8" 
d="M446 472q0 -43 -21 -84.5t-66 -69.5q57 -33 80.5 -72t23.5 -86q0 -30 -11.5 -61t-37 -55.5t-66.5 -40.5t-101 -16q-47 0 -85.5 11.5t-66 33t-42.5 53t-15 70.5q0 47 22 88.5t69 73.5q-44 30 -60 64t-16 72q0 30 10.5 62.5t33.5 58.5t61 43t94 17q89 0 141.5 -44
t52.5 -118zM347 162q0 20 -7.5 35t-24 27.5t-42.5 25t-62 26.5q-28 -23 -43 -51.5t-15 -54.5q0 -40 28.5 -60.5t67.5 -20.5q45 0 71.5 21.5t26.5 51.5zM250 532q-32 0 -56.5 -18t-24.5 -53t23 -57t81 -46q31 23 44 50.5t13 53.5q0 35 -23.5 52.5t-56.5 17.5z" />
    <glyph glyph-name="nine" unicode="9" 
d="M261 329q19 0 40 4t34 11q1 8 1.5 19.5t0.5 22.5q0 25 -4.5 50.5t-15 46.5t-28 34t-43.5 13q-22 0 -37.5 -8.5t-25 -22.5t-14 -33t-4.5 -40q0 -47 22 -72t74 -25zM245 227q-54 0 -92 15.5t-62 42.5t-35 62.5t-11 76.5q0 36 12.5 73.5t37 68t61.5 50t87 19.5
q104 0 159 -70t55 -195q0 -90 -26 -159.5t-74.5 -116.5t-117 -71.5t-152.5 -24.5l-4 106q80 1 143 34.5t89 105.5q-39 -17 -70 -17z" />
    <glyph glyph-name="colon" unicode=":" 
d="M340 79q0 -44 -27 -67t-62 -23q-18 0 -34 6t-28.5 17.5t-20 28t-7.5 38.5q0 21 7.5 37.5t20 27.5t28.5 17t34 6q35 0 62 -23t27 -65zM340 382q0 -44 -27 -67t-62 -23q-18 0 -34 6t-28.5 17.5t-20 28t-7.5 38.5q0 21 7.5 37.5t20 27.5t28.5 17t34 6q35 0 62 -23t27 -65z
" />
    <glyph glyph-name="semicolon" unicode=";" 
d="M118 -73q18 4 36.5 7t35 9t29.5 17t21 30q-38 4 -59 30t-21 58q0 39 25.5 64t64.5 25q42 0 65.5 -28t23.5 -76q0 -35 -11 -70t-35.5 -65t-63.5 -52t-95 -29zM340 382q0 -44 -27 -67t-62 -23q-18 0 -34 6t-28.5 17.5t-20 28t-7.5 38.5q0 21 7.5 37.5t20 27.5t28.5 17t34 6
q35 0 62 -23t27 -65z" />
    <glyph glyph-name="less" unicode="&#x3c;" 
d="M45 313l384 161l34 -108l-280 -109l280 -109l-34 -108l-384 162v111z" />
    <glyph glyph-name="equal" unicode="=" 
d="M40 411h420v-102h-420v102zM40 216h420v-102h-420v102z" />
    <glyph glyph-name="greater" unicode="&#x3e;" 
d="M459 201l-384 -162l-35 108l281 109l-281 109l35 108l384 -161v-111z" />
    <glyph glyph-name="question" unicode="?" 
d="M166 225q-1 5 -1 15q0 40 21 76.5t55 64.5q23 19 43 40.5t20 46.5q0 30 -21 45.5t-53 15.5t-62 -9.5t-65 -26.5l-34 94q35 22 82 34t93 12q57 0 94 -15.5t58 -38.5t29.5 -50.5t8.5 -52.5q0 -29 -11.5 -53t-29 -45t-37.5 -39.5t-37.5 -36.5t-29 -37t-11.5 -40h-112z
M313 71q0 -39 -25.5 -61t-57.5 -22q-16 0 -31 5.5t-27 16.5t-19 26t-7 35q0 19 7 34.5t19 26t27 16t31 5.5t31 -5.5t26.5 -16t18.5 -26t7 -34.5z" />
    <glyph glyph-name="at" unicode="@" 
d="M468 55q-27 -11 -62.5 -16.5t-61.5 -5.5q-38 0 -70.5 11.5t-56.5 36t-37.5 64t-13.5 96.5q0 42 7.5 79t25.5 64.5t46.5 43.5t70.5 16q19 0 47 -5v16q0 38 -24 64.5t-70 26.5q-33 0 -62.5 -14t-51 -49t-34 -93.5t-12.5 -147.5q0 -70 10.5 -124t36 -90.5t68 -55.5
t105.5 -19q47 0 74 5t35 8l11 -87q-17 -4 -31 -6.5t-28 -4t-28.5 -2.5t-32.5 -1q-66 0 -123 18t-98.5 62.5t-65.5 118t-24 184.5q0 108 20.5 181.5t55.5 119t80 65t95 19.5q41 0 77 -12.5t63 -39.5t43 -70.5t16 -105.5v-350zM271 247q0 -19 2.5 -39t9.5 -36t19.5 -26.5
t32.5 -10.5q13 0 28 3v200q-8 2 -15 3t-14 1q-19 0 -31 -8.5t-19 -22t-10 -30.5t-3 -34z" />
    <glyph glyph-name="A" unicode="A" 
d="M359 0l-29 143h-165l-28 -143h-128q44 183 89 333.5t87 285.5h134q44 -136 87.5 -288.5t84.5 -330.5h-132zM249 499q-10 -35 -18.5 -66.5t-16 -62t-14 -61.5t-12.5 -64h121q-6 33 -12 64t-13.5 61.5t-16 62t-18.5 66.5z" />
    <glyph glyph-name="B" unicode="B" 
d="M469 187q0 -56 -19 -93.5t-51.5 -60t-77 -32t-95.5 -9.5q-41 0 -85 4.5t-87 13.5v601q35 6 77 10.5t83 4.5q70 0 114 -14.5t69 -38t34 -52.5t9 -58q0 -44 -21.5 -78t-57.5 -54q63 -23 85.5 -62t22.5 -82zM177 271v-168q13 -2 28.5 -3t30.5 -1q21 0 41 3.5t35.5 13
t25.5 27t10 44.5q0 45 -28.5 64.5t-76.5 19.5h-66zM225 373q47 0 71 20.5t24 56.5q0 22 -7 35.5t-19 21t-28 10t-33 2.5q-14 0 -29 -1t-27 -3v-142h48z" />
    <glyph glyph-name="C" unicode="C" 
d="M296 -13q-131 0 -200 84t-69 239q0 77 21 137t58.5 101.5t89 63t112.5 21.5q33 0 59.5 -5.5t46.5 -12.5t33.5 -15t20.5 -12l-32 -98q-23 15 -55.5 25.5t-74.5 10.5q-29 0 -56.5 -10.5t-49 -35t-35 -65.5t-13.5 -102q0 -106 36.5 -162.5t119.5 -56.5q48 0 79.5 11t50.5 22
l31 -97q-26 -16 -70.5 -29.5t-102.5 -13.5z" />
    <glyph glyph-name="D" unicode="D" 
d="M177 100q5 -1 11 -1h11q42 0 70.5 16t46 44t25 66.5t7.5 84.5q0 40 -6 78t-21 67t-41 46.5t-67 17.5q-8 0 -18 -0.5t-18 -2.5v-416zM473 310q0 -86 -21.5 -146.5t-59.5 -98.5t-90.5 -55.5t-115.5 -17.5q-33 0 -64.5 3.5t-67.5 11.5v604q42 9 79 12t69 3q61 0 111.5 -18
t85.5 -56.5t54.5 -98t19.5 -143.5z" />
    <glyph glyph-name="E" unicode="E" 
d="M63 0v619h375v-102h-252v-139h219v-102h-219v-174h274v-102h-397z" />
    <glyph glyph-name="F" unicode="F" 
d="M63 0v619h379v-102h-256v-150h224v-102h-224v-265h-123z" />
    <glyph glyph-name="G" unicode="G" 
d="M312 526q-44 0 -74 -16t-49.5 -44.5t-28 -68t-8.5 -87.5q0 -111 35 -163.5t103 -52.5q11 0 24 1t24 3v226h123v-309q-22 -8 -68.5 -18t-112.5 -10q-58 0 -104.5 20.5t-79.5 61t-51 101t-18 140.5q0 79 21 139.5t57 101.5t85 61.5t105 20.5q36 0 64.5 -5.5t49.5 -12.5
t34.5 -15t20.5 -12l-32 -98q-22 14 -54 25t-66 11z" />
    <glyph glyph-name="H" unicode="H" 
d="M455 619v-619h-123v273h-164v-273h-123v619h123v-244h164v244h123z" />
    <glyph glyph-name="I" unicode="I" 
d="M54 0v102h135v415h-135v102h393v-102h-134v-415h134v-102h-393z" />
    <glyph glyph-name="J" unicode="J" 
d="M438 207q0 -45 -11.5 -85t-38 -70t-68.5 -47.5t-102 -17.5q-63 0 -105 16t-71 39l47 98q25 -16 55.5 -31t62.5 -15q48 0 77.5 25.5t29.5 94.5v303h-207v102h331v-412z" />
    <glyph glyph-name="K" unicode="K" 
d="M350 0q-11 35 -31.5 75.5t-45.5 79t-52.5 72t-52.5 56.5v-283h-123v619h123v-257q22 28 46 62t45.5 68t39.5 67t30 60h139q-14 -27 -33.5 -61.5t-44.5 -72t-53.5 -76.5t-59.5 -75q31 -30 63 -69t60.5 -83.5t51.5 -91t37 -90.5h-139z" />
    <glyph glyph-name="L" unicode="L" 
d="M460 0h-389v619h124v-517h265v-102z" />
    <glyph glyph-name="M" unicode="M" 
d="M161 619q7 -21 17.5 -54t22.5 -71t24 -77t23 -72q12 37 25 76.5t25 76t22 68.5t18 53h102q7 -81 13.5 -158t11 -152.5t7.5 -152t5 -156.5h-113l6 481l-76 -262h-90l-73 262l5 -481h-113q3 76 6.5 158t7.5 163t9.5 157t12.5 141h102z" />
    <glyph glyph-name="N" unicode="N" 
d="M355 0q-42 103 -91.5 205.5t-106.5 205.5v-411h-111v619h99q28 -44 56 -95.5t54.5 -102.5t49 -99t38.5 -84v381h111v-619h-99z" />
    <glyph glyph-name="O" unicode="O" 
d="M152 310q0 -45 3.5 -84.5t14 -68.5t29.5 -46t51 -17q31 0 50.5 17t30 46.5t14 68.5t3.5 84t-3.5 84.5t-14 68.5t-29.5 46t-51 17t-51 -17t-29.5 -46.5t-14 -68.5t-3.5 -84zM27 310q0 160 59 241.5t164 81.5q109 0 166 -81.5t57 -241.5t-58 -241.5t-164 -81.5
q-109 0 -166.5 81.5t-57.5 241.5z" />
    <glyph glyph-name="P" unicode="P" 
d="M224 626q118 0 183 -48.5t65 -158.5q0 -111 -65.5 -160.5t-185.5 -49.5h-44v-209h-123v611q18 4 40.5 7t45.5 4.5t45 2.5t39 1zM238 519q-11 0 -30.5 -0.5t-30.5 -2.5v-200h50q59 0 89 23.5t30 80.5q0 54 -29.5 76.5t-78.5 22.5z" />
    <glyph glyph-name="Q" unicode="Q" 
d="M27 307q0 160 59 241.5t164 81.5q109 0 166 -81.5t57 -241.5q0 -140 -45 -220.5t-130 -97.5q11 -25 53.5 -41.5t116.5 -29.5l-26 -88q-117 16 -176.5 53.5t-70.5 107.5q-81 20 -124.5 99.5t-43.5 216.5zM152 307q0 -45 3.5 -84t14 -68.5t29.5 -46.5t51 -17q31 0 50.5 17
t30 46.5t14 68.5t3.5 84t-3.5 84.5t-14 68.5t-29.5 46t-51 17t-51 -17t-29.5 -46.5t-14 -68.5t-3.5 -84z" />
    <glyph glyph-name="R" unicode="R" 
d="M214 626q53 0 96 -12t74 -37t47.5 -63.5t16.5 -90.5q0 -54 -22 -98t-73 -67q17 -26 36 -57.5t37 -66t34.5 -69t28.5 -65.5h-129q-23 60 -53.5 115.5t-65.5 112.5h-64v-228h-123v610q18 4 39.5 7.5t43.5 5t42 2.5t35 1zM323 424q0 49 -30 72t-79 23q-7 0 -17 -0.5
t-20 -2.5v-186h27q63 0 91 24.5t28 69.5z" />
    <glyph glyph-name="S" unicode="S" 
d="M232 90q31 0 51.5 6.5t32.5 18t16.5 26t4.5 29.5q0 19 -11 34t-28 26.5t-38 21t-42 17.5q-28 10 -58 23t-54.5 33t-40.5 49.5t-16 73.5q0 87 56.5 136t155.5 49q57 0 99.5 -13t71.5 -29l-36 -95q-25 14 -55.5 24t-70.5 10q-98 0 -98 -71q0 -18 10 -31.5t25.5 -24
t35 -18.5t38.5 -15q29 -11 60.5 -24.5t58 -36t43.5 -56t17 -84.5q0 -87 -56.5 -134.5t-171.5 -47.5q-77 0 -123 16.5t-69 30.5l36 100q27 -16 64.5 -30t91.5 -14z" />
    <glyph glyph-name="T" unicode="T" 
d="M475 619v-102h-163v-517h-124v517h-163v102h450z" />
    <glyph glyph-name="U" unicode="U" 
d="M248 -13q-60 0 -100.5 16.5t-64.5 47.5t-34 75t-10 98v395h124v-387q0 -39 4 -65.5t13.5 -42.5t26.5 -23t43 -7t43 7t27 23.5t14 43t4 65.5v386h123v-395q0 -54 -10 -98t-35 -75t-66 -47.5t-102 -16.5z" />
    <glyph glyph-name="V" unicode="V" 
d="M186 0q-24 69 -51 156t-51 173.5t-43 163.5t-28 126h130q6 -48 18 -111.5t26.5 -131t31 -133t32.5 -117.5q16 51 32 116.5t30 133t26 131.5t20 112h129q-12 -60 -29.5 -134t-40 -155.5t-49.5 -166t-56 -163.5h-127z" />
    <glyph glyph-name="W" unicode="W" 
d="M296 400q4 -19 12 -47t17.5 -62t21 -73t22.5 -80q0 52 -1 111.5t-2 121.5t-2 125.5t-1 122.5h114q-3 -76 -6 -156.5t-7 -160t-9.5 -156.5t-12.5 -146h-102q-22 63 -44 135.5t-44 138.5q-22 -63 -46 -137t-44 -137h-102q-8 69 -14 146.5t-10.5 157t-7.5 160t-5 155.5h114
q-1 -59 -2 -122t-2 -125.5t-2 -122t-1 -111.5q9 32 20.5 70t22 75t19.5 68t14 49h90z" />
    <glyph glyph-name="X" unicode="X" 
d="M356 0q-19 51 -46.5 113t-57.5 124q-29 -59 -58 -122.5t-50 -114.5h-133q10 27 29.5 65t43 82t49.5 90.5t50 89.5l-162 292h133l98 -198l103 198h124l-158 -289q27 -43 53 -90t48.5 -91.5t39.5 -83t27 -65.5h-133z" />
    <glyph glyph-name="Y" unicode="Y" 
d="M254 336q11 23 25.5 58t29 74t28 79t24.5 72h127q-19 -51 -38 -99t-40 -95t-45 -93.5t-52 -95.5v-236h-124v235q-55 97 -96.5 189.5t-79.5 194.5h132q23 -72 51 -146.5t58 -136.5z" />
    <glyph glyph-name="Z" unicode="Z" 
d="M445 533q-43 -66 -79 -124t-67 -110.5t-58.5 -101t-52.5 -95.5h266v-102h-408v71q22 43 47 90.5t56 101.5t67.5 117t80.5 137h-238v102h386v-86z" />
    <glyph glyph-name="bracketleft" unicode="[" 
d="M113 699h277v-96h-160v-672h160v-96h-277v864z" />
    <glyph glyph-name="backslash" unicode="\" 
d="M49 699h126l280 -864h-127z" />
    <glyph glyph-name="bracketright" unicode="]" 
d="M387 -165h-278v96h160v672h-160v96h278v-864z" />
    <glyph glyph-name="asciicircum" unicode="^" 
d="M491 309l-111 -54l-126 218l-126 -218l-112 54l185 310h105z" />
    <glyph glyph-name="underscore" unicode="_" 
d="M8 -58h484v-107h-484v107z" />
    <glyph glyph-name="grave" unicode="`" 
d="M213 691l158 -111l-45 -67l-174 84z" />
    <glyph glyph-name="a" unicode="a" 
d="M251 88q20 0 39 0.5t33 2.5v108q-12 2 -29 3.5t-31 1.5q-19 0 -37 -2.5t-31.5 -8.5t-21.5 -17t-8 -29q0 -32 24 -45.5t62 -13.5zM240 482q58 0 96.5 -13.5t61.5 -38t33 -60t10 -79.5v-280q-27 -6 -80 -14t-119 -8q-45 0 -81.5 8t-62.5 26.5t-40 48t-14 72.5q0 41 16 69
t43 45t62 24.5t73 7.5q48 0 85 -8v15q0 35 -22 58.5t-76 23.5q-35 0 -67.5 -5t-52.5 -12l-17 99q23 8 65 14.5t87 6.5z" />
    <glyph glyph-name="b" unicode="b" 
d="M345 238q0 66 -21.5 101t-65.5 35q-20 0 -39.5 -5.5t-33.5 -13.5v-255q14 -3 29.5 -4t26.5 -1q48 0 76 32.5t28 110.5zM470 235q0 -56 -15 -101.5t-44 -77.5t-71 -49.5t-96 -17.5q-48 0 -98 7t-84 18v659l123 21v-235q26 12 50 16.5t48 4.5q46 0 81 -17.5t58.5 -50
t35.5 -77.5t12 -100z" />
    <glyph glyph-name="c" unicode="c" 
d="M44 235q0 51 16 96t49 78.5t83.5 53t120.5 19.5q42 0 76 -6t69 -20l-27 -99q-20 7 -44.5 12.5t-62.5 5.5q-44 0 -73.5 -10.5t-47.5 -29t-26 -44.5t-8 -56q0 -65 36.5 -102t124.5 -37q29 0 60.5 4t57.5 13l18 -101q-26 -10 -63 -16.5t-87 -6.5q-72 0 -123.5 19t-84.5 52
t-48.5 78t-15.5 97z" />
    <glyph glyph-name="d" unicode="d" 
d="M153 238q0 -63 23.5 -103t75.5 -40q15 0 28 1t27 3v256q-14 8 -32 13.5t-38 5.5q-44 0 -64 -35t-20 -101zM430 14q-34 -11 -83 -18t-96 -7q-110 0 -166.5 65t-56.5 178q0 115 47.5 181.5t140.5 66.5q25 0 49 -5.5t42 -15.5v214l123 21v-680z" />
    <glyph glyph-name="e" unicode="e" 
d="M31 231q0 62 19 109t50 78.5t71 47.5t82 16q104 0 158 -61.5t54 -179.5q0 -12 -0.5 -25t-1.5 -21h-305q0 -46 38 -72.5t98 -26.5q37 0 70.5 8t56.5 16l17 -105q-32 -11 -68 -18.5t-81 -7.5q-60 0 -107.5 15.5t-81 46t-51.5 75.5t-18 105zM346 280q0 19 -5 36.5t-16 31.5
t-28 22.5t-42 8.5q-24 0 -41.5 -8t-29 -22t-18 -32t-8.5 -37h188z" />
    <glyph glyph-name="f" unicode="f" 
d="M139 0v368h-103v102h103v27q0 57 16.5 94.5t44.5 60t64 32t74 9.5q39 0 80 -7t74 -23l-21 -100q-23 8 -57.5 16.5t-65.5 8.5q-17 0 -32.5 -3t-27 -13t-18.5 -28.5t-7 -48.5v-25h193v-102h-193v-368h-124z" />
    <glyph glyph-name="g" unicode="g" 
d="M158 250q0 -58 21 -88.5t66 -30.5q20 0 37.5 5t31.5 13v226q-14 3 -25 4t-23 1q-108 0 -108 -130zM438 57q0 -115 -55.5 -170t-178.5 -55q-44 0 -84.5 9t-77.5 21l23 104q29 -11 61 -20.5t80 -9.5q32 0 53 7.5t33 20.5t17 30.5t5 37.5v19q-26 -10 -47.5 -15t-46.5 -5
q-92 0 -139.5 58t-47.5 161q0 116 64 173t174 57q77 0 167 -25v-398z" />
    <glyph glyph-name="h" unicode="h" 
d="M63 0v673l123 21v-228q15 5 36 9.5t37 4.5q52 0 87 -15.5t56 -44t30 -68t9 -87.5v-265h-123v249q0 66 -15 95t-57 29q-17 0 -33.5 -4t-26.5 -7v-362h-123z" />
    <glyph glyph-name="i" unicode="i" 
d="M284 605q0 -36 -23 -57t-55 -21t-54.5 21t-22.5 57q0 37 22.5 58t54.5 21t55 -21t23 -58zM467 20q-38 -18 -71.5 -24.5t-61.5 -6.5q-48 0 -80.5 14t-52 40.5t-27.5 64.5t-8 87v173h-130v102h253v-291q0 -42 15.5 -62.5t51.5 -20.5q17 0 41 4.5t54 18.5z" />
    <glyph glyph-name="j" unicode="j" 
d="M400 31q0 -57 -14 -95.5t-38.5 -62t-58 -33.5t-72.5 -10q-48 0 -89 12t-79 31l38 104q25 -14 60.5 -26.5t64.5 -12.5q31 0 48 18.5t17 68.5v343h-190v102h313v-439zM385 605q0 -36 -23 -57t-55 -21t-54.5 21t-22.5 57q0 37 22.5 58t54.5 21t55 -21t23 -58z" />
    <glyph glyph-name="k" unicode="k" 
d="M187 284q18 21 36.5 44.5t36 48.5t33.5 48.5t28 44.5h148q-18 -23 -41 -50t-47.5 -55t-49 -54t-44.5 -48q25 -24 54 -57.5t57 -69.5t51.5 -72t37.5 -64h-141q-12 25 -31.5 56.5t-41.5 62t-44.5 58t-41.5 45.5v-222h-124v673l124 21v-410z" />
    <glyph glyph-name="l" unicode="l" 
d="M467 20q-3 -2 -13.5 -7t-27.5 -10.5t-41.5 -9.5t-55.5 -4q-85 0 -124 50.5t-39 147.5v399h-130v102h253v-510q0 -48 19 -65t48 -17q37 0 62 10t33 13z" />
    <glyph glyph-name="m" unicode="m" 
d="M343 475q39 0 64 -12t39.5 -36t19.5 -60.5t5 -85.5v-281h-100v287q0 28 -3.5 45t-9 26t-13 12t-15.5 3q-9 0 -19 -1.5t-18 -5.5q3 -19 5 -42t2 -51v-94h-100v108q0 48 -9.5 67t-30.5 19q-6 0 -14.5 -1t-16.5 -3v-369h-100v452q39 11 77 17t67 6q26 0 46.5 -6.5
t35.5 -21.5q17 11 40 19.5t48 8.5z" />
    <glyph glyph-name="n" unicode="n" 
d="M63 455q33 9 81.5 17t105.5 8q56 0 93 -15.5t58.5 -44t30.5 -68t9 -87.5v-265h-123v249q0 66 -15 95t-61 29q-14 0 -27.5 -1t-28.5 -3v-369h-123v455z" />
    <glyph glyph-name="o" unicode="o" 
d="M472 236q0 -56 -16 -101.5t-45 -78.5t-69.5 -51t-90.5 -18t-90.5 18t-70 51t-45.5 78.5t-16 101.5q0 55 16.5 100.5t46 78t70.5 50t89 17.5q49 0 89.5 -17.5t70 -50t45.5 -78t16 -100.5zM154 235q0 -63 22.5 -102t72.5 -39q48 0 72.5 39t24.5 102t-22.5 101.5t-72.5 38.5
q-48 0 -72.5 -38.5t-24.5 -101.5z" />
    <glyph glyph-name="p" unicode="p" 
d="M344 231q0 63 -25 103.5t-76 40.5q-14 0 -30 -1.5t-27 -2.5v-258q12 -8 32 -13t40 -5q44 0 65 35.5t21 100.5zM469 235q0 -54 -12 -99.5t-35 -78t-58 -50.5t-81 -18q-47 0 -97 23v-177h-123v620q34 11 83.5 18t97.5 7q109 0 167 -66t58 -179z" />
    <glyph glyph-name="q" unicode="q" 
d="M156 231q0 -65 21.5 -100.5t65.5 -35.5q21 0 39.5 5t32.5 13v258q-9 1 -24.5 2.5t-32.5 1.5q-51 0 -76.5 -40.5t-25.5 -103.5zM31 235q0 54 15 99.5t43.5 77.5t71 50t96.5 18q23 0 48.5 -2t49.5 -5.5t45.5 -8t37.5 -9.5v-620h-123v178q-23 -11 -48.5 -17.5t-48.5 -6.5
q-46 0 -81 17.5t-58.5 49.5t-35.5 77.5t-12 101.5z" />
    <glyph glyph-name="r" unicode="r" 
d="M437 345q-12 3 -28.5 6t-33.5 5.5t-33 3.5t-27 1q-26 0 -51 -2.5t-51 -9.5v-349h-124v439q49 18 100.5 29t120.5 11q10 0 28.5 -1t39.5 -3.5t42.5 -6t38.5 -9.5z" />
    <glyph glyph-name="s" unicode="s" 
d="M228 93q45 0 69 6.5t24 26.5q0 13 -7.5 22t-21 15.5t-31 12.5t-36.5 12q-27 8 -55 18.5t-51 26.5t-38 40.5t-15 61.5q0 30 11.5 56.5t36 47t62.5 32t91 11.5q46 0 85.5 -7t68.5 -20l-19 -104q-17 5 -53 16.5t-81 11.5q-47 0 -63.5 -11.5t-16.5 -24.5q0 -11 7.5 -19.5
t20 -15.5t29 -13.5t35.5 -12.5q27 -9 56 -20t52.5 -27.5t38.5 -42t15 -62.5q0 -29 -11 -55t-36.5 -45t-66.5 -30t-101 -11q-61 0 -104 14t-69 25l19 103q35 -14 74.5 -26t80.5 -12z" />
    <glyph glyph-name="t" unicode="t" 
d="M143 368h-107v102h107v118l123 20v-138h197v-102h-197v-190q0 -26 5 -42t14 -25t22 -12t29 -3q17 0 31.5 1t28 3.5t28 7.5t31.5 13l17 -106q-34 -14 -73.5 -20t-76.5 -6q-43 0 -76 7t-56 27t-35 56.5t-12 95.5v193z" />
    <glyph glyph-name="u" unicode="u" 
d="M438 16q-34 -9 -82.5 -18t-105.5 -9q-58 0 -95 16t-58.5 45.5t-29.5 69.5t-8 88v262h123v-246q0 -65 15.5 -96.5t60.5 -31.5q28 0 56 5v369h124v-454z" />
    <glyph glyph-name="v" unicode="v" 
d="M194 0q-45 89 -91.5 208.5t-88.5 261.5h129q9 -38 21.5 -81t26.5 -86.5t28.5 -84.5t27.5 -75q13 34 29 75t31.5 84.5t30 86.5t23.5 81h125q-42 -142 -93 -261.5t-96 -208.5h-103z" />
    <glyph glyph-name="w" unicode="w" 
d="M322 0q-11 31 -20.5 57t-18 50.5t-17 51t-17.5 58.5q-10 -32 -18 -57.5t-16.5 -50.5t-17.5 -51t-22 -58h-93q-12 44 -22.5 97.5t-19.5 114t-16 125.5t-13 133h105q4 -87 8.5 -170t16.5 -171q13 38 22.5 70.5t17 62t14 57t13.5 56.5h89q6 -29 12.5 -56.5t14 -57t16 -62
t20.5 -70.5q6 46 10 88t6.5 83.5t4 83t3.5 86.5h105q-11 -137 -30.5 -258t-43.5 -212h-93z" />
    <glyph glyph-name="x" unicode="x" 
d="M254 323l96 147h125l-152 -226q24 -29 47 -61.5t44 -65.5t38 -63t29 -54h-128q-27 51 -54 91t-51 72q-30 -40 -54 -78t-49 -85h-125q15 28 34.5 58.5t41 62t45 62.5t45.5 59l-165 228h129z" />
    <glyph glyph-name="y" unicode="y" 
d="M472 470q-19 -66 -36.5 -129.5t-36.5 -124t-40.5 -118.5t-46.5 -113q-19 -40 -37.5 -69t-41 -47.5t-50 -27.5t-64.5 -9q-31 0 -56.5 5t-42.5 13l23 103q20 -9 35.5 -12.5t33.5 -3.5q36 0 58 24t35 57q-44 88 -88 201.5t-80 250.5h128q9 -37 20.5 -79t24.5 -84t27.5 -82.5
t29.5 -75.5q10 35 21 75.5t21 82t19.5 83.5t17.5 80h126z" />
    <glyph glyph-name="z" unicode="z" 
d="M426 380q-14 -16 -40 -47.5t-56.5 -70.5t-61 -81.5t-54.5 -78.5h222v-102h-369v75q23 38 50 78t54 78.5t53 73.5t47 63h-194v102h349v-90z" />
    <glyph glyph-name="braceleft" unicode="{" 
d="M187 266q54 -10 77.5 -44t23.5 -98v-113q0 -42 12 -61t44 -19h93v-96h-104q-90 0 -124.5 39t-34.5 113v147q0 42 -13 63.5t-44 21.5h-54v96h54q31 0 44 21.5t13 62.5v148q0 74 34.5 113t124.5 39h104v-96h-93q-32 0 -44 -18.5t-12 -61.5v-113q0 -64 -23.5 -98t-77.5 -46z
" />
    <glyph glyph-name="bar" unicode="|" 
d="M189 699h124v-864h-124v864z" />
    <glyph glyph-name="braceright" unicode="}" 
d="M313 268q-54 10 -78 44t-24 98v113q0 42 -12 61t-44 19h-92v96h103q45 0 75.5 -10t49 -29t26.5 -47.5t8 -65.5v-147q0 -42 13 -63.5t44 -21.5h55v-96h-55q-31 0 -44 -21.5t-13 -62.5v-148q0 -37 -8 -65.5t-26.5 -47.5t-49 -29t-75.5 -10h-103v96h92q32 0 44 18.5t12 61.5
v113q0 64 24 98t78 46z" />
    <glyph glyph-name="asciitilde" unicode="~" 
d="M345 171q-27 0 -50.5 10.5t-45.5 23.5t-42.5 23.5t-39.5 10.5q-8 0 -15.5 -2t-14.5 -8.5t-13 -19.5t-12 -35l-91 25q4 25 14 52.5t26.5 50.5t41.5 38.5t60 15.5q26 0 49.5 -10.5t45.5 -23.5t42 -23.5t40 -10.5q8 0 15.5 2t14.5 9t13.5 20t12.5 35l91 -25
q-5 -25 -14.5 -52.5t-26.5 -51t-41.5 -39t-59.5 -15.5z" />
    <glyph glyph-name="uni00A0" unicode="&#xa0;" 
 />
    <glyph glyph-name="exclamdown" unicode="&#xa1;" 
d="M179 -1q0 36 1.5 64.5t4 54.5t6 52t7.5 58h102q4 -32 8 -58t7 -52t4.5 -54.5t1.5 -64.5v-164h-142v164zM167 383q0 39 25.5 60.5t57.5 21.5t57.5 -21.5t25.5 -60.5t-25.5 -60.5t-57.5 -21.5t-57.5 21.5t-25.5 60.5z" />
    <glyph glyph-name="cent" unicode="&#xa2;" 
d="M46 262q0 85 44.5 146.5t140.5 81.5v128h124v-123q24 -2 46.5 -8t45.5 -15l-26 -104q-19 7 -42.5 12.5t-59.5 5.5q-83 0 -115 -31.5t-32 -92.5q0 -60 34.5 -92t117.5 -32q29 0 59 4t55 12l17 -106q-19 -8 -44 -13t-56 -7v-125h-124v130q-48 9 -83 30t-57.5 51t-33.5 68
t-11 80z" />
    <glyph glyph-name="sterling" unicode="&#xa3;" 
d="M234 347h148v-101h-148q0 -16 -1 -35t-2.5 -38.5t-3.5 -37.5t-5 -33h233v-102h-368q16 72 21 133.5t7 112.5h-77v101h77v52q0 67 14.5 111.5t40.5 71.5t63.5 38t84.5 11q35 0 66.5 -7t61.5 -20l-33 -98q-21 11 -39 15t-44 5q-21 0 -39 -4.5t-30.5 -17t-19.5 -33.5t-7 -54
v-70z" />
    <glyph glyph-name="currency" unicode="&#xa4;" 
d="M251 486q44 0 82 -16l66 63l83 -81l-64 -62q19 -36 19 -80t-19 -80l64 -62l-84 -82l-66 64q-19 -9 -38.5 -12.5t-42.5 -3.5t-42.5 3.5t-39.5 12.5l-66 -63l-83 81l64 62q-19 34 -19 80t19 80l-64 62l84 82l66 -64q36 16 81 16zM324 310q0 38 -21.5 58t-51.5 20t-51.5 -20
t-21.5 -58t21.5 -58t51.5 -20t51.5 20t21.5 58z" />
    <glyph glyph-name="yen" unicode="&#xa5;" 
d="M448 104h-135v-104h-124v104h-136v84h136v62h-136v84h101q-19 34 -39.5 71.5t-39.5 75t-35.5 73t-26.5 65.5h132q21 -64 46.5 -129t61.5 -137q71 142 108 266h127q-11 -29 -26 -64.5t-32.5 -73.5t-37 -75.5t-38.5 -71.5h94v-84h-135v-62h135v-84z" />
    <glyph glyph-name="brokenbar" unicode="&#xa6;" 
d="M189 189h124v-354h-124v354zM189 699h124v-354h-124v354z" />
    <glyph glyph-name="section" unicode="&#xa7;" 
d="M82 40q20 -8 38 -14t36 -10.5t38 -6.5t44 -2q33 0 50.5 11.5t17.5 30.5q0 16 -18.5 28.5t-63.5 26.5q-35 12 -65.5 25.5t-53.5 32.5t-36.5 44t-13.5 60q0 36 16 68t54 68q-19 17 -30.5 39t-11.5 47q0 69 50 107.5t144 38.5q40 0 83 -9.5t78 -23.5l-33 -98
q-28 11 -58.5 18.5t-70.5 7.5q-41 0 -52 -12t-11 -27q0 -18 14.5 -30t56.5 -24q165 -48 165 -161q0 -38 -15.5 -66t-47.5 -58q25 -23 37.5 -45.5t12.5 -57.5q0 -75 -50 -110.5t-141 -35.5q-69 0 -117 12t-79 28zM205 355q-18 -14 -29.5 -34.5t-11.5 -35.5q0 -17 4.5 -30
t19 -24t41 -22.5t71.5 -25.5q18 15 29 35t11 35q0 18 -5 30.5t-20 23t-41.5 22t-68.5 26.5z" />
    <glyph glyph-name="dieresis" unicode="&#xa8;" 
d="M152 538q-28 0 -48.5 17.5t-20.5 49.5t20.5 50t48.5 18q27 0 48 -18t21 -50t-21 -49.5t-48 -17.5zM351 538q-28 0 -48.5 17.5t-20.5 49.5t20.5 50t48.5 18t48.5 -18t20.5 -50t-20.5 -49.5t-48.5 -17.5z" />
    <glyph glyph-name="copyright" unicode="&#xa9;" 
d="M327 120q-17 -8 -35.5 -12t-35.5 -4q-29 0 -50.5 10.5t-35.5 28t-21 40t-7 46.5t7 47t21 41t35.5 29t51.5 11q16 0 33.5 -2.5t34.5 -10.5l-20 -54q-11 5 -22 6.5t-20 1.5q-32 0 -45.5 -20t-13.5 -45q0 -32 16.5 -50.5t46.5 -18.5q9 0 20.5 2t22.5 7zM25 231q0 61 19 107
t50.5 76.5t72 45.5t84.5 15q43 0 84 -15t72.5 -45.5t50.5 -76.5t19 -107t-19 -106.5t-50.5 -76t-72.5 -46t-84 -15.5q-44 0 -84.5 15.5t-72 46t-50.5 76t-19 106.5zM250 51q30 0 58 11.5t50.5 34.5t36 57t13.5 78q0 43 -13.5 76.5t-35.5 56.5t-50.5 35t-58.5 12t-58 -12
t-50.5 -35t-36 -56.5t-13.5 -76.5q0 -44 13.5 -78t36 -57t50.5 -34.5t58 -11.5z" />
    <glyph glyph-name="ordfeminine" unicode="&#xaa;" 
d="M262 351q14 0 27 1t21 2v69q-6 2 -17.5 3.5t-21.5 1.5q-27 0 -47 -7.5t-20 -30.5t16 -31t42 -8zM254 632q43 0 72 -9.5t46.5 -27t25 -43t7.5 -56.5v-203q-20 -5 -59 -11.5t-91 -6.5q-70 0 -110.5 25.5t-40.5 87.5q0 30 12 50.5t32.5 32.5t47.5 17.5t57 5.5q18 0 32 -2
t25 -4v9q0 25 -15 39t-52 14q-25 0 -50 -3.5t-43 -9.5l-13 79q17 5 50.5 10.5t66.5 5.5z" />
    <glyph glyph-name="guillemotleft" unicode="&#xab;" 
d="M186 462l65 -40l-94 -167l94 -167l-63 -42l-138 209zM385 462l66 -40l-93 -167l93 -167l-64 -42l-136 209z" />
    <glyph glyph-name="logicalnot" unicode="&#xac;" 
d="M448 42h-105v219h-298v102h403v-321z" />
    <glyph glyph-name="uni00AD" unicode="&#xad;" 
d="M113 317h274v-121h-274v121z" />
    <glyph glyph-name="registered" unicode="&#xae;" 
d="M220 187v-77h-54v238q14 4 31 6.5t36 2.5q57 0 84.5 -22t27.5 -64q0 -48 -40 -71q12 -17 25 -40.5t26 -49.5h-57q-13 24 -23 42.5t-20 34.5h-36zM220 237h18q27 0 40 7t13 30q0 20 -16 26.5t-33 6.5q-6 0 -11.5 -0.5t-10.5 -1.5v-68zM25 231q0 61 19 107t50.5 76.5
t72 45.5t84.5 15q43 0 84 -15t72.5 -45.5t50.5 -76.5t19 -107t-19 -106.5t-50.5 -76t-72.5 -46t-84 -15.5q-44 0 -84.5 15.5t-72 46t-50.5 76t-19 106.5zM250 51q30 0 58 11.5t50.5 34.5t36 57t13.5 78q0 43 -13.5 76.5t-35.5 56.5t-50.5 35t-58.5 12t-58 -12t-50.5 -35
t-36 -56.5t-13.5 -76.5q0 -44 13.5 -78t36 -57t50.5 -34.5t58 -11.5z" />
    <glyph glyph-name="macron" unicode="&#xaf;" 
d="M108 647h288v-87h-288v87z" />
    <glyph glyph-name="degree" unicode="&#xb0;" 
d="M252 698q31 0 57.5 -9.5t45.5 -27.5t30 -44t11 -58t-11 -57.5t-30 -43.5t-45.5 -27.5t-57.5 -9.5q-66 0 -105 36.5t-39 101.5t40 102t104 37zM252 505q23 0 38.5 13.5t15.5 41.5t-15.5 41t-38.5 13t-39 -13t-16 -41t16 -41.5t39 -13.5z" />
    <glyph glyph-name="plusminus" unicode="&#xb1;" 
d="M40 102h420v-102h-420v102zM40 402h157v156h106v-156h157v-102h-157v-157h-106v157h-157v102z" />
    <glyph glyph-name="twosuperior" unicode="&#xb2;" 
d="M377 523q0 -39 -23 -65.5t-50 -49.5q-16 -13 -31.5 -28t-26.5 -29h140v-81h-257v25q0 44 23.5 79t68.5 73q25 21 39.5 36t14.5 31q0 14 -8 22t-23 8q-26 0 -48 -10t-37 -23l-46 69q23 20 59 36.5t76 16.5q70 0 99.5 -30.5t29.5 -79.5z" />
    <glyph glyph-name="threesuperior" unicode="&#xb3;" 
d="M231 346q32 0 44.5 10t12.5 24q0 36 -63 36h-37v73h37q21 0 34 8t13 25q0 28 -39 28q-21 0 -41 -7t-39 -15l-34 70q22 14 55.5 24.5t65.5 10.5q36 0 60.5 -8t39.5 -21.5t21 -32t6 -38.5q0 -19 -8.5 -35.5t-28.5 -33.5q29 -13 41.5 -35.5t12.5 -49.5q0 -25 -8 -46
t-26 -36.5t-47 -24.5t-71 -9q-30 0 -64.5 6.5t-54.5 17.5l21 79q30 -13 51 -16.5t46 -3.5z" />
    <glyph glyph-name="acute" unicode="&#xb4;" 
d="M371 597l-174 -84l-45 67l158 111z" />
    <glyph glyph-name="mu" unicode="&#xb5;" 
d="M182 470v-256q0 -35 5 -57.5t14.5 -36t24 -19t33.5 -5.5q14 0 28.5 1.5t26.5 3.5v369h124v-454q-32 -9 -79 -18t-98 -9q-16 0 -40 4.5t-45 10.5q2 -21 4 -40.5t2 -45.5v-83h-123v635h123z" />
    <glyph glyph-name="paragraph" unicode="&#xb6;" 
d="M172 232q-76 17 -114.5 62.5t-38.5 132.5q0 48 17.5 85t50 62.5t78.5 38.5t103 13q48 0 98.5 -5.5t88.5 -15.5v-770h-101v687q-10 2 -34 3t-46 -1v-689h-102v397z" />
    <glyph glyph-name="periodcentered" unicode="&#xb7;" 
d="M340 265q0 -44 -27 -67t-62 -23q-18 0 -34 6t-28.5 17.5t-20 28t-7.5 38.5q0 21 7.5 37.5t20 27.5t28.5 17t34 6q35 0 62 -23t27 -65z" />
    <glyph glyph-name="cedilla" unicode="&#xb8;" 
d="M300 -24q33 -10 46 -29.5t13 -37.5q0 -23 -10.5 -38t-27 -24t-38.5 -13t-44 -4q-45 0 -80 11l13 63q6 -2 23 -5.5t33 -3.5q41 0 41 25q0 19 -36 31l-20 6q5 17 13.5 35t13.5 26h80q-5 -11 -10 -21t-10 -21z" />
    <glyph glyph-name="onesuperior" unicode="&#xb9;" 
d="M138 270v81h100v160q-18 -11 -36.5 -18.5t-45.5 -18.5l-27 78q38 15 73 34t61 40h77v-275h82v-81h-284z" />
    <glyph glyph-name="ordmasculine" unicode="&#xba;" 
d="M423 452q0 -42 -12.5 -75t-35.5 -56t-55 -35.5t-71 -12.5t-71 12.5t-55 35.5t-36 56t-13 75t13 76t36 57t55 35.5t71 12.5t71 -12.5t55 -35.5t35.5 -57t12.5 -76zM321 452q0 43 -18.5 67.5t-53.5 24.5q-34 0 -53.5 -24.5t-19.5 -67.5q0 -41 19 -65t54 -24t53.5 24
t18.5 65z" />
    <glyph glyph-name="guillemotright" unicode="&#xbb;" 
d="M315 46l-65 40l94 168l-94 167l63 41l138 -208zM116 46l-66 40l93 168l-93 167l64 41l136 -208z" />
    <glyph glyph-name="onequarter" unicode="&#xbc;" 
d="M459 250v-148h36v-63h-36v-39h-80v39h-124v45q23 43 45.5 81t54.5 85h104zM2 557q34 15 59 30.5t49 38.5h63v-250h-85v150q-20 -11 -34 -17t-33 -11zM379 186q-16 -23 -28.5 -43.5t-22.5 -40.5h51v84zM448 619l-317 -619h-100l317 619h100z" />
    <glyph glyph-name="onehalf" unicode="&#xbd;" 
d="M491 63v-63h-209q-2 6 -2 12v11q0 35 20.5 54t49.5 38l22 14q17 11 23 18t6 20q0 22 -26 22q-15 0 -30 -8t-27 -21l-41 53q19 23 48 34.5t61 11.5q39 0 69.5 -20t30.5 -62q0 -27 -11 -44t-27 -29t-34 -21.5t-32 -19.5h109zM2 557q34 15 59 30.5t49 38.5h63v-250h-85v150
q-20 -11 -34 -17t-33 -11zM448 619l-317 -619h-100l317 619h100z" />
    <glyph glyph-name="threequarters" unicode="&#xbe;" 
d="M30 445q11 -5 30.5 -10t39.5 -5q23 0 34.5 4t11.5 17q0 26 -59 26h-20v57h22q26 0 35.5 5t9.5 15q0 9 -7.5 13t-18.5 4q-17 0 -37 -6t-29 -11l-22 54q14 11 42 18t58 7q52 0 76 -20.5t24 -46.5q0 -19 -6.5 -32t-23.5 -24q42 -20 42 -63q0 -23 -9.5 -38t-26.5 -24.5
t-39.5 -13.5t-49.5 -4q-28 0 -53.5 4.5t-41.5 12.5zM459 250v-148h36v-63h-36v-39h-80v39h-124v45q23 43 45.5 81t54.5 85h104zM379 186q-16 -23 -28.5 -43.5t-22.5 -40.5h51v84zM466 619l-317 -619h-100l317 619h100z" />
    <glyph glyph-name="questiondown" unicode="&#xbf;" 
d="M337 229q1 -5 1 -15q0 -40 -21 -76.5t-55 -64.5q-11 -9 -22.5 -18t-20.5 -18t-14.5 -19.5t-5.5 -22.5q0 -30 21 -45.5t53 -15.5t62 9.5t65 26.5l34 -94q-35 -22 -82 -34t-93 -12q-57 0 -94 15t-58 38.5t-29.5 51t-8.5 52.5q0 29 11.5 52.5t29 43t37.5 37t37.5 34.5t29 35
t11.5 40h112zM190 383q0 39 25.5 61t57.5 22q16 0 31 -5.5t27 -16.5t19 -26.5t7 -34.5t-7 -34.5t-19 -26t-27 -16t-31 -5.5t-31 5.5t-26.5 16t-18.5 26t-7 34.5z" />
    <glyph glyph-name="Agrave" unicode="&#xc0;" 
d="M359 0l-29 143h-165l-28 -143h-128q44 183 89 333.5t87 285.5h134q44 -136 87.5 -288.5t84.5 -330.5h-132zM249 499q-10 -35 -18.5 -66.5t-16 -62t-14 -61.5t-12.5 -64h121q-6 33 -12 64t-13.5 61.5t-16 62t-18.5 66.5zM197 830l158 -111l-45 -67l-174 84z" />
    <glyph glyph-name="Aacute" unicode="&#xc1;" 
d="M359 0l-29 143h-165l-28 -143h-128q44 183 89 333.5t87 285.5h134q44 -136 87.5 -288.5t84.5 -330.5h-132zM249 499q-10 -35 -18.5 -66.5t-16 -62t-14 -61.5t-12.5 -64h121q-6 33 -12 64t-13.5 61.5t-16 62t-18.5 66.5zM359 736l-174 -84l-45 67l158 111z" />
    <glyph glyph-name="Acircumflex" unicode="&#xc2;" 
d="M359 0l-29 143h-165l-28 -143h-128q44 183 89 333.5t87 285.5h134q44 -136 87.5 -288.5t84.5 -330.5h-132zM249 499q-10 -35 -18.5 -66.5t-16 -62t-14 -61.5t-12.5 -64h121q-6 33 -12 64t-13.5 61.5t-16 62t-18.5 66.5zM390 708l-49 -59l-89 69l-89 -69l-51 59l140 122z
" />
    <glyph glyph-name="Atilde" unicode="&#xc3;" 
d="M359 0l-29 143h-165l-28 -143h-128q44 183 89 333.5t87 285.5h134q44 -136 87.5 -288.5t84.5 -330.5h-132zM249 499q-10 -35 -18.5 -66.5t-16 -62t-14 -61.5t-12.5 -64h121q-6 33 -12 64t-13.5 61.5t-16 62t-18.5 66.5zM413 772q-5 -14 -14.5 -29.5t-23 -29.5t-30.5 -23
t-37 -9q-16 0 -29.5 5t-27 10.5t-27 10.5t-28.5 5q-17 0 -28.5 -11.5t-19.5 -26.5l-59 39q5 14 14.5 30t23 30t30.5 23t38 9q16 0 29.5 -5t27 -10.5t26.5 -10.5t28 -5q17 0 29 11t19 26z" />
    <glyph glyph-name="Adieresis" unicode="&#xc4;" 
d="M359 0l-29 143h-165l-28 -143h-128q44 183 89 333.5t87 285.5h134q44 -136 87.5 -288.5t84.5 -330.5h-132zM249 499q-10 -35 -18.5 -66.5t-16 -62t-14 -61.5t-12.5 -64h121q-6 33 -12 64t-13.5 61.5t-16 62t-18.5 66.5zM152 677q-28 0 -48.5 17.5t-20.5 49.5t20.5 50
t48.5 18q27 0 48 -18t21 -50t-21 -49.5t-48 -17.5zM351 677q-28 0 -48.5 17.5t-20.5 49.5t20.5 50t48.5 18t48.5 -18t20.5 -50t-20.5 -49.5t-48.5 -17.5z" />
    <glyph glyph-name="Aring" unicode="&#xc5;" 
d="M355 685q0 -26 -9 -45t-24 -33q43 -134 86 -283.5t83 -323.5h-132l-29 143h-165l-28 -143h-128q43 178 86.5 325.5t84.5 279.5q-16 13 -25.5 33t-9.5 47q0 25 8.5 44.5t23 32.5t33.5 19.5t39 6.5q43 0 74.5 -26t31.5 -77zM249 499q-10 -35 -18.5 -66.5t-16 -62t-14 -61.5
t-12.5 -64h121q-6 33 -12 64t-13.5 61.5t-16 62t-18.5 66.5zM290 685q0 21 -12 31.5t-29 10.5q-15 0 -27.5 -10.5t-12.5 -31.5t12.5 -31.5t27.5 -10.5q17 0 29 10.5t12 31.5z" />
    <glyph glyph-name="AE" unicode="&#xc6;" 
d="M255 143h-91l-27 -143h-128q26 106 48 186.5t44 150.5t45 136.5t52 145.5h280v-102h-111v-138h88v-102h-88v-175h124v-102h-236v143zM255 536q-17 -69 -34 -138.5t-35 -152.5h69v291z" />
    <glyph glyph-name="Ccedilla" unicode="&#xc7;" 
d="M300 -24q33 -10 46 -29.5t13 -37.5q0 -23 -10.5 -38t-27 -24t-38.5 -13t-44 -4q-45 0 -80 11l13 63q6 -2 23 -5.5t33 -3.5q41 0 41 25q0 19 -36 31l-20 6q2 9 6 19t8 18q-97 21 -148.5 101.5t-51.5 214.5q0 77 21 137t58.5 101.5t89 63t112.5 21.5q33 0 59.5 -5.5
t46.5 -12.5t33.5 -15t20.5 -12l-32 -98q-23 15 -55.5 25.5t-74.5 10.5q-29 0 -56.5 -10.5t-49 -35t-35 -65.5t-13.5 -102q0 -106 36.5 -162.5t119.5 -56.5q48 0 79.5 11t50.5 22l31 -97q-25 -15 -67.5 -28t-97.5 -15z" />
    <glyph glyph-name="Egrave" unicode="&#xc8;" 
d="M63 0v619h375v-102h-252v-139h219v-102h-219v-174h274v-102h-397zM197 830l158 -111l-45 -67l-174 84z" />
    <glyph glyph-name="Eacute" unicode="&#xc9;" 
d="M63 0v619h375v-102h-252v-139h219v-102h-219v-174h274v-102h-397zM359 736l-174 -84l-45 67l158 111z" />
    <glyph glyph-name="Ecircumflex" unicode="&#xca;" 
d="M63 0v619h375v-102h-252v-139h219v-102h-219v-174h274v-102h-397zM390 708l-49 -59l-89 69l-89 -69l-51 59l140 122z" />
    <glyph glyph-name="Edieresis" unicode="&#xcb;" 
d="M63 0v619h375v-102h-252v-139h219v-102h-219v-174h274v-102h-397zM152 677q-28 0 -48.5 17.5t-20.5 49.5t20.5 50t48.5 18q27 0 48 -18t21 -50t-21 -49.5t-48 -17.5zM351 677q-28 0 -48.5 17.5t-20.5 49.5t20.5 50t48.5 18t48.5 -18t20.5 -50t-20.5 -49.5t-48.5 -17.5z
" />
    <glyph glyph-name="Igrave" unicode="&#xcc;" 
d="M54 0v102h135v415h-135v102h393v-102h-134v-415h134v-102h-393zM197 830l158 -111l-45 -67l-174 84z" />
    <glyph glyph-name="Iacute" unicode="&#xcd;" 
d="M54 0v102h135v415h-135v102h393v-102h-134v-415h134v-102h-393zM359 736l-174 -84l-45 67l158 111z" />
    <glyph glyph-name="Icircumflex" unicode="&#xce;" 
d="M54 0v102h135v415h-135v102h393v-102h-134v-415h134v-102h-393zM390 708l-49 -59l-89 69l-89 -69l-51 59l140 122z" />
    <glyph glyph-name="Idieresis" unicode="&#xcf;" 
d="M54 0v102h135v415h-135v102h393v-102h-134v-415h134v-102h-393zM152 677q-28 0 -48.5 17.5t-20.5 49.5t20.5 50t48.5 18q27 0 48 -18t21 -50t-21 -49.5t-48 -17.5zM351 677q-28 0 -48.5 17.5t-20.5 49.5t20.5 50t48.5 18t48.5 -18t20.5 -50t-20.5 -49.5t-48.5 -17.5z" />
    <glyph glyph-name="Eth" unicode="&#xd0;" 
d="M473 310q0 -86 -20.5 -146.5t-57 -98.5t-86.5 -55.5t-110 -17.5q-32 0 -62.5 3.5t-65.5 11.5v263h-53v102h53v239q42 9 77 12t67 3q58 0 106 -18t81.5 -56.5t52 -98t18.5 -143.5zM195 372h76v-102h-76v-170q4 -1 8.5 -1h9.5q38 0 64 16t41.5 44t22.5 66.5t7 84.5
q0 40 -5 78t-18.5 67t-37.5 46.5t-61 17.5q-8 0 -16 -0.5t-15 -2.5v-144z" />
    <glyph glyph-name="Ntilde" unicode="&#xd1;" 
d="M355 0q-42 103 -91.5 205.5t-106.5 205.5v-411h-111v619h99q28 -44 56 -95.5t54.5 -102.5t49 -99t38.5 -84v381h111v-619h-99zM413 772q-5 -14 -14.5 -29.5t-23 -29.5t-30.5 -23t-37 -9q-16 0 -29.5 5t-27 10.5t-27 10.5t-28.5 5q-17 0 -28.5 -11.5t-19.5 -26.5l-59 39
q5 14 14.5 30t23 30t30.5 23t38 9q16 0 29.5 -5t27 -10.5t26.5 -10.5t28 -5q17 0 29 11t19 26z" />
    <glyph glyph-name="Ograve" unicode="&#xd2;" 
d="M152 310q0 -45 3.5 -84.5t14 -68.5t29.5 -46t51 -17q31 0 50.5 17t30 46.5t14 68.5t3.5 84t-3.5 84.5t-14 68.5t-29.5 46t-51 17t-51 -17t-29.5 -46.5t-14 -68.5t-3.5 -84zM27 310q0 160 59 241.5t164 81.5q109 0 166 -81.5t57 -241.5t-58 -241.5t-164 -81.5
q-109 0 -166.5 81.5t-57.5 241.5zM197 830l158 -111l-45 -67l-174 84z" />
    <glyph glyph-name="Oacute" unicode="&#xd3;" 
d="M152 310q0 -45 3.5 -84.5t14 -68.5t29.5 -46t51 -17q31 0 50.5 17t30 46.5t14 68.5t3.5 84t-3.5 84.5t-14 68.5t-29.5 46t-51 17t-51 -17t-29.5 -46.5t-14 -68.5t-3.5 -84zM27 310q0 160 59 241.5t164 81.5q109 0 166 -81.5t57 -241.5t-58 -241.5t-164 -81.5
q-109 0 -166.5 81.5t-57.5 241.5zM359 736l-174 -84l-45 67l158 111z" />
    <glyph glyph-name="Ocircumflex" unicode="&#xd4;" 
d="M152 310q0 -45 3.5 -84.5t14 -68.5t29.5 -46t51 -17q31 0 50.5 17t30 46.5t14 68.5t3.5 84t-3.5 84.5t-14 68.5t-29.5 46t-51 17t-51 -17t-29.5 -46.5t-14 -68.5t-3.5 -84zM27 310q0 160 59 241.5t164 81.5q109 0 166 -81.5t57 -241.5t-58 -241.5t-164 -81.5
q-109 0 -166.5 81.5t-57.5 241.5zM390 708l-49 -59l-89 69l-89 -69l-51 59l140 122z" />
    <glyph glyph-name="Otilde" unicode="&#xd5;" 
d="M152 310q0 -45 3.5 -84.5t14 -68.5t29.5 -46t51 -17q31 0 50.5 17t30 46.5t14 68.5t3.5 84t-3.5 84.5t-14 68.5t-29.5 46t-51 17t-51 -17t-29.5 -46.5t-14 -68.5t-3.5 -84zM27 310q0 160 59 241.5t164 81.5q109 0 166 -81.5t57 -241.5t-58 -241.5t-164 -81.5
q-109 0 -166.5 81.5t-57.5 241.5zM413 772q-5 -14 -14.5 -29.5t-23 -29.5t-30.5 -23t-37 -9q-16 0 -29.5 5t-27 10.5t-27 10.5t-28.5 5q-17 0 -28.5 -11.5t-19.5 -26.5l-59 39q5 14 14.5 30t23 30t30.5 23t38 9q16 0 29.5 -5t27 -10.5t26.5 -10.5t28 -5q17 0 29 11t19 26z
" />
    <glyph glyph-name="Odieresis" unicode="&#xd6;" 
d="M152 310q0 -45 3.5 -84.5t14 -68.5t29.5 -46t51 -17q31 0 50.5 17t30 46.5t14 68.5t3.5 84t-3.5 84.5t-14 68.5t-29.5 46t-51 17t-51 -17t-29.5 -46.5t-14 -68.5t-3.5 -84zM27 310q0 160 59 241.5t164 81.5q109 0 166 -81.5t57 -241.5t-58 -241.5t-164 -81.5
q-109 0 -166.5 81.5t-57.5 241.5zM152 677q-28 0 -48.5 17.5t-20.5 49.5t20.5 50t48.5 18q27 0 48 -18t21 -50t-21 -49.5t-48 -17.5zM351 677q-28 0 -48.5 17.5t-20.5 49.5t20.5 50t48.5 18t48.5 -18t20.5 -50t-20.5 -49.5t-48.5 -17.5z" />
    <glyph glyph-name="multiply" unicode="&#xd7;" 
d="M379 459l70 -71l-125 -124l126 -125l-71 -69l-125 126l-125 -126l-69 68l125 125l-125 125l69 72l125 -125z" />
    <glyph glyph-name="Oslash" unicode="&#xd8;" 
d="M27 308q0 160 59 241.5t164 81.5q55 0 94 -19l23 47l80 -40l-34 -67q60 -83 60 -244q0 -160 -58 -241.5t-164 -81.5q-57 0 -101 23l-23 -48l-79 40l34 71q-55 82 -55 237zM348 308q0 26 -1.5 50.5t-3.5 46.5l-145 -296q22 -17 52 -17q31 0 50.5 17t30 46.5t14 68.5
t3.5 84zM152 308q0 -48 3 -87l141 290q-19 13 -46 13q-32 0 -51 -17t-29.5 -46.5t-14 -68.5t-3.5 -84z" />
    <glyph glyph-name="Ugrave" unicode="&#xd9;" 
d="M248 -13q-60 0 -100.5 16.5t-64.5 47.5t-34 75t-10 98v395h124v-387q0 -39 4 -65.5t13.5 -42.5t26.5 -23t43 -7t43 7t27 23.5t14 43t4 65.5v386h123v-395q0 -54 -10 -98t-35 -75t-66 -47.5t-102 -16.5zM188 830l158 -111l-45 -67l-174 84z" />
    <glyph glyph-name="Uacute" unicode="&#xda;" 
d="M248 -13q-60 0 -100.5 16.5t-64.5 47.5t-34 75t-10 98v395h124v-387q0 -39 4 -65.5t13.5 -42.5t26.5 -23t43 -7t43 7t27 23.5t14 43t4 65.5v386h123v-395q0 -54 -10 -98t-35 -75t-66 -47.5t-102 -16.5zM375 736l-174 -84l-45 67l158 111z" />
    <glyph glyph-name="Ucircumflex" unicode="&#xdb;" 
d="M248 -13q-60 0 -100.5 16.5t-64.5 47.5t-34 75t-10 98v395h124v-387q0 -39 4 -65.5t13.5 -42.5t26.5 -23t43 -7t43 7t27 23.5t14 43t4 65.5v386h123v-395q0 -54 -10 -98t-35 -75t-66 -47.5t-102 -16.5zM390 708l-49 -59l-89 69l-89 -69l-51 59l140 122z" />
    <glyph glyph-name="Udieresis" unicode="&#xdc;" 
d="M248 -13q-60 0 -100.5 16.5t-64.5 47.5t-34 75t-10 98v395h124v-387q0 -39 4 -65.5t13.5 -42.5t26.5 -23t43 -7t43 7t27 23.5t14 43t4 65.5v386h123v-395q0 -54 -10 -98t-35 -75t-66 -47.5t-102 -16.5zM152 677q-28 0 -48.5 17.5t-20.5 49.5t20.5 50t48.5 18q27 0 48 -18
t21 -50t-21 -49.5t-48 -17.5zM351 677q-28 0 -48.5 17.5t-20.5 49.5t20.5 50t48.5 18t48.5 -18t20.5 -50t-20.5 -49.5t-48.5 -17.5z" />
    <glyph glyph-name="Yacute" unicode="&#xdd;" 
d="M254 336q11 23 25.5 58t29 74t28 79t24.5 72h127q-19 -51 -38 -99t-40 -95t-45 -93.5t-52 -95.5v-236h-124v235q-55 97 -96.5 189.5t-79.5 194.5h132q23 -72 51 -146.5t58 -136.5zM375 736l-174 -84l-45 67l158 111z" />
    <glyph glyph-name="Thorn" unicode="&#xde;" 
d="M224 531q119 0 183.5 -51t64.5 -156q0 -104 -65 -157t-186 -53h-44v-114h-123v619h123v-89q13 1 24.5 1h22.5zM238 424q-11 0 -30.5 -0.5t-30.5 -2.5v-200h50q59 0 89 27t30 77q0 48 -29.5 73.5t-78.5 25.5z" />
    <glyph glyph-name="germandbls" unicode="&#xdf;" 
d="M408 545q0 -43 -10.5 -67.5t-22.5 -42t-22.5 -34.5t-10.5 -46q0 -21 11 -35.5t28 -27t36 -24.5t36 -27.5t28 -38t11 -54.5q0 -77 -38.5 -118t-132.5 -41q-47 0 -74.5 8.5t-44.5 16.5l22 102q17 -8 42.5 -15.5t46.5 -7.5q27 0 40.5 14.5t13.5 38.5t-21.5 42t-55.5 35
q-45 24 -57 53.5t-12 61.5q0 35 11 57t24 40.5t24 39.5t11 55q0 29 -16 43.5t-45 14.5q-38 0 -57 -29t-19 -80v-479h-123v476q0 47 11 87t35 69t61 45t89 16q50 0 84.5 -12t56 -32.5t31 -47t9.5 -56.5z" />
    <glyph glyph-name="agrave" unicode="&#xe0;" 
d="M251 88q20 0 39 0.5t33 2.5v108q-12 2 -29 3.5t-31 1.5q-19 0 -37 -2.5t-31.5 -8.5t-21.5 -17t-8 -29q0 -32 24 -45.5t62 -13.5zM240 482q58 0 96.5 -13.5t61.5 -38t33 -60t10 -79.5v-280q-27 -6 -80 -14t-119 -8q-45 0 -81.5 8t-62.5 26.5t-40 48t-14 72.5q0 41 16 69
t43 45t62 24.5t73 7.5q48 0 85 -8v15q0 35 -22 58.5t-76 23.5q-35 0 -67.5 -5t-52.5 -12l-17 99q23 8 65 14.5t87 6.5zM196 691l158 -111l-45 -67l-174 84z" />
    <glyph glyph-name="aacute" unicode="&#xe1;" 
d="M251 88q20 0 39 0.5t33 2.5v108q-12 2 -29 3.5t-31 1.5q-19 0 -37 -2.5t-31.5 -8.5t-21.5 -17t-8 -29q0 -32 24 -45.5t62 -13.5zM240 482q58 0 96.5 -13.5t61.5 -38t33 -60t10 -79.5v-280q-27 -6 -80 -14t-119 -8q-45 0 -81.5 8t-62.5 26.5t-40 48t-14 72.5q0 41 16 69
t43 45t62 24.5t73 7.5q48 0 85 -8v15q0 35 -22 58.5t-76 23.5q-35 0 -67.5 -5t-52.5 -12l-17 99q23 8 65 14.5t87 6.5zM371 597l-174 -84l-45 67l158 111z" />
    <glyph glyph-name="acircumflex" unicode="&#xe2;" 
d="M251 88q20 0 39 0.5t33 2.5v108q-12 2 -29 3.5t-31 1.5q-19 0 -37 -2.5t-31.5 -8.5t-21.5 -17t-8 -29q0 -32 24 -45.5t62 -13.5zM240 482q58 0 96.5 -13.5t61.5 -38t33 -60t10 -79.5v-280q-27 -6 -80 -14t-119 -8q-45 0 -81.5 8t-62.5 26.5t-40 48t-14 72.5q0 41 16 69
t43 45t62 24.5t73 7.5q48 0 85 -8v15q0 35 -22 58.5t-76 23.5q-35 0 -67.5 -5t-52.5 -12l-17 99q23 8 65 14.5t87 6.5zM390 569l-49 -59l-89 69l-89 -69l-51 59l140 122z" />
    <glyph glyph-name="atilde" unicode="&#xe3;" 
d="M251 88q20 0 39 0.5t33 2.5v108q-12 2 -29 3.5t-31 1.5q-19 0 -37 -2.5t-31.5 -8.5t-21.5 -17t-8 -29q0 -32 24 -45.5t62 -13.5zM240 482q58 0 96.5 -13.5t61.5 -38t33 -60t10 -79.5v-280q-27 -6 -80 -14t-119 -8q-45 0 -81.5 8t-62.5 26.5t-40 48t-14 72.5q0 41 16 69
t43 45t62 24.5t73 7.5q48 0 85 -8v15q0 35 -22 58.5t-76 23.5q-35 0 -67.5 -5t-52.5 -12l-17 99q23 8 65 14.5t87 6.5zM414 633q-5 -14 -14.5 -29.5t-23 -29.5t-30.5 -23t-37 -9q-16 0 -29.5 5t-27 10.5t-27 10.5t-28.5 5q-17 0 -28.5 -11.5t-19.5 -26.5l-59 39
q5 14 14.5 30t23 30t30.5 23t38 9q16 0 29.5 -5t27 -10.5t26.5 -10.5t28 -5q17 0 29 11t19 26z" />
    <glyph glyph-name="adieresis" unicode="&#xe4;" 
d="M251 88q20 0 39 0.5t33 2.5v108q-12 2 -29 3.5t-31 1.5q-19 0 -37 -2.5t-31.5 -8.5t-21.5 -17t-8 -29q0 -32 24 -45.5t62 -13.5zM240 482q58 0 96.5 -13.5t61.5 -38t33 -60t10 -79.5v-280q-27 -6 -80 -14t-119 -8q-45 0 -81.5 8t-62.5 26.5t-40 48t-14 72.5q0 41 16 69
t43 45t62 24.5t73 7.5q48 0 85 -8v15q0 35 -22 58.5t-76 23.5q-35 0 -67.5 -5t-52.5 -12l-17 99q23 8 65 14.5t87 6.5zM152 538q-28 0 -48.5 17.5t-20.5 49.5t20.5 50t48.5 18q27 0 48 -18t21 -50t-21 -49.5t-48 -17.5zM351 538q-28 0 -48.5 17.5t-20.5 49.5t20.5 50
t48.5 18t48.5 -18t20.5 -50t-20.5 -49.5t-48.5 -17.5z" />
    <glyph glyph-name="aring" unicode="&#xe5;" 
d="M251 88q20 0 39 0.5t33 2.5v108q-12 2 -29 3.5t-31 1.5q-19 0 -37 -2.5t-31.5 -8.5t-21.5 -17t-8 -29q0 -32 24 -45.5t62 -13.5zM240 482q58 0 96.5 -13.5t61.5 -38t33 -60t10 -79.5v-280q-27 -6 -80 -14t-119 -8q-45 0 -81.5 8t-62.5 26.5t-40 48t-14 72.5q0 41 16 69
t43 45t62 24.5t73 7.5q48 0 85 -8v15q0 35 -22 58.5t-76 23.5q-35 0 -67.5 -5t-52.5 -12l-17 99q23 8 65 14.5t87 6.5zM355 604q0 -50 -31.5 -76t-74.5 -26q-20 0 -39 6.5t-33.5 19.5t-23 32t-8.5 44t8.5 44.5t23 32.5t33.5 19.5t39 6.5q43 0 74.5 -26t31.5 -77zM290 604
q0 21 -12 31.5t-29 10.5q-15 0 -27.5 -10.5t-12.5 -31.5q0 -20 12.5 -31t27.5 -11q17 0 29 11t12 31z" />
    <glyph glyph-name="ae" unicode="&#xe6;" 
d="M163 482q31 0 58.5 -12.5t48.5 -41.5q17 26 38 40t46 14q29 0 53.5 -12t42.5 -39t28 -71t10 -108v-29.5t-2 -27.5h-179q1 -28 8 -47.5t18 -32t25 -18t30 -5.5q18 0 35.5 4.5t31.5 12.5l18 -97q-23 -12 -45.5 -17.5t-52.5 -5.5q-35 0 -60 14t-42 35q-23 -26 -52.5 -37.5
t-58.5 -11.5q-34 0 -60 13.5t-43.5 35.5t-26.5 50t-9 57q0 68 38.5 106.5t98.5 38.5q13 0 26 -1.5t27 -6.5v23q0 44 -15.5 61t-42.5 17q-17 0 -36.5 -5.5t-42.5 -13.5l-17 95q26 11 52 17t52 6zM213 199q-9 3 -18.5 4t-17.5 1q-26 0 -42.5 -13t-16.5 -45q0 -27 14 -43
t41 -16q23 0 49 12q-6 26 -7.5 52t-1.5 48zM354 384q-13 0 -21.5 -9.5t-14 -24.5t-8 -33.5t-2.5 -36.5h88q0 19 -2 38t-6.5 33.5t-12.5 23.5t-21 9z" />
    <glyph glyph-name="ccedilla" unicode="&#xe7;" 
d="M44 235q0 51 16 96t49 78.5t83.5 53t120.5 19.5q42 0 76 -6t69 -20l-27 -99q-20 7 -44.5 12.5t-62.5 5.5q-44 0 -73.5 -10.5t-47.5 -29t-26 -44.5t-8 -56q0 -65 36.5 -102t124.5 -37q29 0 60.5 4t57.5 13l18 -101q-26 -10 -63 -16.5t-87 -6.5h-11l-5 -13q33 -10 46 -29.5
t13 -37.5q0 -23 -10.5 -38t-27 -24t-38.5 -13t-44 -4q-45 0 -80 11l13 63q6 -2 23 -5.5t33 -3.5q41 0 41 25q0 19 -36 31l-20 6q6 21 16 41q-49 10 -84 32t-57.5 53t-33 69.5t-10.5 82.5z" />
    <glyph glyph-name="egrave" unicode="&#xe8;" 
d="M31 231q0 62 19 109t50 78.5t71 47.5t82 16q104 0 158 -61.5t54 -179.5q0 -12 -0.5 -25t-1.5 -21h-305q0 -46 38 -72.5t98 -26.5q37 0 70.5 8t56.5 16l17 -105q-32 -11 -68 -18.5t-81 -7.5q-60 0 -107.5 15.5t-81 46t-51.5 75.5t-18 105zM346 280q0 19 -5 36.5t-16 31.5
t-28 22.5t-42 8.5q-24 0 -41.5 -8t-29 -22t-18 -32t-8.5 -37h188zM196 691l158 -111l-45 -67l-174 84z" />
    <glyph glyph-name="eacute" unicode="&#xe9;" 
d="M31 231q0 62 19 109t50 78.5t71 47.5t82 16q104 0 158 -61.5t54 -179.5q0 -12 -0.5 -25t-1.5 -21h-305q0 -46 38 -72.5t98 -26.5q37 0 70.5 8t56.5 16l17 -105q-32 -11 -68 -18.5t-81 -7.5q-60 0 -107.5 15.5t-81 46t-51.5 75.5t-18 105zM346 280q0 19 -5 36.5t-16 31.5
t-28 22.5t-42 8.5q-24 0 -41.5 -8t-29 -22t-18 -32t-8.5 -37h188zM380 597l-174 -84l-45 67l158 111z" />
    <glyph glyph-name="ecircumflex" unicode="&#xea;" 
d="M31 231q0 62 19 109t50 78.5t71 47.5t82 16q104 0 158 -61.5t54 -179.5q0 -12 -0.5 -25t-1.5 -21h-305q0 -46 38 -72.5t98 -26.5q37 0 70.5 8t56.5 16l17 -105q-32 -11 -68 -18.5t-81 -7.5q-60 0 -107.5 15.5t-81 46t-51.5 75.5t-18 105zM346 280q0 19 -5 36.5t-16 31.5
t-28 22.5t-42 8.5q-24 0 -41.5 -8t-29 -22t-18 -32t-8.5 -37h188zM394 569l-49 -59l-89 69l-89 -69l-51 59l140 122z" />
    <glyph glyph-name="edieresis" unicode="&#xeb;" 
d="M31 231q0 62 19 109t50 78.5t71 47.5t82 16q104 0 158 -61.5t54 -179.5q0 -12 -0.5 -25t-1.5 -21h-305q0 -46 38 -72.5t98 -26.5q37 0 70.5 8t56.5 16l17 -105q-32 -11 -68 -18.5t-81 -7.5q-60 0 -107.5 15.5t-81 46t-51.5 75.5t-18 105zM346 280q0 19 -5 36.5t-16 31.5
t-28 22.5t-42 8.5q-24 0 -41.5 -8t-29 -22t-18 -32t-8.5 -37h188zM152 538q-28 0 -48.5 17.5t-20.5 49.5t20.5 50t48.5 18q27 0 48 -18t21 -50t-21 -49.5t-48 -17.5zM351 538q-28 0 -48.5 17.5t-20.5 49.5t20.5 50t48.5 18t48.5 -18t20.5 -50t-20.5 -49.5t-48.5 -17.5z" />
    <glyph glyph-name="igrave" unicode="&#xec;" 
d="M467 20q-38 -18 -71.5 -24.5t-61.5 -6.5q-48 0 -80.5 14t-52 40.5t-27.5 64.5t-8 87v173h-130v102h253v-291q0 -42 15.5 -62.5t51.5 -20.5q17 0 41 4.5t54 18.5zM178 691l158 -111l-45 -67l-174 84z" />
    <glyph glyph-name="iacute" unicode="&#xed;" 
d="M467 20q-38 -18 -71.5 -24.5t-61.5 -6.5q-48 0 -80.5 14t-52 40.5t-27.5 64.5t-8 87v173h-130v102h253v-291q0 -42 15.5 -62.5t51.5 -20.5q17 0 41 4.5t54 18.5zM359 597l-174 -84l-45 67l158 111z" />
    <glyph glyph-name="icircumflex" unicode="&#xee;" 
d="M467 20q-38 -18 -71.5 -24.5t-61.5 -6.5q-48 0 -80.5 14t-52 40.5t-27.5 64.5t-8 87v173h-130v102h253v-291q0 -42 15.5 -62.5t51.5 -20.5q17 0 41 4.5t54 18.5zM373 569l-49 -59l-89 69l-89 -69l-51 59l140 122z" />
    <glyph glyph-name="idieresis" unicode="&#xef;" 
d="M467 20q-38 -18 -71.5 -24.5t-61.5 -6.5q-48 0 -80.5 14t-52 40.5t-27.5 64.5t-8 87v173h-130v102h253v-291q0 -42 15.5 -62.5t51.5 -20.5q17 0 41 4.5t54 18.5zM135 538q-28 0 -48.5 17.5t-20.5 49.5t20.5 50t48.5 18q27 0 48 -18t21 -50t-21 -49.5t-48 -17.5zM334 538
q-28 0 -48.5 17.5t-20.5 49.5t20.5 50t48.5 18t48.5 -18t20.5 -50t-20.5 -49.5t-48.5 -17.5z" />
    <glyph glyph-name="eth" unicode="&#xf0;" 
d="M391 535q32 -60 48 -126.5t16 -132.5q0 -58 -10.5 -110.5t-34.5 -92t-64 -63t-100 -23.5q-52 0 -90.5 17.5t-64 47.5t-38.5 70.5t-13 86.5q0 43 12.5 81.5t37 67.5t62 46t88.5 17q20 0 42 -7t39 -16q-5 23 -15 48t-26 51l-92 -31l-26 75l68 23q-14 16 -30 29.5t-34 26.5
l74 77q61 -36 106 -93l109 36l25 -75zM327 294q-24 21 -45.5 25t-32.5 4q-42 0 -62.5 -30t-20.5 -84q0 -22 5 -42.5t14.5 -36.5t23.5 -26t32 -10q48 0 67.5 47.5t19.5 125.5q0 7 -0.5 13.5t-0.5 13.5z" />
    <glyph glyph-name="ntilde" unicode="&#xf1;" 
d="M63 455q33 9 81.5 17t105.5 8q56 0 93 -15.5t58.5 -44t30.5 -68t9 -87.5v-265h-123v249q0 66 -15 95t-61 29q-14 0 -27.5 -1t-28.5 -3v-369h-123v455zM414 633q-5 -14 -14.5 -29.5t-23 -29.5t-30.5 -23t-37 -9q-16 0 -29.5 5t-27 10.5t-27 10.5t-28.5 5
q-17 0 -28.5 -11.5t-19.5 -26.5l-59 39q5 14 14.5 30t23 30t30.5 23t38 9q16 0 29.5 -5t27 -10.5t26.5 -10.5t28 -5q17 0 29 11t19 26z" />
    <glyph glyph-name="ograve" unicode="&#xf2;" 
d="M472 236q0 -56 -16 -101.5t-45 -78.5t-69.5 -51t-90.5 -18t-90.5 18t-70 51t-45.5 78.5t-16 101.5q0 55 16.5 100.5t46 78t70.5 50t89 17.5q49 0 89.5 -17.5t70 -50t45.5 -78t16 -100.5zM154 235q0 -63 22.5 -102t72.5 -39q48 0 72.5 39t24.5 102t-22.5 101.5t-72.5 38.5
q-48 0 -72.5 -38.5t-24.5 -101.5zM196 691l158 -111l-45 -67l-174 84z" />
    <glyph glyph-name="oacute" unicode="&#xf3;" 
d="M472 236q0 -56 -16 -101.5t-45 -78.5t-69.5 -51t-90.5 -18t-90.5 18t-70 51t-45.5 78.5t-16 101.5q0 55 16.5 100.5t46 78t70.5 50t89 17.5q49 0 89.5 -17.5t70 -50t45.5 -78t16 -100.5zM154 235q0 -63 22.5 -102t72.5 -39q48 0 72.5 39t24.5 102t-22.5 101.5t-72.5 38.5
q-48 0 -72.5 -38.5t-24.5 -101.5zM363 597l-174 -84l-45 67l158 111z" />
    <glyph glyph-name="ocircumflex" unicode="&#xf4;" 
d="M472 236q0 -56 -16 -101.5t-45 -78.5t-69.5 -51t-90.5 -18t-90.5 18t-70 51t-45.5 78.5t-16 101.5q0 55 16.5 100.5t46 78t70.5 50t89 17.5q49 0 89.5 -17.5t70 -50t45.5 -78t16 -100.5zM154 235q0 -63 22.5 -102t72.5 -39q48 0 72.5 39t24.5 102t-22.5 101.5t-72.5 38.5
q-48 0 -72.5 -38.5t-24.5 -101.5zM390 569l-49 -59l-89 69l-89 -69l-51 59l140 122z" />
    <glyph glyph-name="otilde" unicode="&#xf5;" 
d="M472 236q0 -56 -16 -101.5t-45 -78.5t-69.5 -51t-90.5 -18t-90.5 18t-70 51t-45.5 78.5t-16 101.5q0 55 16.5 100.5t46 78t70.5 50t89 17.5q49 0 89.5 -17.5t70 -50t45.5 -78t16 -100.5zM154 235q0 -63 22.5 -102t72.5 -39q48 0 72.5 39t24.5 102t-22.5 101.5t-72.5 38.5
q-48 0 -72.5 -38.5t-24.5 -101.5zM414 633q-5 -14 -14.5 -29.5t-23 -29.5t-30.5 -23t-37 -9q-16 0 -29.5 5t-27 10.5t-27 10.5t-28.5 5q-17 0 -28.5 -11.5t-19.5 -26.5l-59 39q5 14 14.5 30t23 30t30.5 23t38 9q16 0 29.5 -5t27 -10.5t26.5 -10.5t28 -5q17 0 29 11t19 26z
" />
    <glyph glyph-name="odieresis" unicode="&#xf6;" 
d="M472 236q0 -56 -16 -101.5t-45 -78.5t-69.5 -51t-90.5 -18t-90.5 18t-70 51t-45.5 78.5t-16 101.5q0 55 16.5 100.5t46 78t70.5 50t89 17.5q49 0 89.5 -17.5t70 -50t45.5 -78t16 -100.5zM154 235q0 -63 22.5 -102t72.5 -39q48 0 72.5 39t24.5 102t-22.5 101.5t-72.5 38.5
q-48 0 -72.5 -38.5t-24.5 -101.5zM152 538q-28 0 -48.5 17.5t-20.5 49.5t20.5 50t48.5 18q27 0 48 -18t21 -50t-21 -49.5t-48 -17.5zM351 538q-28 0 -48.5 17.5t-20.5 49.5t20.5 50t48.5 18t48.5 -18t20.5 -50t-20.5 -49.5t-48.5 -17.5z" />
    <glyph glyph-name="divide" unicode="&#xf7;" 
d="M321 444q0 -36 -21 -54.5t-48 -18.5q-29 0 -50 18.5t-21 54.5t21 55t50 19q27 0 48 -19t21 -55zM321 79q0 -35 -21 -54.5t-48 -19.5q-29 0 -50 19.5t-21 54.5q0 36 21 55.5t50 19.5q27 0 48 -19.5t21 -55.5zM40 313h420v-101h-420v101z" />
    <glyph glyph-name="oslash" unicode="&#xf8;" 
d="M472 234q0 -56 -16 -101.5t-45 -78.5t-69.5 -51t-90.5 -18q-32 0 -60 7.5t-53 20.5l-38 -51l-62 47l41 57q-24 32 -37 74.5t-13 93.5q0 55 16.5 100.5t46 78t70.5 50t89 17.5q62 0 112 -29l37 51l63 -47l-42 -57q24 -32 37.5 -73t13.5 -91zM154 233q0 -16 1 -30.5
t4 -28.5l137 188q-19 11 -45 11q-48 0 -72.5 -38.5t-24.5 -101.5zM346 233q0 16 -1 29.5t-4 26.5l-137 -185q19 -12 45 -12q48 0 72.5 39t24.5 102z" />
    <glyph glyph-name="ugrave" unicode="&#xf9;" 
d="M438 16q-34 -9 -82.5 -18t-105.5 -9q-58 0 -95 16t-58.5 45.5t-29.5 69.5t-8 88v262h123v-246q0 -65 15.5 -96.5t60.5 -31.5q28 0 56 5v369h124v-454zM196 691l158 -111l-45 -67l-174 84z" />
    <glyph glyph-name="uacute" unicode="&#xfa;" 
d="M438 16q-34 -9 -82.5 -18t-105.5 -9q-58 0 -95 16t-58.5 45.5t-29.5 69.5t-8 88v262h123v-246q0 -65 15.5 -96.5t60.5 -31.5q28 0 56 5v369h124v-454zM359 597l-174 -84l-45 67l158 111z" />
    <glyph glyph-name="ucircumflex" unicode="&#xfb;" 
d="M438 16q-34 -9 -82.5 -18t-105.5 -9q-58 0 -95 16t-58.5 45.5t-29.5 69.5t-8 88v262h123v-246q0 -65 15.5 -96.5t60.5 -31.5q28 0 56 5v369h124v-454zM390 569l-49 -59l-89 69l-89 -69l-51 59l140 122z" />
    <glyph glyph-name="udieresis" unicode="&#xfc;" 
d="M438 16q-34 -9 -82.5 -18t-105.5 -9q-58 0 -95 16t-58.5 45.5t-29.5 69.5t-8 88v262h123v-246q0 -65 15.5 -96.5t60.5 -31.5q28 0 56 5v369h124v-454zM152 538q-28 0 -48.5 17.5t-20.5 49.5t20.5 50t48.5 18q27 0 48 -18t21 -50t-21 -49.5t-48 -17.5zM351 538
q-28 0 -48.5 17.5t-20.5 49.5t20.5 50t48.5 18t48.5 -18t20.5 -50t-20.5 -49.5t-48.5 -17.5z" />
    <glyph glyph-name="yacute" unicode="&#xfd;" 
d="M472 470q-19 -66 -36.5 -129.5t-36.5 -124t-40.5 -118.5t-46.5 -113q-19 -40 -37.5 -69t-41 -47.5t-50 -27.5t-64.5 -9q-31 0 -56.5 5t-42.5 13l23 103q20 -9 35.5 -12.5t33.5 -3.5q36 0 58 24t35 57q-44 88 -88 201.5t-80 250.5h128q9 -37 20.5 -79t24.5 -84t27.5 -82.5
t29.5 -75.5q10 35 21 75.5t21 82t19.5 83.5t17.5 80h126zM359 597l-174 -84l-45 67l158 111z" />
    <glyph glyph-name="thorn" unicode="&#xfe;" 
d="M469 235q0 -54 -12 -99.5t-35 -78t-58 -50.5t-81 -18q-47 0 -97 23v-177h-123v838l123 21v-222q14 3 29 5.5t29 2.5q109 0 167 -66t58 -179zM344 231q0 63 -25 103.5t-76 40.5q-14 0 -30 -1.5t-27 -2.5v-258q12 -8 32 -13t40 -5q44 0 65 35.5t21 100.5z" />
    <glyph glyph-name="ydieresis" unicode="&#xff;" 
d="M472 470q-19 -66 -36.5 -129.5t-36.5 -124t-40.5 -118.5t-46.5 -113q-19 -40 -37.5 -69t-41 -47.5t-50 -27.5t-64.5 -9q-31 0 -56.5 5t-42.5 13l23 103q20 -9 35.5 -12.5t33.5 -3.5q36 0 58 24t35 57q-44 88 -88 201.5t-80 250.5h128q9 -37 20.5 -79t24.5 -84t27.5 -82.5
t29.5 -75.5q10 35 21 75.5t21 82t19.5 83.5t17.5 80h126zM152 538q-28 0 -48.5 17.5t-20.5 49.5t20.5 50t48.5 18q27 0 48 -18t21 -50t-21 -49.5t-48 -17.5zM351 538q-28 0 -48.5 17.5t-20.5 49.5t20.5 50t48.5 18t48.5 -18t20.5 -50t-20.5 -49.5t-48.5 -17.5z" />
    <glyph glyph-name="Amacron" unicode="&#x100;" 
d="M359 0l-29 143h-165l-28 -143h-128q44 183 89 333.5t87 285.5h134q44 -136 87.5 -288.5t84.5 -330.5h-132zM249 499q-10 -35 -18.5 -66.5t-16 -62t-14 -61.5t-12.5 -64h121q-6 33 -12 64t-13.5 61.5t-16 62t-18.5 66.5zM107 786h288v-87h-288v87z" />
    <glyph glyph-name="amacron" unicode="&#x101;" 
d="M251 88q20 0 39 0.5t33 2.5v108q-12 2 -29 3.5t-31 1.5q-19 0 -37 -2.5t-31.5 -8.5t-21.5 -17t-8 -29q0 -32 24 -45.5t62 -13.5zM240 482q58 0 96.5 -13.5t61.5 -38t33 -60t10 -79.5v-280q-27 -6 -80 -14t-119 -8q-45 0 -81.5 8t-62.5 26.5t-40 48t-14 72.5q0 41 16 69
t43 45t62 24.5t73 7.5q48 0 85 -8v15q0 35 -22 58.5t-76 23.5q-35 0 -67.5 -5t-52.5 -12l-17 99q23 8 65 14.5t87 6.5zM107 647h288v-87h-288v87z" />
    <glyph glyph-name="Abreve" unicode="&#x102;" 
d="M359 0l-29 143h-165l-28 -143h-128q44 183 89 333.5t87 285.5h134q44 -136 87.5 -288.5t84.5 -330.5h-132zM249 499q-10 -35 -18.5 -66.5t-16 -62t-14 -61.5t-12.5 -64h121q-6 33 -12 64t-13.5 61.5t-16 62t-18.5 66.5zM250 673q-31 0 -57.5 9.5t-46 28t-30.5 44.5
t-11 59v7h91q2 -38 17 -50.5t37 -12.5t37 12.5t18 50.5h90v-7q0 -33 -11 -59t-30.5 -44.5t-46 -28t-57.5 -9.5z" />
    <glyph glyph-name="abreve" unicode="&#x103;" 
d="M251 88q20 0 39 0.5t33 2.5v108q-12 2 -29 3.5t-31 1.5q-19 0 -37 -2.5t-31.5 -8.5t-21.5 -17t-8 -29q0 -32 24 -45.5t62 -13.5zM240 482q58 0 96.5 -13.5t61.5 -38t33 -60t10 -79.5v-280q-27 -6 -80 -14t-119 -8q-45 0 -81.5 8t-62.5 26.5t-40 48t-14 72.5q0 41 16 69
t43 45t62 24.5t73 7.5q48 0 85 -8v15q0 35 -22 58.5t-76 23.5q-35 0 -67.5 -5t-52.5 -12l-17 99q23 8 65 14.5t87 6.5zM250 534q-31 0 -57.5 9.5t-46 28t-30.5 44.5t-11 59v7h91q2 -38 17 -50.5t37 -12.5t37 12.5t18 50.5h90v-7q0 -33 -11 -59t-30.5 -44.5t-46 -28
t-57.5 -9.5z" />
    <glyph glyph-name="Aogonek" unicode="&#x104;" 
d="M249 499q-10 -35 -18.5 -66.5t-16 -62t-14 -61.5t-12.5 -64h121q-6 33 -12 64t-13.5 61.5t-16 62t-18.5 66.5zM359 0l-29 143h-165l-28 -143h-128q44 183 89 333.5t87 285.5h134q44 -136 87.5 -288.5t84.5 -330.5q-9 -8 -20.5 -18t-21.5 -21t-16.5 -22t-6.5 -20
q0 -10 5.5 -17t21.5 -7q8 0 19 1t26 6l7 -58q-14 -5 -39.5 -9.5t-53.5 -4.5q-48 0 -69 18.5t-21 45.5q0 24 13.5 51t39.5 47l9 8h-25z" />
    <glyph glyph-name="aogonek" unicode="&#x105;" 
d="M439 -156q-14 -5 -39.5 -9.5t-53.5 -4.5q-48 0 -69 18.5t-21 45.5q0 24 14.5 50.5t38.5 48.5q-17 -2 -34 -3t-33 -1q-45 0 -81.5 8t-62.5 26.5t-40 48t-14 72.5q0 41 16 69t43 45t62 24.5t73 7.5q48 0 85 -8v15q0 35 -22 58.5t-76 23.5q-35 0 -67.5 -5t-52.5 -12l-17 99
q23 8 65 14.5t87 6.5q58 0 96.5 -13.5t61.5 -38t33 -60t10 -79.5v-278q-7 -5 -20.5 -16t-27 -24.5t-23.5 -27.5t-10 -26q0 -10 5.5 -17t21.5 -7q8 0 19 1t26 6zM251 88q20 0 39 0.5t33 2.5v108q-12 2 -29 3.5t-31 1.5q-19 0 -37 -2.5t-31.5 -8.5t-21.5 -17t-8 -29
q0 -32 24 -45.5t62 -13.5z" />
    <glyph glyph-name="Cacute" unicode="&#x106;" 
d="M296 -13q-131 0 -200 84t-69 239q0 77 21 137t58.5 101.5t89 63t112.5 21.5q33 0 59.5 -5.5t46.5 -12.5t33.5 -15t20.5 -12l-32 -98q-23 15 -55.5 25.5t-74.5 10.5q-29 0 -56.5 -10.5t-49 -35t-35 -65.5t-13.5 -102q0 -106 36.5 -162.5t119.5 -56.5q48 0 79.5 11t50.5 22
l31 -97q-26 -16 -70.5 -29.5t-102.5 -13.5zM407 736l-174 -84l-45 67l158 111z" />
    <glyph glyph-name="cacute" unicode="&#x107;" 
d="M44 235q0 51 16 96t49 78.5t83.5 53t120.5 19.5q42 0 76 -6t69 -20l-27 -99q-20 7 -44.5 12.5t-62.5 5.5q-44 0 -73.5 -10.5t-47.5 -29t-26 -44.5t-8 -56q0 -65 36.5 -102t124.5 -37q29 0 60.5 4t57.5 13l18 -101q-26 -10 -63 -16.5t-87 -6.5q-72 0 -123.5 19t-84.5 52
t-48.5 78t-15.5 97zM398 597l-174 -84l-45 67l158 111z" />
    <glyph glyph-name="Ccircumflex" unicode="&#x108;" 
d="M296 -13q-131 0 -200 84t-69 239q0 77 21 137t58.5 101.5t89 63t112.5 21.5q33 0 59.5 -5.5t46.5 -12.5t33.5 -15t20.5 -12l-32 -98q-23 15 -55.5 25.5t-74.5 10.5q-29 0 -56.5 -10.5t-49 -35t-35 -65.5t-13.5 -102q0 -106 36.5 -162.5t119.5 -56.5q48 0 79.5 11t50.5 22
l31 -97q-26 -16 -70.5 -29.5t-102.5 -13.5zM444 708l-49 -59l-89 69l-89 -69l-51 59l140 122z" />
    <glyph glyph-name="ccircumflex" unicode="&#x109;" 
d="M44 235q0 51 16 96t49 78.5t83.5 53t120.5 19.5q42 0 76 -6t69 -20l-27 -99q-20 7 -44.5 12.5t-62.5 5.5q-44 0 -73.5 -10.5t-47.5 -29t-26 -44.5t-8 -56q0 -65 36.5 -102t124.5 -37q29 0 60.5 4t57.5 13l18 -101q-26 -10 -63 -16.5t-87 -6.5q-72 0 -123.5 19t-84.5 52
t-48.5 78t-15.5 97zM435 569l-49 -59l-89 69l-89 -69l-51 59l140 122z" />
    <glyph glyph-name="Cdotaccent" unicode="&#x10a;" 
d="M296 -13q-131 0 -200 84t-69 239q0 77 21 137t58.5 101.5t89 63t112.5 21.5q33 0 59.5 -5.5t46.5 -12.5t33.5 -15t20.5 -12l-32 -98q-23 15 -55.5 25.5t-74.5 10.5q-29 0 -56.5 -10.5t-49 -35t-35 -65.5t-13.5 -102q0 -106 36.5 -162.5t119.5 -56.5q48 0 79.5 11t50.5 22
l31 -97q-26 -16 -70.5 -29.5t-102.5 -13.5zM304 675q-29 0 -50 18.5t-21 50.5t21 51t50 19t50 -19t21 -51t-21 -50.5t-50 -18.5z" />
    <glyph glyph-name="cdotaccent" unicode="&#x10b;" 
d="M44 235q0 51 16 96t49 78.5t83.5 53t120.5 19.5q42 0 76 -6t69 -20l-27 -99q-20 7 -44.5 12.5t-62.5 5.5q-44 0 -73.5 -10.5t-47.5 -29t-26 -44.5t-8 -56q0 -65 36.5 -102t124.5 -37q29 0 60.5 4t57.5 13l18 -101q-26 -10 -63 -16.5t-87 -6.5q-72 0 -123.5 19t-84.5 52
t-48.5 78t-15.5 97zM304 536q-29 0 -50 18.5t-21 50.5t21 51t50 19t50 -19t21 -51t-21 -50.5t-50 -18.5z" />
    <glyph glyph-name="Ccaron" unicode="&#x10c;" 
d="M296 -13q-131 0 -200 84t-69 239q0 77 21 137t58.5 101.5t89 63t112.5 21.5q33 0 59.5 -5.5t46.5 -12.5t33.5 -15t20.5 -12l-32 -98q-23 15 -55.5 25.5t-74.5 10.5q-29 0 -56.5 -10.5t-49 -35t-35 -65.5t-13.5 -102q0 -106 36.5 -162.5t119.5 -56.5q48 0 79.5 11t50.5 22
l31 -97q-26 -16 -70.5 -29.5t-102.5 -13.5zM166 771l49 59l89 -69l89 69l51 -59l-140 -122z" />
    <glyph glyph-name="ccaron" unicode="&#x10d;" 
d="M44 235q0 51 16 96t49 78.5t83.5 53t120.5 19.5q42 0 76 -6t69 -20l-27 -99q-20 7 -44.5 12.5t-62.5 5.5q-44 0 -73.5 -10.5t-47.5 -29t-26 -44.5t-8 -56q0 -65 36.5 -102t124.5 -37q29 0 60.5 4t57.5 13l18 -101q-26 -10 -63 -16.5t-87 -6.5q-72 0 -123.5 19t-84.5 52
t-48.5 78t-15.5 97zM166 632l49 59l89 -69l89 69l51 -59l-140 -122z" />
    <glyph glyph-name="Dcaron" unicode="&#x10e;" 
d="M177 100q5 -1 11 -1h11q42 0 70.5 16t46 44t25 66.5t7.5 84.5q0 40 -6 78t-21 67t-41 46.5t-67 17.5q-8 0 -18 -0.5t-18 -2.5v-416zM473 310q0 -86 -21.5 -146.5t-59.5 -98.5t-90.5 -55.5t-115.5 -17.5q-33 0 -64.5 3.5t-67.5 11.5v604q42 9 79 12t69 3q61 0 111.5 -18
t85.5 -56.5t54.5 -98t19.5 -143.5zM77 771l49 59l89 -69l89 69l51 -59l-140 -122z" />
    <glyph glyph-name="dcaron" unicode="&#x10f;" 
d="M138 238q0 -63 16.5 -103t52.5 -40q22 0 38 4v256q-10 8 -24 13.5t-29 5.5q-29 0 -41.5 -35t-12.5 -101zM369 14q-31 -11 -75.5 -18t-87.5 -7q-95 0 -144 65t-49 178q0 115 40 181.5t118 66.5q20 0 40 -5.5t34 -15.5v214l124 21v-680zM518 693l-29 -218h-80v218h109z" />
    <glyph glyph-name="Dcroat" unicode="&#x110;" 
d="M473 310q0 -86 -20.5 -146.5t-57 -98.5t-86.5 -55.5t-110 -17.5q-32 0 -62.5 3.5t-65.5 11.5v263h-53v102h53v239q42 9 77 12t67 3q58 0 106 -18t81.5 -56.5t52 -98t18.5 -143.5zM195 372h76v-102h-76v-170q4 -1 8.5 -1h9.5q38 0 64 16t41.5 44t22.5 66.5t7 84.5
q0 40 -5 78t-18.5 67t-37.5 46.5t-61 17.5q-8 0 -16 -0.5t-15 -2.5v-144z" />
    <glyph glyph-name="dcroat" unicode="&#x111;" 
d="M427 615h55v-83h-55v-518q-35 -11 -83 -18t-96 -7q-109 0 -164.5 65t-55.5 178q0 115 47 181.5t138 66.5q25 0 49 -5.5t42 -15.5v73h-128v83h128v58l123 21v-79zM153 238q0 -63 22.5 -103t73.5 -40q16 0 28.5 1t26.5 3v256q-14 8 -32 13.5t-38 5.5q-42 0 -61.5 -35
t-19.5 -101z" />
    <glyph glyph-name="Emacron" unicode="&#x112;" 
d="M63 0v619h375v-102h-252v-139h219v-102h-219v-174h274v-102h-397zM108 786h288v-87h-288v87z" />
    <glyph glyph-name="emacron" unicode="&#x113;" 
d="M31 231q0 62 19 109t50 78.5t71 47.5t82 16q104 0 158 -61.5t54 -179.5q0 -12 -0.5 -25t-1.5 -21h-305q0 -46 38 -72.5t98 -26.5q37 0 70.5 8t56.5 16l17 -105q-32 -11 -68 -18.5t-81 -7.5q-60 0 -107.5 15.5t-81 46t-51.5 75.5t-18 105zM346 280q0 19 -5 36.5t-16 31.5
t-28 22.5t-42 8.5q-24 0 -41.5 -8t-29 -22t-18 -32t-8.5 -37h188zM107 647h288v-87h-288v87z" />
    <glyph glyph-name="Ebreve" unicode="&#x114;" 
d="M63 0v619h375v-102h-252v-139h219v-102h-219v-174h274v-102h-397zM250 673q-31 0 -57.5 9.5t-46 28t-30.5 44.5t-11 59v7h91q2 -38 17 -50.5t37 -12.5t37 12.5t18 50.5h90v-7q0 -33 -11 -59t-30.5 -44.5t-46 -28t-57.5 -9.5z" />
    <glyph glyph-name="ebreve" unicode="&#x115;" 
d="M31 231q0 62 19 109t50 78.5t71 47.5t82 16q104 0 158 -61.5t54 -179.5q0 -12 -0.5 -25t-1.5 -21h-305q0 -46 38 -72.5t98 -26.5q37 0 70.5 8t56.5 16l17 -105q-32 -11 -68 -18.5t-81 -7.5q-60 0 -107.5 15.5t-81 46t-51.5 75.5t-18 105zM346 280q0 19 -5 36.5t-16 31.5
t-28 22.5t-42 8.5q-24 0 -41.5 -8t-29 -22t-18 -32t-8.5 -37h188zM250 534q-31 0 -57.5 9.5t-46 28t-30.5 44.5t-11 59v7h91q2 -38 17 -50.5t37 -12.5t37 12.5t18 50.5h90v-7q0 -33 -11 -59t-30.5 -44.5t-46 -28t-57.5 -9.5z" />
    <glyph glyph-name="Edotaccent" unicode="&#x116;" 
d="M63 0v619h375v-102h-252v-139h219v-102h-219v-174h274v-102h-397zM250 675q-29 0 -50 18.5t-21 50.5t21 51t50 19t50 -19t21 -51t-21 -50.5t-50 -18.5z" />
    <glyph glyph-name="edotaccent" unicode="&#x117;" 
d="M31 231q0 62 19 109t50 78.5t71 47.5t82 16q104 0 158 -61.5t54 -179.5q0 -12 -0.5 -25t-1.5 -21h-305q0 -46 38 -72.5t98 -26.5q37 0 70.5 8t56.5 16l17 -105q-32 -11 -68 -18.5t-81 -7.5q-60 0 -107.5 15.5t-81 46t-51.5 75.5t-18 105zM346 280q0 19 -5 36.5t-16 31.5
t-28 22.5t-42 8.5q-24 0 -41.5 -8t-29 -22t-18 -32t-8.5 -37h188zM250 536q-29 0 -50 18.5t-21 50.5t21 51t50 19t50 -19t21 -51t-21 -50.5t-50 -18.5z" />
    <glyph glyph-name="Eogonek" unicode="&#x118;" 
d="M63 0v619h375v-102h-252v-139h219v-102h-219v-174h274v-102q-10 -8 -21.5 -18t-21 -21t-16 -22t-6.5 -20q0 -10 5.5 -17t21.5 -7q8 0 19 1t26 6l7 -58q-14 -5 -39.5 -9.5t-53.5 -4.5q-48 0 -69 18.5t-21 45.5q0 26 16.5 55t45.5 51h-290z" />
    <glyph glyph-name="eogonek" unicode="&#x119;" 
d="M429 -156q-14 -5 -39.5 -9.5t-53.5 -4.5q-48 0 -69 18.5t-21 45.5q0 23 13 48.5t36 46.5h-6q-60 0 -107.5 15.5t-81 46t-51.5 75.5t-18 105q0 62 19 109t50 78.5t71 47.5t82 16q104 0 158 -61.5t54 -179.5q0 -12 -0.5 -25t-1.5 -21h-305q0 -46 38 -72.5t98 -26.5
q37 0 70.5 8t56.5 16l17 -103l-9 -6q-8 -5 -21.5 -16t-26 -24t-22 -27t-9.5 -25q0 -10 5.5 -17t21.5 -7q8 0 19 1t26 6zM346 280q0 19 -5 36.5t-16 31.5t-28 22.5t-42 8.5q-24 0 -41.5 -8t-29 -22t-18 -32t-8.5 -37h188z" />
    <glyph glyph-name="Ecaron" unicode="&#x11a;" 
d="M63 0v619h375v-102h-252v-139h219v-102h-219v-174h274v-102h-397zM112 771l49 59l89 -69l89 69l51 -59l-140 -122z" />
    <glyph glyph-name="ecaron" unicode="&#x11b;" 
d="M31 231q0 62 19 109t50 78.5t71 47.5t82 16q104 0 158 -61.5t54 -179.5q0 -12 -0.5 -25t-1.5 -21h-305q0 -46 38 -72.5t98 -26.5q37 0 70.5 8t56.5 16l17 -105q-32 -11 -68 -18.5t-81 -7.5q-60 0 -107.5 15.5t-81 46t-51.5 75.5t-18 105zM346 280q0 19 -5 36.5t-16 31.5
t-28 22.5t-42 8.5q-24 0 -41.5 -8t-29 -22t-18 -32t-8.5 -37h188zM112 632l49 59l89 -69l89 69l51 -59l-140 -122z" />
    <glyph glyph-name="Gcircumflex" unicode="&#x11c;" 
d="M312 526q-44 0 -74 -16t-49.5 -44.5t-28 -68t-8.5 -87.5q0 -111 35 -163.5t103 -52.5q11 0 24 1t24 3v226h123v-309q-22 -8 -68.5 -18t-112.5 -10q-58 0 -104.5 20.5t-79.5 61t-51 101t-18 140.5q0 79 21 139.5t57 101.5t85 61.5t105 20.5q36 0 64.5 -5.5t49.5 -12.5
t34.5 -15t20.5 -12l-32 -98q-22 14 -54 25t-66 11zM435 708l-49 -59l-89 69l-89 -69l-51 59l140 122z" />
    <glyph glyph-name="gcircumflex" unicode="&#x11d;" 
d="M158 250q0 -58 21 -88.5t66 -30.5q20 0 37.5 5t31.5 13v226q-14 3 -25 4t-23 1q-108 0 -108 -130zM438 57q0 -115 -55.5 -170t-178.5 -55q-44 0 -84.5 9t-77.5 21l23 104q29 -11 61 -20.5t80 -9.5q32 0 53 7.5t33 20.5t17 30.5t5 37.5v19q-26 -10 -47.5 -15t-46.5 -5
q-92 0 -139.5 58t-47.5 161q0 116 64 173t174 57q77 0 167 -25v-398zM390 569l-49 -59l-89 69l-89 -69l-51 59l140 122z" />
    <glyph glyph-name="Gbreve" unicode="&#x11e;" 
d="M312 526q-44 0 -74 -16t-49.5 -44.5t-28 -68t-8.5 -87.5q0 -111 35 -163.5t103 -52.5q11 0 24 1t24 3v226h123v-309q-22 -8 -68.5 -18t-112.5 -10q-58 0 -104.5 20.5t-79.5 61t-51 101t-18 140.5q0 79 21 139.5t57 101.5t85 61.5t105 20.5q36 0 64.5 -5.5t49.5 -12.5
t34.5 -15t20.5 -12l-32 -98q-22 14 -54 25t-66 11zM295 673q-31 0 -57.5 9.5t-46 28t-30.5 44.5t-11 59v7h91q2 -38 17 -50.5t37 -12.5t37 12.5t18 50.5h90v-7q0 -33 -11 -59t-30.5 -44.5t-46 -28t-57.5 -9.5z" />
    <glyph glyph-name="gbreve" unicode="&#x11f;" 
d="M158 250q0 -58 21 -88.5t66 -30.5q20 0 37.5 5t31.5 13v226q-14 3 -25 4t-23 1q-108 0 -108 -130zM438 57q0 -115 -55.5 -170t-178.5 -55q-44 0 -84.5 9t-77.5 21l23 104q29 -11 61 -20.5t80 -9.5q32 0 53 7.5t33 20.5t17 30.5t5 37.5v19q-26 -10 -47.5 -15t-46.5 -5
q-92 0 -139.5 58t-47.5 161q0 116 64 173t174 57q77 0 167 -25v-398zM250 534q-31 0 -57.5 9.5t-46 28t-30.5 44.5t-11 59v7h91q2 -38 17 -50.5t37 -12.5t37 12.5t18 50.5h90v-7q0 -33 -11 -59t-30.5 -44.5t-46 -28t-57.5 -9.5z" />
    <glyph glyph-name="Gdotaccent" unicode="&#x120;" 
d="M312 526q-44 0 -74 -16t-49.5 -44.5t-28 -68t-8.5 -87.5q0 -111 35 -163.5t103 -52.5q11 0 24 1t24 3v226h123v-309q-22 -8 -68.5 -18t-112.5 -10q-58 0 -104.5 20.5t-79.5 61t-51 101t-18 140.5q0 79 21 139.5t57 101.5t85 61.5t105 20.5q36 0 64.5 -5.5t49.5 -12.5
t34.5 -15t20.5 -12l-32 -98q-22 14 -54 25t-66 11zM295 675q-29 0 -50 18.5t-21 50.5t21 51t50 19t50 -19t21 -51t-21 -50.5t-50 -18.5z" />
    <glyph glyph-name="gdotaccent" unicode="&#x121;" 
d="M158 250q0 -58 21 -88.5t66 -30.5q20 0 37.5 5t31.5 13v226q-14 3 -25 4t-23 1q-108 0 -108 -130zM438 57q0 -115 -55.5 -170t-178.5 -55q-44 0 -84.5 9t-77.5 21l23 104q29 -11 61 -20.5t80 -9.5q32 0 53 7.5t33 20.5t17 30.5t5 37.5v19q-26 -10 -47.5 -15t-46.5 -5
q-92 0 -139.5 58t-47.5 161q0 116 64 173t174 57q77 0 167 -25v-398zM250 536q-29 0 -50 18.5t-21 50.5t21 51t50 19t50 -19t21 -51t-21 -50.5t-50 -18.5z" />
    <glyph glyph-name="Gcommaaccent" unicode="&#x122;" 
d="M312 526q-44 0 -74 -16t-49.5 -44.5t-28 -68t-8.5 -87.5q0 -111 35 -163.5t103 -52.5q11 0 24 1t24 3v226h123v-309q-22 -8 -68.5 -18t-112.5 -10q-58 0 -104.5 20.5t-79.5 61t-51 101t-18 140.5q0 79 21 139.5t57 101.5t85 61.5t105 20.5q36 0 64.5 -5.5t49.5 -12.5
t34.5 -15t20.5 -12l-32 -98q-22 14 -54 25t-66 11zM238 -45h95q3 -17 3 -31q0 -48 -30.5 -71t-86.5 -23q-14 0 -31.5 2.5t-23.5 4.5v59q17 0 30.5 1t23.5 6.5t15 16t5 28.5v7z" />
    <glyph glyph-name="gcommaaccent" unicode="&#x123;" 
d="M158 250q0 -58 21 -88.5t66 -30.5q20 0 37.5 5t31.5 13v226q-14 3 -25 4t-23 1q-108 0 -108 -130zM438 57q0 -115 -55.5 -170t-178.5 -55q-44 0 -84.5 9t-77.5 21l23 104q29 -11 61 -20.5t80 -9.5q32 0 53 7.5t33 20.5t17 30.5t5 37.5v19q-26 -10 -47.5 -15t-46.5 -5
q-92 0 -139.5 58t-47.5 161q0 116 64 173t174 57q77 0 167 -25v-398zM314 535h-109q-8 74 25 115.5t95 57.5l44 -61q-28 -17 -41.5 -38.5t-13.5 -61.5v-12z" />
    <glyph glyph-name="Hcircumflex" unicode="&#x124;" 
d="M455 619v-619h-123v273h-164v-273h-123v619h123v-244h164v244h123zM390 708l-49 -59l-89 69l-89 -69l-51 59l140 122z" />
    <glyph glyph-name="hcircumflex" unicode="&#x125;" 
d="M63 0v633l123 21v-188q15 5 36 9.5t37 4.5q52 0 87 -15.5t56 -44t30 -68t9 -87.5v-265h-123v249q0 66 -15 95t-57 29q-17 0 -33.5 -4t-26.5 -7v-362h-123zM317 734l-38 -57l-92 54l-94 -54l-38 57l132 95z" />
    <glyph glyph-name="Hbar" unicode="&#x126;" 
d="M438 619v-72h45v-99h-45v-448h-124v254h-128v-254h-123v448h-45v99h45v72h123v-72h128v72h124zM314 355v93h-128v-93h128z" />
    <glyph glyph-name="hbar" unicode="&#x127;" 
d="M80 0v532h-55v83h55v58l124 21v-79h127v-83h-127v-66q14 5 33 9.5t34 4.5q49 0 81.5 -15.5t52 -44t28 -68t8.5 -87.5v-265h-123v249q0 66 -13 95t-48 29q-14 0 -29.5 -4t-23.5 -7v-362h-124z" />
    <glyph glyph-name="Itilde" unicode="&#x128;" 
d="M54 0v102h135v415h-135v102h393v-102h-134v-415h134v-102h-393zM413 772q-5 -14 -14.5 -29.5t-23 -29.5t-30.5 -23t-37 -9q-16 0 -29.5 5t-27 10.5t-27 10.5t-28.5 5q-17 0 -28.5 -11.5t-19.5 -26.5l-59 39q5 14 14.5 30t23 30t30.5 23t38 9q16 0 29.5 -5t27 -10.5
t26.5 -10.5t28 -5q17 0 29 11t19 26z" />
    <glyph glyph-name="itilde" unicode="&#x129;" 
d="M467 20q-38 -18 -71.5 -24.5t-61.5 -6.5q-48 0 -80.5 14t-52 40.5t-27.5 64.5t-8 87v173h-130v102h253v-291q0 -42 15.5 -62.5t51.5 -20.5q17 0 41 4.5t54 18.5zM395 633q-5 -14 -14.5 -29.5t-23 -29.5t-30.5 -23t-37 -9q-16 0 -29.5 5t-27 10.5t-27 10.5t-28.5 5
q-17 0 -28.5 -11.5t-19.5 -26.5l-59 39q5 14 14.5 30t23 30t30.5 23t38 9q16 0 29.5 -5t27 -10.5t26.5 -10.5t28 -5q17 0 29 11t19 26z" />
    <glyph glyph-name="Imacron" unicode="&#x12a;" 
d="M54 0v102h135v415h-135v102h393v-102h-134v-415h134v-102h-393zM107 786h288v-87h-288v87z" />
    <glyph glyph-name="imacron" unicode="&#x12b;" 
d="M467 20q-38 -18 -71.5 -24.5t-61.5 -6.5q-48 0 -80.5 14t-52 40.5t-27.5 64.5t-8 87v173h-130v102h253v-291q0 -42 15.5 -62.5t51.5 -20.5q17 0 41 4.5t54 18.5zM89 647h288v-87h-288v87z" />
    <glyph glyph-name="Ibreve" unicode="&#x12c;" 
d="M54 0v102h135v415h-135v102h393v-102h-134v-415h134v-102h-393zM250 673q-31 0 -57.5 9.5t-46 28t-30.5 44.5t-11 59v7h91q2 -38 17 -50.5t37 -12.5t37 12.5t18 50.5h90v-7q0 -33 -11 -59t-30.5 -44.5t-46 -28t-57.5 -9.5z" />
    <glyph glyph-name="ibreve" unicode="&#x12d;" 
d="M467 20q-38 -18 -71.5 -24.5t-61.5 -6.5q-48 0 -80.5 14t-52 40.5t-27.5 64.5t-8 87v173h-130v102h253v-291q0 -42 15.5 -62.5t51.5 -20.5q17 0 41 4.5t54 18.5zM233 534q-31 0 -57.5 9.5t-46 28t-30.5 44.5t-11 59v7h91q2 -38 17 -50.5t37 -12.5t37 12.5t18 50.5h90v-7
q0 -33 -11 -59t-30.5 -44.5t-46 -28t-57.5 -9.5z" />
    <glyph glyph-name="Iogonek" unicode="&#x12e;" 
d="M334 -156q-14 -5 -39.5 -9.5t-53.5 -4.5q-48 0 -69 18.5t-21 45.5q0 26 16.5 55t45.5 51h-159v102h135v415h-135v102h393v-102h-134v-415h134v-102h-128q-10 -8 -21 -18t-20.5 -21t-16 -22t-6.5 -20q0 -10 5.5 -17t21.5 -7q8 0 19 1t26 6z" />
    <glyph glyph-name="iogonek" unicode="&#x12f;" 
d="M284 605q0 -36 -23 -57t-55 -21t-54.5 21t-22.5 57q0 37 22.5 58t54.5 21t55 -21t23 -58zM443 0q-10 -8 -21.5 -18t-21 -21t-15.5 -22t-6 -20q0 -10 5.5 -17t21.5 -7q8 0 19 1t26 6l7 -58q-39 -14 -83 -14q-20 0 -38 3.5t-31.5 11t-22 20t-8.5 29.5q0 23 13 48.5t36 46.5
q-45 2 -75.5 16.5t-48.5 41t-26 64t-8 84.5v173h-130v102h253v-292q0 -43 15.5 -62.5t51.5 -19.5q17 0 41 4.5t54 18.5l16 -101z" />
    <glyph glyph-name="Idotaccent" unicode="&#x130;" 
d="M54 0v102h135v415h-135v102h393v-102h-134v-415h134v-102h-393zM250 690q-29 0 -50 18.5t-21 50.5t21 51t50 19t50 -19t21 -51t-21 -50.5t-50 -18.5z" />
    <glyph glyph-name="dotlessi" unicode="&#x131;" 
d="M467 20q-38 -18 -71.5 -24.5t-61.5 -6.5q-48 0 -80.5 14t-52 40.5t-27.5 64.5t-8 87v173h-130v102h253v-291q0 -42 15.5 -62.5t51.5 -20.5q17 0 41 4.5t54 18.5z" />
    <glyph glyph-name="IJ" unicode="&#x132;" 
d="M24 0v619h123v-619h-123zM480 194q0 -62 -13.5 -102t-37.5 -63t-55.5 -32.5t-67.5 -9.5q-35 0 -66 8.5t-67 33.5l48 98q15 -14 31.5 -23.5t42.5 -9.5q13 0 24.5 4t19.5 15.5t12.5 32.5t4.5 56v417h124v-425z" />
    <glyph glyph-name="ij" unicode="&#x133;" 
d="M196 0h-123v470h123v-470zM214 605q0 -37 -24 -57.5t-56 -20.5t-55.5 20.5t-23.5 57.5q0 38 23.5 58.5t55.5 20.5t56 -20.5t24 -58.5zM259 -165q-13 0 -37.5 2t-45.5 10l17 101q14 -5 25 -6.5t28 -1.5q32 0 44 19t12 54v457h124v-453q0 -94 -40.5 -138t-126.5 -44z
M443 605q0 -37 -24 -57.5t-56 -20.5t-55.5 20.5t-23.5 57.5q0 38 23.5 58.5t55.5 20.5t56 -20.5t24 -58.5z" />
    <glyph glyph-name="Jcircumflex" unicode="&#x134;" 
d="M438 207q0 -45 -11.5 -85t-38 -70t-68.5 -47.5t-102 -17.5q-63 0 -105 16t-71 39l47 98q25 -16 55.5 -31t62.5 -15q48 0 77.5 25.5t29.5 94.5v303h-207v102h331v-412zM444 708l-49 -59l-89 69l-89 -69l-51 59l140 122z" />
    <glyph glyph-name="jcircumflex" unicode="&#x135;" 
d="M400 31q0 -57 -14 -95.5t-38.5 -62t-58 -33.5t-72.5 -10q-48 0 -89 12t-79 31l38 104q25 -14 60.5 -26.5t64.5 -12.5q31 0 48 18.5t17 68.5v342h-190v102h313v-438zM408 569l-49 -59l-89 69l-89 -69l-51 59l140 122z" />
    <glyph glyph-name="Kcommaaccent" unicode="&#x136;" 
d="M350 0q-11 35 -31.5 75.5t-45.5 79t-52.5 72t-52.5 56.5v-283h-123v619h123v-257q22 28 46 62t45.5 68t39.5 67t30 60h139q-14 -27 -33.5 -61.5t-44.5 -72t-53.5 -76.5t-59.5 -75q31 -30 63 -69t60.5 -83.5t51.5 -91t37 -90.5h-139zM221 -45h95q3 -17 3 -31
q0 -48 -30.5 -71t-86.5 -23q-14 0 -31.5 2.5t-23.5 4.5v59q17 0 30.5 1t23.5 6.5t15 16t5 28.5v7z" />
    <glyph glyph-name="kcommaaccent" unicode="&#x137;" 
d="M187 284q18 21 36.5 44.5t36 48.5t33.5 48.5t28 44.5h148q-18 -23 -41 -50t-47.5 -55t-49 -54t-44.5 -48q25 -24 54 -57.5t57 -69.5t51.5 -72t37.5 -64h-141q-12 25 -31.5 56.5t-41.5 62t-44.5 58t-41.5 45.5v-222h-124v673l124 21v-410zM221 -45h95q3 -17 3 -31
q0 -48 -30.5 -71t-86.5 -23q-14 0 -31.5 2.5t-23.5 4.5v59q17 0 30.5 1t23.5 6.5t15 16t5 28.5v7z" />
    <glyph glyph-name="kgreenlandic" unicode="&#x138;" 
d="M187 284q18 21 36.5 44.5t36 48.5t33.5 48.5t28 44.5h148q-18 -23 -41 -50t-47.5 -55t-49 -54t-44.5 -48q25 -24 54 -57.5t57 -69.5t51.5 -72t37.5 -64h-141q-12 25 -31.5 56.5t-41.5 62t-44.5 58t-41.5 45.5v-222h-124v469l124 1v-186z" />
    <glyph glyph-name="Lacute" unicode="&#x139;" 
d="M460 0h-389v619h124v-517h265v-102zM318 736l-174 -84l-45 67l158 111z" />
    <glyph glyph-name="lacute" unicode="&#x13a;" 
d="M467 20q-3 -2 -13.5 -7t-27.5 -10.5t-41.5 -9.5t-55.5 -4q-85 0 -124 50.5t-39 147.5v356h-130v102h253v-467q0 -48 19 -65t48 -17q37 0 62 10t33 13zM352 739l-195 -62l-27 62l190 90z" />
    <glyph glyph-name="Lcommaaccent" unicode="&#x13b;" 
d="M460 0h-389v619h124v-517h265v-102zM238 -45h95q3 -17 3 -31q0 -48 -30.5 -71t-86.5 -23q-14 0 -31.5 2.5t-23.5 4.5v59q17 0 30.5 1t23.5 6.5t15 16t5 28.5v7z" />
    <glyph glyph-name="lcommaaccent" unicode="&#x13c;" 
d="M467 20q-3 -2 -13.5 -7t-27.5 -10.5t-41.5 -9.5t-55.5 -4q-85 0 -124 50.5t-39 147.5v399h-130v102h253v-510q0 -48 19 -65t48 -17q37 0 62 10t33 13zM283 -45h95q3 -17 3 -31q0 -48 -30.5 -71t-86.5 -23q-14 0 -31.5 2.5t-23.5 4.5v59q17 0 30.5 1t23.5 6.5t15 16
t5 28.5v7z" />
    <glyph glyph-name="Lcaron" unicode="&#x13d;" 
d="M460 0h-389v619h124v-517h265v-102zM394 621l-30 -218h-79v218h109z" />
    <glyph glyph-name="lcaron" unicode="&#x13e;" 
d="M467 20q-3 -2 -13.5 -7t-27.5 -10.5t-41.5 -9.5t-55.5 -4q-85 0 -124 50.5t-39 147.5v399h-130v102h253v-510q0 -48 19 -65t48 -17q37 0 62 10t33 13zM477 693l-30 -218h-79v218h109z" />
    <glyph glyph-name="Ldot" unicode="&#x13f;" 
d="M458 360q0 -40 -25.5 -61t-57.5 -21t-57.5 21t-25.5 61t25.5 61t57.5 21t57.5 -21t25.5 -61zM460 0h-389v619h124v-517h265v-102z" />
    <glyph glyph-name="ldot" unicode="&#x140;" 
d="M568 368q0 -40 -25.5 -61t-57.5 -21t-57.5 21t-25.5 61t25.5 61t57.5 21t57.5 -21t25.5 -61zM467 20q-3 -2 -13.5 -7t-27.5 -10.5t-41.5 -9.5t-55.5 -4q-85 0 -124 50.5t-39 147.5v404h-130v102h253v-515q0 -48 19 -65t48 -17q37 0 62 10t33 13z" />
    <glyph glyph-name="Lslash" unicode="&#x141;" 
d="M213 292v-190h247v-102h-371v230l-55 -27l-44 90l99 50v276h124v-214l108 54l43 -90z" />
    <glyph glyph-name="lslash" unicode="&#x142;" 
d="M467 20q-3 -2 -13.5 -7t-27.5 -10.5t-41.5 -9.5t-55.5 -4q-85 0 -124 50.5t-39 147.5v112l-55 -28l-40 83l95 47v185h-130v102h253v-226l64 32l40 -82l-104 -52v-182q0 -48 19 -65t48 -17q37 0 62 10t33 13z" />
    <glyph glyph-name="Nacute" unicode="&#x143;" 
d="M355 0q-42 103 -91.5 205.5t-106.5 205.5v-411h-111v619h99q28 -44 56 -95.5t54.5 -102.5t49 -99t38.5 -84v381h111v-619h-99zM371 736l-174 -84l-45 67l158 111z" />
    <glyph glyph-name="nacute" unicode="&#x144;" 
d="M63 455q33 9 81.5 17t105.5 8q56 0 93 -15.5t58.5 -44t30.5 -68t9 -87.5v-265h-123v249q0 66 -15 95t-61 29q-14 0 -27.5 -1t-28.5 -3v-369h-123v455zM363 597l-174 -84l-45 67l158 111z" />
    <glyph glyph-name="Ncommaaccent" unicode="&#x145;" 
d="M355 0q-42 103 -91.5 205.5t-106.5 205.5v-411h-111v619h99q28 -44 56 -95.5t54.5 -102.5t49 -99t38.5 -84v381h111v-619h-99zM221 -45h95q3 -17 3 -31q0 -48 -30.5 -71t-86.5 -23q-14 0 -31.5 2.5t-23.5 4.5v59q17 0 30.5 1t23.5 6.5t15 16t5 28.5v7z" />
    <glyph glyph-name="ncommaaccent" unicode="&#x146;" 
d="M63 455q33 9 81.5 17t105.5 8q56 0 93 -15.5t58.5 -44t30.5 -68t9 -87.5v-265h-123v249q0 66 -15 95t-61 29q-14 0 -27.5 -1t-28.5 -3v-369h-123v455zM212 -45h95q3 -17 3 -31q0 -48 -30.5 -71t-86.5 -23q-14 0 -31.5 2.5t-23.5 4.5v59q17 0 30.5 1t23.5 6.5t15 16
t5 28.5v7z" />
    <glyph glyph-name="Ncaron" unicode="&#x147;" 
d="M355 0q-42 103 -91.5 205.5t-106.5 205.5v-411h-111v619h99q28 -44 56 -95.5t54.5 -102.5t49 -99t38.5 -84v381h111v-619h-99zM112 771l49 59l89 -69l89 69l51 -59l-140 -122z" />
    <glyph glyph-name="ncaron" unicode="&#x148;" 
d="M63 455q33 9 81.5 17t105.5 8q56 0 93 -15.5t58.5 -44t30.5 -68t9 -87.5v-265h-123v249q0 66 -15 95t-61 29q-14 0 -27.5 -1t-28.5 -3v-369h-123v455zM112 632l49 59l89 -69l89 69l51 -59l-140 -122z" />
    <glyph glyph-name="napostrophe" unicode="&#x149;" 
d="M81 455q33 9 81.5 17t105.5 8q56 0 93 -15.5t58.5 -44t30.5 -68t9 -87.5v-265h-123v249q0 66 -15 95t-61 29q-14 0 -27.5 -1t-28.5 -3v-369h-123v455zM121 693v-19t-1 -19q-2 -28 -6.5 -51t-12 -43.5t-17.5 -39.5t-23 -39l-87 24q19 41 26.5 75t7.5 72q0 11 -0.5 21.5
t-2.5 18.5h116z" />
    <glyph glyph-name="Eng" unicode="&#x14a;" 
d="M343 30q-40 95 -86.5 190t-99.5 191v-411h-111v619h99q28 -44 56 -95.5t54.5 -102.5t49 -99t38.5 -84v381h111v-611q0 -87 -35.5 -131t-113.5 -44q-11 0 -29 2t-36 10l18 101q19 -8 37 -8q28 0 38 17t10 49v26z" />
    <glyph glyph-name="eng" unicode="&#x14b;" 
d="M318 249q0 66 -15 95t-61 29q-14 0 -27.5 -1t-28.5 -3v-369h-123v455q33 9 81.5 17t105.5 8q56 0 93 -15.5t58.5 -44t30.5 -68t9 -87.5v-262q0 -86 -36.5 -127t-120.5 -41q-11 0 -31.5 1.5t-39.5 9.5l16 95q19 -6 40 -6q49 0 49 63v251z" />
    <glyph glyph-name="Omacron" unicode="&#x14c;" 
d="M152 310q0 -45 3.5 -84.5t14 -68.5t29.5 -46t51 -17q31 0 50.5 17t30 46.5t14 68.5t3.5 84t-3.5 84.5t-14 68.5t-29.5 46t-51 17t-51 -17t-29.5 -46.5t-14 -68.5t-3.5 -84zM27 310q0 160 59 241.5t164 81.5q109 0 166 -81.5t57 -241.5t-58 -241.5t-164 -81.5
q-109 0 -166.5 81.5t-57.5 241.5zM108 786h288v-87h-288v87z" />
    <glyph glyph-name="omacron" unicode="&#x14d;" 
d="M472 236q0 -56 -16 -101.5t-45 -78.5t-69.5 -51t-90.5 -18t-90.5 18t-70 51t-45.5 78.5t-16 101.5q0 55 16.5 100.5t46 78t70.5 50t89 17.5q49 0 89.5 -17.5t70 -50t45.5 -78t16 -100.5zM154 235q0 -63 22.5 -102t72.5 -39q48 0 72.5 39t24.5 102t-22.5 101.5t-72.5 38.5
q-48 0 -72.5 -38.5t-24.5 -101.5zM107 647h288v-87h-288v87z" />
    <glyph glyph-name="Obreve" unicode="&#x14e;" 
d="M152 310q0 -45 3.5 -84.5t14 -68.5t29.5 -46t51 -17q31 0 50.5 17t30 46.5t14 68.5t3.5 84t-3.5 84.5t-14 68.5t-29.5 46t-51 17t-51 -17t-29.5 -46.5t-14 -68.5t-3.5 -84zM27 310q0 160 59 241.5t164 81.5q109 0 166 -81.5t57 -241.5t-58 -241.5t-164 -81.5
q-109 0 -166.5 81.5t-57.5 241.5zM250 673q-31 0 -57.5 9.5t-46 28t-30.5 44.5t-11 59v7h91q2 -38 17 -50.5t37 -12.5t37 12.5t18 50.5h90v-7q0 -33 -11 -59t-30.5 -44.5t-46 -28t-57.5 -9.5z" />
    <glyph glyph-name="obreve" unicode="&#x14f;" 
d="M472 236q0 -56 -16 -101.5t-45 -78.5t-69.5 -51t-90.5 -18t-90.5 18t-70 51t-45.5 78.5t-16 101.5q0 55 16.5 100.5t46 78t70.5 50t89 17.5q49 0 89.5 -17.5t70 -50t45.5 -78t16 -100.5zM154 235q0 -63 22.5 -102t72.5 -39q48 0 72.5 39t24.5 102t-22.5 101.5t-72.5 38.5
q-48 0 -72.5 -38.5t-24.5 -101.5zM250 534q-31 0 -57.5 9.5t-46 28t-30.5 44.5t-11 59v7h91q2 -38 17 -50.5t37 -12.5t37 12.5t18 50.5h90v-7q0 -33 -11 -59t-30.5 -44.5t-46 -28t-57.5 -9.5z" />
    <glyph glyph-name="Ohungarumlaut" unicode="&#x150;" 
d="M152 310q0 -45 3.5 -84.5t14 -68.5t29.5 -46t51 -17q31 0 50.5 17t30 46.5t14 68.5t3.5 84t-3.5 84.5t-14 68.5t-29.5 46t-51 17t-51 -17t-29.5 -46.5t-14 -68.5t-3.5 -84zM27 310q0 160 59 241.5t164 81.5q109 0 166 -81.5t57 -241.5t-58 -241.5t-164 -81.5
q-109 0 -166.5 81.5t-57.5 241.5zM294 760l-144 -112l-47 49l121 133zM474 760l-144 -112l-47 49l122 132z" />
    <glyph glyph-name="ohungarumlaut" unicode="&#x151;" 
d="M472 236q0 -56 -16 -101.5t-45 -78.5t-69.5 -51t-90.5 -18t-90.5 18t-70 51t-45.5 78.5t-16 101.5q0 55 16.5 100.5t46 78t70.5 50t89 17.5q49 0 89.5 -17.5t70 -50t45.5 -78t16 -100.5zM154 235q0 -63 22.5 -102t72.5 -39q48 0 72.5 39t24.5 102t-22.5 101.5t-72.5 38.5
q-48 0 -72.5 -38.5t-24.5 -101.5zM294 622l-144 -112l-47 49l121 133zM474 622l-144 -112l-47 49l122 132z" />
    <glyph glyph-name="OE" unicode="&#x152;" 
d="M275 0q-12 -3 -24.5 -4t-26.5 -1q-101 0 -153.5 74.5t-52.5 240.5q0 165 53.5 240t151.5 75q15 0 29 -2l28 -4h198v-102h-111v-138h88v-102h-88v-175h124v-102h-216zM223 102q17 0 32 5v406q-15 5 -32 5q-28 0 -45.5 -14.5t-27 -41.5t-13 -65.5t-3.5 -86.5t3 -86.5
t13 -65.5t27 -41.5t46 -14.5z" />
    <glyph glyph-name="oe" unicode="&#x153;" 
d="M22 236q0 126 38.5 186t104.5 60q28 0 54.5 -16.5t43.5 -48.5q19 31 42 48t49 17q29 0 53.5 -12t42.5 -39t28 -71t10 -108q0 -12 -0.5 -30.5t-1.5 -26.5h-179q1 -28 8 -47.5t18 -32t25 -18t30 -5.5q18 0 35.5 4.5t31.5 12.5l18 -97q-23 -12 -45.5 -17.5t-52.5 -5.5
q-41 0 -68 18.5t-44 44.5q-15 -26 -39 -44.5t-59 -18.5q-73 0 -108 63t-35 184zM116 236q0 -80 14.5 -112t34.5 -32t34 31.5t14 112.5q0 80 -14.5 112t-34.5 32t-34 -31.5t-14 -112.5zM354 384q-13 0 -21.5 -9.5t-14 -24.5t-8 -33.5t-2.5 -36.5h88q0 19 -2 38t-6.5 33.5
t-12.5 23.5t-21 9z" />
    <glyph glyph-name="Racute" unicode="&#x154;" 
d="M214 626q53 0 96 -12t74 -37t47.5 -63.5t16.5 -90.5q0 -54 -22 -98t-73 -67q17 -26 36 -57.5t37 -66t34.5 -69t28.5 -65.5h-129q-23 60 -53.5 115.5t-65.5 112.5h-64v-228h-123v610q18 4 39.5 7.5t43.5 5t42 2.5t35 1zM323 424q0 49 -30 72t-79 23q-7 0 -17 -0.5
t-20 -2.5v-186h27q63 0 91 24.5t28 69.5zM359 736l-174 -84l-45 67l158 111z" />
    <glyph glyph-name="racute" unicode="&#x155;" 
d="M437 345q-12 3 -28.5 6t-33.5 5.5t-33 3.5t-27 1q-26 0 -51 -2.5t-51 -9.5v-349h-124v439q49 18 100.5 29t120.5 11q10 0 28.5 -1t39.5 -3.5t42.5 -6t38.5 -9.5zM398 597l-174 -84l-45 67l158 111z" />
    <glyph glyph-name="Rcommaaccent" unicode="&#x156;" 
d="M214 626q53 0 96 -12t74 -37t47.5 -63.5t16.5 -90.5q0 -54 -22 -98t-73 -67q17 -26 36 -57.5t37 -66t34.5 -69t28.5 -65.5h-129q-23 60 -53.5 115.5t-65.5 112.5h-64v-228h-123v610q18 4 39.5 7.5t43.5 5t42 2.5t35 1zM323 424q0 49 -30 72t-79 23q-7 0 -17 -0.5
t-20 -2.5v-186h27q63 0 91 24.5t28 69.5zM221 -45h95q3 -17 3 -31q0 -48 -30.5 -71t-86.5 -23q-14 0 -31.5 2.5t-23.5 4.5v59q17 0 30.5 1t23.5 6.5t15 16t5 28.5v7z" />
    <glyph glyph-name="rcommaaccent" unicode="&#x157;" 
d="M437 345q-12 3 -28.5 6t-33.5 5.5t-33 3.5t-27 1q-26 0 -51 -2.5t-51 -9.5v-349h-124v439q49 18 100.5 29t120.5 11q10 0 28.5 -1t39.5 -3.5t42.5 -6t38.5 -9.5zM109 -45h95q3 -17 3 -31q0 -48 -30.5 -71t-86.5 -23q-14 0 -31.5 2.5t-23.5 4.5v59q17 0 30.5 1t23.5 6.5
t15 16t5 28.5v7z" />
    <glyph glyph-name="Rcaron" unicode="&#x158;" 
d="M214 626q53 0 96 -12t74 -37t47.5 -63.5t16.5 -90.5q0 -54 -22 -98t-73 -67q17 -26 36 -57.5t37 -66t34.5 -69t28.5 -65.5h-129q-23 60 -53.5 115.5t-65.5 112.5h-64v-228h-123v610q18 4 39.5 7.5t43.5 5t42 2.5t35 1zM323 424q0 49 -30 72t-79 23q-7 0 -17 -0.5
t-20 -2.5v-186h27q63 0 91 24.5t28 69.5zM95 771l49 59l89 -69l89 69l51 -59l-140 -122z" />
    <glyph glyph-name="rcaron" unicode="&#x159;" 
d="M437 345q-12 3 -28.5 6t-33.5 5.5t-33 3.5t-27 1q-26 0 -51 -2.5t-51 -9.5v-349h-124v439q49 18 100.5 29t120.5 11q10 0 28.5 -1t39.5 -3.5t42.5 -6t38.5 -9.5zM148 632l49 59l89 -69l89 69l51 -59l-140 -122z" />
    <glyph glyph-name="Sacute" unicode="&#x15a;" 
d="M232 90q31 0 51.5 6.5t32.5 18t16.5 26t4.5 29.5q0 19 -11 34t-28 26.5t-38 21t-42 17.5q-28 10 -58 23t-54.5 33t-40.5 49.5t-16 73.5q0 87 56.5 136t155.5 49q57 0 99.5 -13t71.5 -29l-36 -95q-25 14 -55.5 24t-70.5 10q-98 0 -98 -71q0 -18 10 -31.5t25.5 -24
t35 -18.5t38.5 -15q29 -11 60.5 -24.5t58 -36t43.5 -56t17 -84.5q0 -87 -56.5 -134.5t-171.5 -47.5q-77 0 -123 16.5t-69 30.5l36 100q27 -16 64.5 -30t91.5 -14zM368 736l-174 -84l-45 67l158 111z" />
    <glyph glyph-name="sacute" unicode="&#x15b;" 
d="M228 93q45 0 69 6.5t24 26.5q0 13 -7.5 22t-21 15.5t-31 12.5t-36.5 12q-27 8 -55 18.5t-51 26.5t-38 40.5t-15 61.5q0 30 11.5 56.5t36 47t62.5 32t91 11.5q46 0 85.5 -7t68.5 -20l-19 -104q-17 5 -53 16.5t-81 11.5q-47 0 -63.5 -11.5t-16.5 -24.5q0 -11 7.5 -19.5
t20 -15.5t29 -13.5t35.5 -12.5q27 -9 56 -20t52.5 -27.5t38.5 -42t15 -62.5q0 -29 -11 -55t-36.5 -45t-66.5 -30t-101 -11q-61 0 -104 14t-69 25l19 103q35 -14 74.5 -26t80.5 -12zM368 597l-174 -84l-45 67l158 111z" />
    <glyph glyph-name="Scircumflex" unicode="&#x15c;" 
d="M232 90q31 0 51.5 6.5t32.5 18t16.5 26t4.5 29.5q0 19 -11 34t-28 26.5t-38 21t-42 17.5q-28 10 -58 23t-54.5 33t-40.5 49.5t-16 73.5q0 87 56.5 136t155.5 49q57 0 99.5 -13t71.5 -29l-36 -95q-25 14 -55.5 24t-70.5 10q-98 0 -98 -71q0 -18 10 -31.5t25.5 -24
t35 -18.5t38.5 -15q29 -11 60.5 -24.5t58 -36t43.5 -56t17 -84.5q0 -87 -56.5 -134.5t-171.5 -47.5q-77 0 -123 16.5t-69 30.5l36 100q27 -16 64.5 -30t91.5 -14zM390 708l-49 -59l-89 69l-89 -69l-51 59l140 122z" />
    <glyph glyph-name="scircumflex" unicode="&#x15d;" 
d="M228 93q45 0 69 6.5t24 26.5q0 13 -7.5 22t-21 15.5t-31 12.5t-36.5 12q-27 8 -55 18.5t-51 26.5t-38 40.5t-15 61.5q0 30 11.5 56.5t36 47t62.5 32t91 11.5q46 0 85.5 -7t68.5 -20l-19 -104q-17 5 -53 16.5t-81 11.5q-47 0 -63.5 -11.5t-16.5 -24.5q0 -11 7.5 -19.5
t20 -15.5t29 -13.5t35.5 -12.5q27 -9 56 -20t52.5 -27.5t38.5 -42t15 -62.5q0 -29 -11 -55t-36.5 -45t-66.5 -30t-101 -11q-61 0 -104 14t-69 25l19 103q35 -14 74.5 -26t80.5 -12zM390 569l-49 -59l-89 69l-89 -69l-51 59l140 122z" />
    <glyph glyph-name="Scedilla" unicode="&#x15e;" 
d="M260 -24q33 -10 46 -29.5t13 -37.5q0 -23 -10.5 -38t-27 -24t-38.5 -13t-44 -4q-45 0 -80 11l13 63q6 -2 23 -5.5t33 -3.5q41 0 41 25q0 19 -36 31l-20 6q2 8 5.5 16t6.5 16q-56 5 -90.5 19t-54.5 26l36 100q27 -16 64.5 -30t91.5 -14q31 0 51.5 6.5t32.5 18t16.5 26
t4.5 29.5q0 19 -11 34t-28 26.5t-38 21t-42 17.5q-28 10 -58 23t-54.5 33t-40.5 49.5t-16 73.5q0 87 56.5 136t155.5 49q57 0 99.5 -13t71.5 -29l-36 -95q-25 14 -55.5 24t-70.5 10q-98 0 -98 -71q0 -18 10 -31.5t25.5 -24t35 -18.5t38.5 -15q29 -11 60.5 -24.5t58 -36
t43.5 -56t17 -84.5q0 -81 -48.5 -127.5t-146.5 -53.5q-4 -8 -5 -12z" />
    <glyph glyph-name="scedilla" unicode="&#x15f;" 
d="M270 -24q33 -10 46 -29.5t13 -37.5q0 -23 -10.5 -38t-27 -24t-38.5 -13t-44 -4q-45 0 -80 11l13 63q6 -2 23 -5.5t33 -3.5q41 0 41 25q0 19 -36 31l-20 6q2 8 5.5 16.5t7.5 16.5q-49 4 -84.5 16t-57.5 22l19 103q35 -14 74.5 -26t80.5 -12q45 0 69 6.5t24 26.5
q0 13 -7.5 22t-21 15.5t-31 12.5t-36.5 12q-27 8 -55 18.5t-51 26.5t-38 40.5t-15 61.5q0 30 11.5 56.5t36 47t62.5 32t91 11.5q46 0 85.5 -7t68.5 -20l-19 -104q-17 5 -53 16.5t-81 11.5q-47 0 -63.5 -11.5t-16.5 -24.5q0 -11 7.5 -19.5t20 -15.5t29 -13.5t35.5 -12.5
q27 -9 56 -20t52.5 -27.5t38.5 -42t15 -62.5q0 -26 -9 -49.5t-28.5 -41.5t-51 -30.5t-77.5 -16.5z" />
    <glyph glyph-name="Scaron" unicode="&#x160;" 
d="M232 90q31 0 51.5 6.5t32.5 18t16.5 26t4.5 29.5q0 19 -11 34t-28 26.5t-38 21t-42 17.5q-28 10 -58 23t-54.5 33t-40.5 49.5t-16 73.5q0 87 56.5 136t155.5 49q57 0 99.5 -13t71.5 -29l-36 -95q-25 14 -55.5 24t-70.5 10q-98 0 -98 -71q0 -18 10 -31.5t25.5 -24
t35 -18.5t38.5 -15q29 -11 60.5 -24.5t58 -36t43.5 -56t17 -84.5q0 -87 -56.5 -134.5t-171.5 -47.5q-77 0 -123 16.5t-69 30.5l36 100q27 -16 64.5 -30t91.5 -14zM112 771l49 59l89 -69l89 69l51 -59l-140 -122z" />
    <glyph glyph-name="scaron" unicode="&#x161;" 
d="M228 93q45 0 69 6.5t24 26.5q0 13 -7.5 22t-21 15.5t-31 12.5t-36.5 12q-27 8 -55 18.5t-51 26.5t-38 40.5t-15 61.5q0 30 11.5 56.5t36 47t62.5 32t91 11.5q46 0 85.5 -7t68.5 -20l-19 -104q-17 5 -53 16.5t-81 11.5q-47 0 -63.5 -11.5t-16.5 -24.5q0 -11 7.5 -19.5
t20 -15.5t29 -13.5t35.5 -12.5q27 -9 56 -20t52.5 -27.5t38.5 -42t15 -62.5q0 -29 -11 -55t-36.5 -45t-66.5 -30t-101 -11q-61 0 -104 14t-69 25l19 103q35 -14 74.5 -26t80.5 -12zM112 632l49 59l89 -69l89 69l51 -59l-140 -122z" />
    <glyph glyph-name="uni0162" unicode="&#x162;" 
d="M273 -24q33 -10 46 -29.5t13 -37.5q0 -23 -10.5 -38t-27 -24t-38.5 -13t-44 -4q-45 0 -80 11l13 63q6 -2 23 -5.5t33 -3.5q41 0 41 25q0 19 -36 31l-20 6q3 11 7.5 22.5t9.5 20.5h-15v517h-163v102h450v-102h-163v-517h-29q-5 -8 -10 -24z" />
    <glyph glyph-name="uni0163" unicode="&#x163;" 
d="M343 -24q33 -10 46 -29.5t13 -37.5q0 -23 -10.5 -38t-27 -24t-38.5 -13t-44 -4q-45 0 -80 11l13 63q6 -2 23 -5.5t33 -3.5q41 0 41 25q0 19 -36 31l-20 6q2 9 5.5 18t7.5 17q-30 3 -53.5 13.5t-39.5 31.5t-24.5 54.5t-8.5 83.5v193h-107v102h107v118l123 20v-138h197
v-102h-197v-190q0 -26 5 -42t14 -25t22 -12t29 -3q17 0 31.5 1t28 3.5t28 7.5t31.5 13l17 -106q-28 -11 -60 -17t-64 -8z" />
    <glyph glyph-name="Tcaron" unicode="&#x164;" 
d="M475 619v-102h-163v-517h-124v517h-163v102h450zM112 771l49 59l89 -69l89 69l51 -59l-140 -122z" />
    <glyph glyph-name="tcaron" unicode="&#x165;" 
d="M143 368h-107v102h107v118l123 20v-138h197v-102h-197v-190q0 -26 5 -42t14 -25t22 -12t29 -3q17 0 31.5 1t28 3.5t28 7.5t31.5 13l17 -106q-34 -14 -73.5 -20t-76.5 -6q-43 0 -76 7t-56 27t-35 56.5t-12 95.5v193zM433 693l-30 -171h-77v171h107z" />
    <glyph glyph-name="Tbar" unicode="&#x166;" 
d="M475 619v-102h-163v-180h126v-99h-126v-238h-124v238h-125v99h125v180h-163v102h450z" />
    <glyph glyph-name="tbar" unicode="&#x167;" 
d="M143 204h-107v84h107v80h-107v102h107v118l123 20v-138h197v-102h-197v-80h196v-84h-196v-26q0 -26 5 -42t14 -25t22 -12t29 -3q17 0 31.5 1t28 3.5t28 7.5t31.5 13l17 -106q-34 -14 -73.5 -20t-76.5 -6q-43 0 -76 7t-56 27t-35 56.5t-12 95.5v29z" />
    <glyph glyph-name="Utilde" unicode="&#x168;" 
d="M248 -13q-60 0 -100.5 16.5t-64.5 47.5t-34 75t-10 98v395h124v-387q0 -39 4 -65.5t13.5 -42.5t26.5 -23t43 -7t43 7t27 23.5t14 43t4 65.5v386h123v-395q0 -54 -10 -98t-35 -75t-66 -47.5t-102 -16.5zM414 772q-5 -14 -14.5 -29.5t-23 -29.5t-30.5 -23t-37 -9
q-16 0 -29.5 5t-27 10.5t-27 10.5t-28.5 5q-17 0 -28.5 -11.5t-19.5 -26.5l-59 39q5 14 14.5 30t23 30t30.5 23t38 9q16 0 29.5 -5t27 -10.5t26.5 -10.5t28 -5q17 0 29 11t19 26z" />
    <glyph glyph-name="utilde" unicode="&#x169;" 
d="M438 16q-34 -9 -82.5 -18t-105.5 -9q-58 0 -95 16t-58.5 45.5t-29.5 69.5t-8 88v262h123v-246q0 -65 15.5 -96.5t60.5 -31.5q28 0 56 5v369h124v-454zM414 633q-5 -14 -14.5 -29.5t-23 -29.5t-30.5 -23t-37 -9q-16 0 -29.5 5t-27 10.5t-27 10.5t-28.5 5
q-17 0 -28.5 -11.5t-19.5 -26.5l-59 39q5 14 14.5 30t23 30t30.5 23t38 9q16 0 29.5 -5t27 -10.5t26.5 -10.5t28 -5q17 0 29 11t19 26z" />
    <glyph glyph-name="Umacron" unicode="&#x16a;" 
d="M248 -13q-60 0 -100.5 16.5t-64.5 47.5t-34 75t-10 98v395h124v-387q0 -39 4 -65.5t13.5 -42.5t26.5 -23t43 -7t43 7t27 23.5t14 43t4 65.5v386h123v-395q0 -54 -10 -98t-35 -75t-66 -47.5t-102 -16.5zM108 786h288v-87h-288v87z" />
    <glyph glyph-name="umacron" unicode="&#x16b;" 
d="M438 16q-34 -9 -82.5 -18t-105.5 -9q-58 0 -95 16t-58.5 45.5t-29.5 69.5t-8 88v262h123v-246q0 -65 15.5 -96.5t60.5 -31.5q28 0 56 5v369h124v-454zM108 647h288v-87h-288v87z" />
    <glyph glyph-name="Ubreve" unicode="&#x16c;" 
d="M248 -13q-60 0 -100.5 16.5t-64.5 47.5t-34 75t-10 98v395h124v-387q0 -39 4 -65.5t13.5 -42.5t26.5 -23t43 -7t43 7t27 23.5t14 43t4 65.5v386h123v-395q0 -54 -10 -98t-35 -75t-66 -47.5t-102 -16.5zM250 673q-31 0 -57.5 9.5t-46 28t-30.5 44.5t-11 59v7h91
q2 -38 17 -50.5t37 -12.5t37 12.5t18 50.5h90v-7q0 -33 -11 -59t-30.5 -44.5t-46 -28t-57.5 -9.5z" />
    <glyph glyph-name="ubreve" unicode="&#x16d;" 
d="M438 16q-34 -9 -82.5 -18t-105.5 -9q-58 0 -95 16t-58.5 45.5t-29.5 69.5t-8 88v262h123v-246q0 -65 15.5 -96.5t60.5 -31.5q28 0 56 5v369h124v-454zM250 534q-31 0 -57.5 9.5t-46 28t-30.5 44.5t-11 59v7h91q2 -38 17 -50.5t37 -12.5t37 12.5t18 50.5h90v-7
q0 -33 -11 -59t-30.5 -44.5t-46 -28t-57.5 -9.5z" />
    <glyph glyph-name="Uring" unicode="&#x16e;" 
d="M248 -13q-60 0 -100.5 16.5t-64.5 47.5t-34 75t-10 98v375h124v-367q0 -39 4 -65.5t13.5 -42.5t26.5 -23t43 -7t43 7t27 23.5t14 43t4 65.5v366h123v-375q0 -54 -10 -98t-35 -75t-66 -47.5t-102 -16.5zM355 723q0 -50 -31.5 -76t-74.5 -26q-20 0 -39 6.5t-33.5 19.5
t-23 32t-8.5 44t8.5 44.5t23 32.5t33.5 19.5t39 6.5q43 0 74.5 -26t31.5 -77zM290 723q0 21 -12 31.5t-29 10.5q-15 0 -27.5 -10.5t-12.5 -31.5q0 -20 12.5 -31t27.5 -11q17 0 29 11t12 31z" />
    <glyph glyph-name="uring" unicode="&#x16f;" 
d="M438 16q-34 -9 -82.5 -18t-105.5 -9q-58 0 -95 16t-58.5 45.5t-29.5 69.5t-8 88v262h123v-246q0 -65 15.5 -96.5t60.5 -31.5q28 0 56 5v369h124v-454zM355 604q0 -50 -31.5 -76t-74.5 -26q-20 0 -39 6.5t-33.5 19.5t-23 32t-8.5 44t8.5 44.5t23 32.5t33.5 19.5t39 6.5
q43 0 74.5 -26t31.5 -77zM290 604q0 21 -12 31.5t-29 10.5q-15 0 -27.5 -10.5t-12.5 -31.5q0 -20 12.5 -31t27.5 -11q17 0 29 11t12 31z" />
    <glyph glyph-name="Uhungarumlaut" unicode="&#x170;" 
d="M248 -13q-60 0 -100.5 16.5t-64.5 47.5t-34 75t-10 98v395h124v-387q0 -39 4 -65.5t13.5 -42.5t26.5 -23t43 -7t43 7t27 23.5t14 43t4 65.5v386h123v-395q0 -54 -10 -98t-35 -75t-66 -47.5t-102 -16.5zM294 760l-144 -112l-47 49l121 133zM474 760l-144 -112l-47 49
l122 132z" />
    <glyph glyph-name="uhungarumlaut" unicode="&#x171;" 
d="M438 16q-34 -9 -82.5 -18t-105.5 -9q-58 0 -95 16t-58.5 45.5t-29.5 69.5t-8 88v262h123v-246q0 -65 15.5 -96.5t60.5 -31.5q28 0 56 5v369h124v-454zM285 622l-144 -112l-47 49l121 133zM465 622l-144 -112l-47 49l122 132z" />
    <glyph glyph-name="Uogonek" unicode="&#x172;" 
d="M391 24q-7 -5 -21.5 -18t-29.5 -28.5t-26.5 -31t-11.5 -27.5q0 -10 5.5 -17t21.5 -7q8 0 19 1t26 6l7 -58q-14 -5 -39.5 -9.5t-53.5 -4.5q-48 0 -69 18.5t-21 45.5q0 23 12.5 47.5t34.5 45.5q-60 0 -99.5 17t-63 48t-33.5 74.5t-10 97.5v395h124v-387q0 -39 4 -65.5
t13.5 -42.5t26.5 -23t43 -7t43 7t27 23.5t14 43t4 65.5v386h123v-395q0 -68 -15 -117.5t-55 -82.5z" />
    <glyph glyph-name="uogonek" unicode="&#x173;" 
d="M434 -156q-14 -5 -39.5 -9.5t-53.5 -4.5q-48 0 -69 18.5t-21 45.5q0 24 14 50.5t39 48.5q-14 -2 -27.5 -3t-26.5 -1q-58 0 -95 16t-58.5 45.5t-29.5 69.5t-8 88v262h123v-246q0 -65 15.5 -96.5t60.5 -31.5q28 0 56 5v369h124v-454q-7 -5 -20.5 -16.5t-27.5 -25.5
t-24.5 -28.5t-10.5 -26.5q0 -10 5.5 -17t21.5 -7q8 0 19 1t26 6z" />
    <glyph glyph-name="Wcircumflex" unicode="&#x174;" 
d="M296 400q4 -19 12 -47t17.5 -62t21 -73t22.5 -80q0 52 -1 111.5t-2 121.5t-2 125.5t-1 122.5h114q-3 -76 -6 -156.5t-7 -160t-9.5 -156.5t-12.5 -146h-102q-22 63 -44 135.5t-44 138.5q-22 -63 -46 -137t-44 -137h-102q-8 69 -14 146.5t-10.5 157t-7.5 160t-5 155.5h114
q-1 -59 -2 -122t-2 -125.5t-2 -122t-1 -111.5q9 32 20.5 70t22 75t19.5 68t14 49h90zM390 708l-49 -59l-89 69l-89 -69l-51 59l140 122z" />
    <glyph glyph-name="wcircumflex" unicode="&#x175;" 
d="M322 0q-11 31 -20.5 57t-18 50.5t-17 51t-17.5 58.5q-10 -32 -18 -57.5t-16.5 -50.5t-17.5 -51t-22 -58h-93q-12 44 -22.5 97.5t-19.5 114t-16 125.5t-13 133h105q4 -87 8.5 -170t16.5 -171q13 38 22.5 70.5t17 62t14 57t13.5 56.5h89q6 -29 12.5 -56.5t14 -57t16 -62
t20.5 -70.5q6 46 10 88t6.5 83.5t4 83t3.5 86.5h105q-11 -137 -30.5 -258t-43.5 -212h-93zM390 569l-49 -59l-89 69l-89 -69l-51 59l140 122z" />
    <glyph glyph-name="Ycircumflex" unicode="&#x176;" 
d="M254 336q11 23 25.5 58t29 74t28 79t24.5 72h127q-19 -51 -38 -99t-40 -95t-45 -93.5t-52 -95.5v-236h-124v235q-55 97 -96.5 189.5t-79.5 194.5h132q23 -72 51 -146.5t58 -136.5zM390 708l-49 -59l-89 69l-89 -69l-51 59l140 122z" />
    <glyph glyph-name="ycircumflex" unicode="&#x177;" 
d="M472 470q-19 -66 -36.5 -129.5t-36.5 -124t-40.5 -118.5t-46.5 -113q-19 -40 -37.5 -69t-41 -47.5t-50 -27.5t-64.5 -9q-31 0 -56.5 5t-42.5 13l23 103q20 -9 35.5 -12.5t33.5 -3.5q36 0 58 24t35 57q-44 88 -88 201.5t-80 250.5h128q9 -37 20.5 -79t24.5 -84t27.5 -82.5
t29.5 -75.5q10 35 21 75.5t21 82t19.5 83.5t17.5 80h126zM390 569l-49 -59l-89 69l-89 -69l-51 59l140 122z" />
    <glyph glyph-name="Ydieresis" unicode="&#x178;" 
d="M254 336q11 23 25.5 58t29 74t28 79t24.5 72h127q-19 -51 -38 -99t-40 -95t-45 -93.5t-52 -95.5v-236h-124v235q-55 97 -96.5 189.5t-79.5 194.5h132q23 -72 51 -146.5t58 -136.5zM152 677q-28 0 -48.5 17.5t-20.5 49.5t20.5 50t48.5 18q27 0 48 -18t21 -50t-21 -49.5
t-48 -17.5zM351 677q-28 0 -48.5 17.5t-20.5 49.5t20.5 50t48.5 18t48.5 -18t20.5 -50t-20.5 -49.5t-48.5 -17.5z" />
    <glyph glyph-name="Zacute" unicode="&#x179;" 
d="M445 533q-43 -66 -79 -124t-67 -110.5t-58.5 -101t-52.5 -95.5h266v-102h-408v71q22 43 47 90.5t56 101.5t67.5 117t80.5 137h-238v102h386v-86zM371 736l-174 -84l-45 67l158 111z" />
    <glyph glyph-name="zacute" unicode="&#x17a;" 
d="M426 380q-14 -16 -40 -47.5t-56.5 -70.5t-61 -81.5t-54.5 -78.5h222v-102h-369v75q23 38 50 78t54 78.5t53 73.5t47 63h-194v102h349v-90zM371 597l-174 -84l-45 67l158 111z" />
    <glyph glyph-name="Zdotaccent" unicode="&#x17b;" 
d="M445 533q-43 -66 -79 -124t-67 -110.5t-58.5 -101t-52.5 -95.5h266v-102h-408v71q22 43 47 90.5t56 101.5t67.5 117t80.5 137h-238v102h386v-86zM250 675q-29 0 -50 18.5t-21 50.5t21 51t50 19t50 -19t21 -51t-21 -50.5t-50 -18.5z" />
    <glyph glyph-name="zdotaccent" unicode="&#x17c;" 
d="M426 380q-14 -16 -40 -47.5t-56.5 -70.5t-61 -81.5t-54.5 -78.5h222v-102h-369v75q23 38 50 78t54 78.5t53 73.5t47 63h-194v102h349v-90zM250 536q-29 0 -50 18.5t-21 50.5t21 51t50 19t50 -19t21 -51t-21 -50.5t-50 -18.5z" />
    <glyph glyph-name="Zcaron" unicode="&#x17d;" 
d="M445 533q-43 -66 -79 -124t-67 -110.5t-58.5 -101t-52.5 -95.5h266v-102h-408v71q22 43 47 90.5t56 101.5t67.5 117t80.5 137h-238v102h386v-86zM112 771l49 59l89 -69l89 69l51 -59l-140 -122z" />
    <glyph glyph-name="zcaron" unicode="&#x17e;" 
d="M426 380q-14 -16 -40 -47.5t-56.5 -70.5t-61 -81.5t-54.5 -78.5h222v-102h-369v75q23 38 50 78t54 78.5t53 73.5t47 63h-194v102h349v-90zM112 632l49 59l89 -69l89 69l51 -59l-140 -122z" />
    <glyph glyph-name="longs" unicode="&#x17f;" 
d="M139 0v497q0 57 16.5 94.5t44.5 60t64 32t74 9.5q39 0 80 -6t74 -22l-21 -101q-23 8 -57.5 16t-65.5 8q-17 0 -32.5 -3t-27 -13t-18.5 -28.5t-7 -48.5v-495h-124z" />
    <glyph glyph-name="uni0180" unicode="&#x180;" 
d="M345 238q0 66 -19.5 101t-60.5 35q-20 0 -38 -5.5t-31 -13.5v-255q14 -3 28 -4t24 -1q45 0 71 32.5t26 110.5zM338 615v-83h-142v-73q26 12 48.5 16.5t45.5 4.5q44 0 78 -17.5t56.5 -50t34 -77.5t11.5 -100q0 -56 -14.5 -101.5t-42.5 -77.5t-69 -49.5t-93 -17.5
q-47 0 -95.5 7t-82.5 18v518h-55v83h55v58l123 21v-79h142z" />
    <glyph glyph-name="uni0181" unicode="&#x181;" 
d="M285 -8q-35 0 -65.5 3t-67.5 11v522h-5q-29 0 -41.5 -15t-12.5 -35q0 -30 10 -53l-90 -12q-13 40 -13 74q0 43 18 70t50.5 42.5t78.5 21t103 5.5q60 0 100 -11.5t64 -32t34 -49.5t10 -65q0 -43 -18.5 -78.5t-56.5 -58.5q54 -16 79 -58.5t25 -97.5q0 -32 -9.5 -65
t-32.5 -59t-62 -42.5t-98 -16.5zM257 271v-168q9 -2 21.5 -3t22.5 -1q15 0 29 3.5t25.5 13t18.5 27t7 44.5q0 45 -20 64.5t-53 19.5h-51zM290 373q31 0 47 20.5t16 56.5q0 44 -16.5 61t-38.5 17q-8 0 -20.5 -0.5t-20.5 -1.5v-153h33z" />
    <glyph glyph-name="uni0182" unicode="&#x182;" 
d="M177 517v-118h46q56 0 101.5 -10.5t77.5 -34.5t49.5 -62.5t17.5 -94.5q0 -103 -62.5 -154t-180.5 -51q-35 0 -81 4t-91 14v609h351v-102h-228zM233 99q54 0 84.5 23t30.5 74q0 54 -32 75t-97 21h-42v-189q8 -1 25 -2.5t31 -1.5z" />
    <glyph glyph-name="uni0183" unicode="&#x183;" 
d="M186 459q26 12 50 16.5t48 4.5q46 0 81 -17.5t58.5 -50t35.5 -77.5t12 -100q0 -56 -15 -101.5t-44 -77.5t-71 -49.5t-96 -17.5q-48 0 -98 7t-84 18v673h356v-102h-233v-126zM346 238q0 66 -21.5 101t-65.5 35q-20 0 -39.5 -5.5t-33.5 -13.5v-255q14 -3 29.5 -4t26.5 -1
q48 0 76 32.5t28 110.5z" />
    <glyph glyph-name="uni0184" unicode="&#x184;" 
d="M345 238q0 66 -21.5 101t-65.5 35q-20 0 -39.5 -5.5t-33.5 -13.5v-255q14 -3 29.5 -4t26.5 -1q48 0 76 32.5t28 110.5zM-14 610q45 25 92.5 46t106.5 37v-234q26 12 50 16.5t48 4.5q46 0 81 -17.5t58.5 -50t35.5 -77.5t12 -100q0 -56 -15 -101.5t-44 -77.5t-71 -49.5
t-96 -17.5q-48 0 -98 7t-84 18v516z" />
    <glyph glyph-name="uni0185" unicode="&#x185;" 
d="M-4 545q45 25 92.5 46t106.5 37v-238h34q55 0 99.5 -9.5t75.5 -31.5t47.5 -59.5t16.5 -92.5q0 -103 -63 -153t-181 -50q-34 0 -71.5 3t-81.5 14v454zM249 99q38 0 67 23t29 74t-29 70t-81 19h-40v-182q7 -1 24 -2.5t30 -1.5z" />
    <glyph glyph-name="uni0186" unicode="&#x186;" 
d="M199 -13q-58 0 -102 13.5t-70 29.5l31 97q18 -11 50 -22t80 -11q82 0 119 56.5t37 162.5q0 61 -13.5 102t-35.5 65.5t-50 35t-56 10.5q-41 0 -73.5 -10.5t-55.5 -25.5l-32 98q7 4 22 12t36.5 15t49.5 12.5t60 5.5q64 0 114.5 -20t85.5 -60.5t54 -101t19 -141.5
q0 -155 -69.5 -239t-200.5 -84z" />
    <glyph glyph-name="uni0187" unicode="&#x187;" 
d="M391 497q-56 29 -103 29q-63 0 -99.5 -54t-36.5 -159q0 -62 9.5 -104t27.5 -67.5t43 -36.5t57 -11q35 0 60 9t53 24l31 -97q-42 -22 -78.5 -32.5t-80.5 -10.5q-57 0 -102.5 21t-77.5 62.5t-49.5 101.5t-17.5 138q0 82 20 143t54.5 101t80.5 59.5t97 19.5q33 0 69 -11
q17 44 47 62t68 18q15 0 31.5 -2.5t33.5 -7.5l-27 -94q-8 2 -13 3.5t-19 1.5q-16 0 -32 -8t-27 -40z" />
    <glyph glyph-name="uni0188" unicode="&#x188;" 
d="M40 235q0 51 16.5 96t47.5 78.5t76 53t102 19.5q13 0 28 -1t28 -3q14 45 38.5 61t65.5 16q25 0 45.5 -5t33.5 -12l-28 -90q-10 5 -19 7t-22 2q-20 0 -32.5 -11.5t-20.5 -38.5l-13 -49q-19 8 -42 12.5t-51 4.5q-30 0 -53.5 -11t-40.5 -29.5t-26 -44t-9 -55.5
q0 -64 33 -101.5t101 -37.5q24 0 52.5 4.5t51.5 14.5l18 -103q-24 -11 -58.5 -18t-76.5 -7q-65 0 -111 19t-76 52.5t-44 79t-14 97.5z" />
    <glyph glyph-name="uni0189" unicode="&#x189;" 
d="M473 310q0 -86 -20.5 -146.5t-57 -98.5t-86.5 -55.5t-110 -17.5q-32 0 -62.5 3.5t-65.5 11.5v263h-53v102h53v239q42 9 77 12t67 3q58 0 106 -18t81.5 -56.5t52 -98t18.5 -143.5zM195 372h76v-102h-76v-170q4 -1 8.5 -1h9.5q38 0 64 16t41.5 44t22.5 66.5t7 84.5
q0 40 -5 78t-18.5 67t-37.5 46.5t-61 17.5q-8 0 -16 -0.5t-15 -2.5v-144z" />
    <glyph glyph-name="uni018A" unicode="&#x18a;" 
d="M250 626q118 0 175 -74.5t57 -241.5q0 -88 -17 -148.5t-47.5 -98t-72.5 -54t-93 -16.5q-23 0 -48.5 3t-51.5 11v521h-5q-29 0 -41.5 -15t-12.5 -35q0 -30 10 -53l-90 -12q-13 40 -13 74q0 43 19.5 70t53 42.5t79 21t98.5 5.5zM257 100q5 -1 11 -1h12q32 0 51 16.5
t28.5 45.5t12.5 68.5t3 84.5q0 37 -2 75t-11 69t-27 50.5t-50 19.5q-5 0 -14 -0.5t-14 -1.5v-426z" />
    <glyph glyph-name="uni018B" unicode="&#x18b;" 
d="M80 517v102h366v-608q-45 -11 -85 -14t-75 -3q-124 0 -189.5 50t-65.5 153q0 55 17.5 92.5t50 59.5t78.5 31.5t104 9.5h41v127h-242zM261 99q7 0 16 0.5l18 1t16 1.5t11 1v182h-47q-56 0 -88.5 -19.5t-32.5 -69.5t32 -73.5t75 -23.5z" />
    <glyph glyph-name="uni018C" unicode="&#x18c;" 
d="M153 238q0 -63 23.5 -103t75.5 -40q15 0 28 1t27 3v256q-14 8 -32 13.5t-38 5.5q-44 0 -64 -35t-20 -101zM75 585v102h355v-673q-34 -11 -83 -18t-96 -7q-110 0 -166.5 65t-56.5 178q0 115 47.5 181.5t140.5 66.5q25 0 49 -5.5t42 -15.5v126h-232z" />
    <glyph glyph-name="uni018D" unicode="&#x18d;" 
d="M471 284q0 -21 -5 -48.5t-19.5 -55.5t-39.5 -55.5t-64 -48.5q28 -21 46.5 -45.5t18.5 -59.5q0 -29 -11.5 -54.5t-34 -44t-56 -29.5t-76.5 -11q-41 0 -79 5t-72 20l25 97q26 -11 55 -17.5t61 -6.5q9 0 20.5 1t21 4.5t16.5 11t7 20.5q0 12 -7.5 21t-23 18.5t-39 22.5
t-55.5 33q-61 37 -95 89.5t-34 124.5q0 48 15.5 86t44 65t68.5 41t90 14q49 0 90 -13.5t70 -39t45.5 -62t16.5 -83.5zM157 274q0 -26 8.5 -47t23 -38.5t33.5 -32t40 -27.5q25 13 41.5 31t25.5 37.5t12.5 39.5t3.5 37q0 52 -26.5 77.5t-68.5 25.5t-67.5 -25t-25.5 -78z" />
    <glyph glyph-name="uni018E" unicode="&#x18e;" 
d="M63 0v102h274v174h-220v102h220v139h-252v102h375v-619h-397z" />
    <glyph glyph-name="uni018F" unicode="&#x18f;" 
d="M355 345q0 50 -14 84.5t-37 56t-53.5 31t-63.5 9.5q-31 0 -61 -6t-53 -17l-30 96q18 9 38.5 15t41.5 10.5t40.5 6.5t34.5 2q69 0 120 -24.5t84.5 -67.5t50 -101.5t16.5 -126.5q0 -158 -61 -242t-167 -84q-58 0 -99 24.5t-67 65t-38 92.5t-12 106q0 17 1 34.5t3 35.5h326z
M138 248q0 -81 29.5 -122t74.5 -41q27 0 47.5 13t34.5 35.5t21 52t8 62.5h-215z" />
    <glyph glyph-name="uni0190" unicode="&#x190;" 
d="M382 272h-83q-31 0 -57 -4.5t-45 -15t-29.5 -27.5t-10.5 -43q0 -23 9.5 -39t26 -26.5t38.5 -15t47 -4.5q44 0 90 12t79 31l40 -102q-42 -23 -100 -37t-118 -14q-46 0 -89 10t-76 32.5t-53 58.5t-20 89q0 58 30 95t71 58q-38 24 -56 61.5t-18 71.5q0 46 17.5 78.5
t46.5 52.5t66.5 29.5t78.5 9.5q54 0 105.5 -14t92.5 -37l-42 -95q-26 14 -67.5 25t-80.5 11q-38 0 -65.5 -15.5t-27.5 -54.5q0 -35 26 -55t81 -20h93v-106z" />
    <glyph glyph-name="uni0191" unicode="&#x191;" 
d="M186 18q0 -46 -8 -80.5t-26.5 -58t-49.5 -35t-76 -11.5q-13 0 -34.5 2t-43.5 10l18 99q14 -5 22 -6t25 -1q50 0 50 63v619h379v-102h-256v-150h224v-102h-224v-199v-48z" />
    <glyph glyph-name="florin" unicode="&#x192;" 
d="M263 31q0 -57 -14 -95.5t-39 -62t-58.5 -33.5t-72.5 -10q-29 0 -46 4t-34 9l28 102q8 -2 17.5 -4.5t29.5 -2.5q31 0 48 18.5t17 68.5v343h-103v102h103v27q0 57 16.5 94.5t44.5 60t64 32t74 9.5q39 0 80 -7t74 -23l-21 -100q-23 8 -57.5 16.5t-65.5 8.5q-17 0 -32.5 -3
t-27 -13t-18.5 -28.5t-7 -48.5v-25h193v-102h-193v-337z" />
    <glyph glyph-name="uni0193" unicode="&#x193;" 
d="M279 633q33 0 69 -11q17 44 47 62t68 18q15 0 31.5 -2.5t33.5 -7.5l-27 -94q-8 2 -13 3.5t-19 1.5q-16 0 -32.5 -8t-26.5 -40l-19 -58q-56 29 -103 29q-39 0 -65 -18.5t-42 -48.5t-22.5 -69t-6.5 -80q0 -111 35 -163.5t103 -52.5q11 0 24 1t24 3v226h123v-309
q-22 -8 -68.5 -18t-112.5 -10q-58 0 -104.5 20.5t-79.5 61t-51 101t-18 140.5q0 79 19 139.5t53 101.5t80 61.5t100 20.5z" />
    <glyph glyph-name="uni0194" unicode="&#x194;" 
d="M491 619l-176 -413q42 -70 66.5 -124.5t24.5 -108.5q0 -30 -8.5 -55t-27.5 -43.5t-48 -29t-71 -10.5t-71 10.5t-48 29t-27.5 43.5t-8.5 54q0 54 24.5 109t66.5 125l-178 413h124l118 -329l118 329h122zM251 -67q26 0 36 14t10 34q0 15 -4.5 33t-11 35t-15 31.5
t-15.5 24.5q-6 -8 -14.5 -22t-15.5 -31t-12 -36t-5 -35q0 -20 10.5 -34t36.5 -14z" />
    <glyph glyph-name="uni0195" unicode="&#x195;" 
d="M204 288q0 33 -2 53t-6.5 31.5t-12.5 15t-20 3.5q-13 0 -23 -4t-17 -7v-380h-96v673l96 21v-228q12 5 26.5 9.5t26.5 4.5q41 0 65.5 -13.5t37.5 -39t17 -61.5t4 -81v-94q0 -62 8 -88t36 -26q27 0 34.5 26t7.5 88v279h96v-277q0 -49 -5 -87.5t-20 -64.5t-42 -40t-71 -14
t-71.5 14t-42.5 40t-20.5 64.5t-5.5 87.5v95z" />
    <glyph glyph-name="uni0196" unicode="&#x196;" 
d="M271 517v-332q0 -49 18 -69t63 -20q21 0 45 6t41 13l24 -101q-20 -9 -49 -18t-81 -9q-55 0 -90.5 16t-56.5 43.5t-29 63.5t-8 77v330h-116v102h375v-102h-136z" />
    <glyph glyph-name="uni0197" unicode="&#x197;" 
d="M54 0v102h135v169h-90v99h90v147h-135v102h393v-102h-134v-147h90v-99h-90v-169h134v-102h-393z" />
    <glyph glyph-name="uni0198" unicode="&#x198;" 
d="M349 0q-11 30 -29 69t-42 78t-52 75t-58 61v-283h-123v619h123v-257l106 154q16 23 31.5 44t32 37t34.5 25.5t38 9.5q11 0 23 -1t25.5 -6.5t29 -16t34.5 -28.5l-54 -86q-21 17 -42 17q-17 0 -28.5 -10t-25.5 -29l-95 -138q71 -66 125.5 -154.5t86.5 -179.5h-140z" />
    <glyph glyph-name="uni0199" unicode="&#x199;" 
d="M187 284q18 21 36.5 44.5t36 48.5t33.5 48.5t28 44.5h148q-18 -23 -41 -50t-47.5 -55t-49 -54t-44.5 -48q25 -24 54 -57.5t57 -69.5t51.5 -72t37.5 -64h-141q-12 25 -31.5 56.5t-41.5 62t-44.5 58t-41.5 45.5v-222h-124v528q0 85 38 125t129 40q12 0 27.5 -1.5t35.5 -9.5
l-17 -95q-10 2 -19.5 4t-20.5 2q-49 0 -49 -62v-247z" />
    <glyph glyph-name="uni019A" unicode="&#x19a;" 
d="M490 20q-3 -2 -13.5 -7t-27.5 -10.5t-41.5 -9.5t-55.5 -4q-85 0 -124 50.5t-39 147.5v128h-129v85h129v191h-130v102h254v-293h132v-85h-132v-137q0 -48 19 -65t48 -17q36 0 61 10t33 13z" />
    <glyph glyph-name="uni019B" unicode="&#x19b;" 
d="M304 532q28 -66 55 -140t49.5 -146t40 -136.5t28.5 -109.5h-142q-8 36 -18 76.5t-20.5 81.5t-21.5 80t-21 72q-14 -36 -28.5 -77t-28 -82t-24.5 -80.5t-18 -70.5h-136q17 64 39.5 126.5t46.5 120.5t49.5 110t48.5 96q-4 11 -7 20.5t-7 17.5l-107 -38l-28 74l98 35
q-12 14 -27 20t-37 6q-30 0 -49 -8l-21 98q17 5 41 10t56 5q49 0 86.5 -20t67.5 -69l109 39l27 -74z" />
    <glyph glyph-name="uni019C" unicode="&#x19c;" 
d="M154 -12q-41 0 -67 13.5t-41 38.5t-20.5 61t-5.5 81v437h100v-442q0 -28 4 -45t10.5 -26.5t15.5 -12.5t18 -3q11 0 21.5 3.5t18.5 7.5q-6 37 -6 89v194h100v-207q0 -48 10.5 -67.5t36.5 -19.5q7 0 16 1.5t19 5.5v522h100v-607q-45 -11 -81.5 -17.5t-66.5 -6.5
q-29 0 -50.5 6.5t-38.5 21.5q-17 -10 -42 -19t-51 -9z" />
    <glyph glyph-name="uni019D" unicode="&#x19d;" 
d="M355 0q-42 103 -91.5 205.5t-106.5 205.5v-393q0 -41 -6 -74.5t-22 -58.5t-45 -38.5t-74 -13.5q-13 0 -34.5 2t-43.5 10l18 99q14 -5 22 -6t25 -1q49 0 49 63v619h99q28 -44 56 -95.5t54.5 -102.5t49 -99t38.5 -84v381h111v-619h-99z" />
    <glyph glyph-name="uni019E" unicode="&#x19e;" 
d="M63 455q33 9 81.5 17t105.5 8q56 0 93 -15.5t58.5 -44t30.5 -68t9 -87.5v-430h-123v414q0 66 -15 95t-61 29q-14 0 -27.5 -1t-28.5 -3v-369h-123v455z" />
    <glyph glyph-name="uni019F" unicode="&#x19f;" 
d="M27 310q0 160 59 241.5t164 81.5q109 0 166 -81.5t57 -241.5t-58 -241.5t-164 -81.5q-109 0 -166.5 81.5t-57.5 241.5zM250 94q27 0 45 13t29 35.5t16 53.5t7 67h-194q1 -37 6 -68t16 -53.5t29.5 -35t45.5 -12.5zM250 526q-27 0 -44.5 -12.5t-29 -34.5t-17 -52.5
t-6.5 -65.5h194q-2 35 -7 65.5t-16 52.5t-29 34.5t-45 12.5z" />
    <glyph glyph-name="Ohorn" unicode="&#x1a0;" 
d="M27 310q0 160 59 241.5t164 81.5q77 0 127 -40q7 18 9.5 38t2.5 41q0 11 -0.5 21.5t-0.5 21.5h105q4 -23 4 -48q0 -42 -14 -79t-48 -69h-1q39 -80 39 -209q0 -160 -58 -241.5t-164 -81.5q-109 0 -166.5 81.5t-57.5 241.5zM152 310q0 -45 3.5 -84.5t14 -68.5t29.5 -46
t51 -17q31 0 50.5 17t30 46.5t14 68.5t3.5 84t-3.5 84.5t-14 68.5t-29.5 46t-51 17t-51 -17t-29.5 -46.5t-14 -68.5t-3.5 -84z" />
    <glyph glyph-name="ohorn" unicode="&#x1a1;" 
d="M472 236q0 -56 -16 -101.5t-45 -78.5t-69.5 -51t-90.5 -18t-90.5 18t-70 51t-45.5 78.5t-16 101.5q0 55 16.5 100.5t46 78t70.5 50t89 17.5q70 0 120 -34q7 12 12 27.5t5 39.5v22.5t-2 26.5h102q3 -14 3.5 -27t0.5 -26q0 -42 -15.5 -72t-41.5 -59q17 -29 27 -65.5
t10 -78.5zM154 235q0 -63 22.5 -102t72.5 -39q48 0 72.5 39t24.5 102t-22.5 101.5t-72.5 38.5q-48 0 -72.5 -38.5t-24.5 -101.5z" />
    <glyph glyph-name="uni01A2" unicode="&#x1a2;" 
d="M30 311q0 96 8 158.5t25 98.5t44.5 50.5t65.5 14.5q27 0 49 -7.5t39 -26.5q21 19 43 26.5t49 7.5q52 0 78 -26t35.5 -68t9 -95.5t-0.5 -108.5v-335h-96v405q0 40 -2.5 64t-8 37t-13.5 17.5t-20 4.5q-19 0 -34 -19q15 -71 15 -198q0 -96 -8.5 -159t-26.5 -99.5t-45 -51
t-63 -14.5q-37 0 -64 14.5t-44.5 51t-26 99.5t-8.5 159zM218 311q0 62 -1 104t-5.5 67t-13.5 35.5t-25 10.5t-25 -10.5t-13 -36t-5 -67t-1 -103.5q0 -63 1 -104.5t5.5 -67t13 -36t24.5 -10.5t25 10.5t13.5 36t5.5 67.5t1 104z" />
    <glyph glyph-name="uni01A3" unicode="&#x1a3;" 
d="M328 236q0 -58 -8 -103.5t-26.5 -77.5t-48 -49t-71.5 -17t-70.5 17t-46.5 48.5t-26 77.5t-8 104q0 55 8 100.5t26.5 77.5t48 50t71.5 18q50 0 82 -26q19 11 40 17.5t43 6.5q27 0 52 -8t44.5 -28.5t31.5 -56t12 -90.5v-462h-96v432q0 61 -10 87t-45 26h-10.5t-11.5 -1
q19 -58 19 -143zM175 380q-11 0 -20.5 -5.5t-17 -21.5t-12 -44t-4.5 -73q0 -46 4.5 -74.5t12 -44t17.5 -21t21 -5.5t20.5 5.5t17 21.5t12 44.5t4.5 73.5t-4.5 73.5t-12 44t-17.5 21t-21 5.5z" />
    <glyph glyph-name="uni01A4" unicode="&#x1a4;" 
d="M250 626q59 0 101 -11t69 -35.5t39.5 -64t12.5 -96.5q0 -111 -47.5 -160.5t-143.5 -49.5h-24v-209h-105v528h-5q-29 0 -41.5 -15t-12.5 -35q0 -30 10 -53l-90 -12q-13 40 -13 74q0 43 19.5 70t53 42.5t79 21t98.5 5.5zM294 528h-16.5t-20.5 -2v-210h30q34 0 55.5 22
t21.5 82q0 54 -19 81t-51 27z" />
    <glyph glyph-name="uni01A5" unicode="&#x1a5;" 
d="M469 235q0 -54 -12 -99.5t-35 -78t-58 -50.5t-81 -18q-47 0 -97 23v-177h-123v690q0 48 11.5 80.5t32.5 52t49.5 27.5t62.5 8q18 0 34.5 -2t38.5 -7l-17 -96q-20 5 -34 5q-24 0 -39.5 -12t-15.5 -51v-52q14 2 29 2h29q109 0 167 -66t58 -179zM344 231q0 63 -25 103.5
t-76 40.5q-14 0 -30 -1.5t-27 -2.5v-258q12 -8 32 -13t40 -5q44 0 65 35.5t21 100.5z" />
    <glyph glyph-name="uni01A6" unicode="&#x1a6;" 
d="M214 626q53 0 96 -12t74 -37t47.5 -63.5t16.5 -90.5q0 -57 -23.5 -101.5t-78.5 -66.5q28 -42 54 -89.5t48.5 -94.5t41 -90t31.5 -77h-130q-11 30 -27.5 70t-37.5 84.5t-45 88.5t-49 81h-55v-228h-123v693h123v-68q10 1 19.5 1h17.5zM323 424q0 49 -30 72t-79 23
q-7 0 -17 -0.5t-20 -2.5v-186h27q63 0 91 24.5t28 69.5z" />
    <glyph glyph-name="uni01A7" unicode="&#x1a7;" 
d="M268 90q54 0 91.5 14t64.5 30l36 -100q-11 -7 -28 -15.5t-40.5 -15.5t-54 -11.5t-69.5 -4.5q-115 0 -171.5 47.5t-56.5 134.5q0 51 17 84.5t43 56t58 36t61 24.5q19 7 38.5 15t35 18.5t25.5 24t10 31.5q0 71 -98 71q-40 0 -70 -10t-56 -24l-36 95q29 16 71.5 29t99.5 13
q99 0 155.5 -49t56.5 -136q0 -44 -16 -73.5t-41 -49.5t-54.5 -33t-57.5 -23q-21 -8 -42 -17.5t-38 -21t-28 -26.5t-11 -34q0 -15 4.5 -29.5t16.5 -26t32.5 -18t51.5 -6.5z" />
    <glyph glyph-name="uni01A8" unicode="&#x1a8;" 
d="M268 93q40 0 80 12t74 26l20 -103q-26 -11 -69 -25t-104 -14q-60 0 -101 11t-66.5 30t-36.5 45t-11 55q0 37 15 62.5t38.5 42t52 27.5t55.5 20q19 6 35.5 12.5t29.5 13.5t20.5 15.5t7.5 19.5q0 14 -16.5 25t-63.5 11q-22 0 -43 -3.5t-38.5 -8t-31 -9t-21.5 -7.5l-20 104
q29 13 69 20t86 7q53 0 91 -11.5t62.5 -32t36 -47t11.5 -56.5q0 -37 -15 -61.5t-38 -40.5t-51 -26.5t-55 -18.5q-20 -6 -37 -12t-30.5 -12.5t-21 -15.5t-7.5 -22q0 -20 23.5 -26.5t69.5 -6.5z" />
    <glyph glyph-name="uni01A9" unicode="&#x1a9;" 
d="M232 313q-20 28 -46 59.5l-52 63t-50.5 59.5t-42.5 49v75h428v-102h-264q19 -23 40 -49.5t42.5 -53.5t41.5 -53t37 -48q-14 -16 -39 -44t-52.5 -59t-54 -60.5t-41.5 -47.5h291v-102h-442v81q21 25 46.5 54.5t53 60.5t54.5 61t50 56z" />
    <glyph glyph-name="uni01AA" unicode="&#x1aa;" 
d="M459 -164q-15 -2 -32.5 -2.5t-30.5 -0.5q-55 0 -90.5 13.5t-56 37.5t-28.5 56t-8 70v411q-11 -6 -28.5 -12t-43.5 -6t-49.5 9t-42 27t-29.5 44t-11 59q0 73 43.5 114t119.5 41q77 0 120.5 -45t43.5 -143v-495q0 -21 5.5 -36.5t19 -25t37.5 -14t61 -4.5v-98zM213 542
q0 26 -12 44.5t-38 18.5q-24 0 -36.5 -16t-12.5 -38q0 -27 13 -42t36 -15q13 0 26 6t24 14v28z" />
    <glyph glyph-name="uni01AB" unicode="&#x1ab;" 
d="M336 96q39 0 74 5t55 13q5 -38 8.5 -67.5t3.5 -66.5q0 -76 -39.5 -111.5t-111.5 -35.5q-11 0 -37.5 3.5t-50.5 11.5l16 87q13 -5 33 -8t36 -3q24 0 38 11t14 38v8.5t-1 10.5q-5 -1 -21.5 -2t-30.5 -1q-43 0 -77 9.5t-57.5 32.5t-36 62.5t-12.5 98.5v176h-103v102h103v118
l124 20v-138h193v-102h-193v-190q0 -26 5.5 -42t15 -25t23 -12t29.5 -3z" />
    <glyph glyph-name="uni01AC" unicode="&#x1ac;" 
d="M179 517q-39 0 -54 -14t-15 -39q0 -18 8 -47l-95 -13q-13 46 -13 85q0 69 47.5 99.5t153.5 30.5h264v-102h-145v-517h-124v517h-27z" />
    <glyph glyph-name="uni01AD" unicode="&#x1ad;" 
d="M139 368h-103v102h103v25q0 45 12 82t37.5 62.5t64.5 39.5t94 14q42 0 75 -7t51 -14l-26 -107q-20 8 -43 11.5t-43 3.5q-56 0 -77 -22.5t-21 -57.5v-30h193v-102h-193v-180q0 -52 15.5 -72t57.5 -20q19 0 35 1.5t30.5 5t29.5 8.5t32 13l17 -105q-34 -15 -74 -22.5
t-84 -7.5q-42 0 -76 9.5t-58 32.5t-36.5 62.5t-12.5 98.5v176z" />
    <glyph glyph-name="uni01AE" unicode="&#x1ae;" 
d="M188 517h-163v102h450v-102h-163v-509q0 -68 49 -68q26 0 48 7l17 -102q-22 -8 -43.5 -10t-34.5 -2q-79 0 -119.5 44t-40.5 138v502z" />
    <glyph glyph-name="Uhorn" unicode="&#x1af;" 
d="M221 -13q-53 0 -88 16.5t-56 47.5t-29.5 75t-8.5 98v395h115v-396q0 -78 15.5 -108t53.5 -30q37 0 53.5 31t16.5 108v395h51q39 0 52 16t13 45q0 8 -0.5 17t-1.5 18h102q2 -12 3 -23.5t1 -22.5q0 -47 -22.5 -77.5t-83.5 -39.5v-328q0 -54 -9 -98t-30.5 -75t-57 -47.5
t-89.5 -16.5z" />
    <glyph glyph-name="uhorn" unicode="&#x1b0;" 
d="M270 470h57q35 2 46.5 18t11.5 43q0 8 -0.5 16t-1.5 17h102q2 -12 2.5 -22.5t0.5 -21.5q0 -47 -22.5 -77.5t-81.5 -39.5v-387q-30 -9 -74.5 -18t-95.5 -9q-53 0 -86.5 16t-52.5 45.5t-26.5 69.5t-7.5 88v262h114v-255q0 -65 12 -96t46 -31q10 0 28.5 1t28.5 3v378z" />
    <glyph glyph-name="uni01B1" unicode="&#x1b1;" 
d="M486 266q0 -75 -20.5 -128t-53.5 -86.5t-75.5 -49t-87.5 -15.5q-44 0 -86.5 15.5t-75.5 49t-53.5 86.5t-20.5 128q0 65 17 128.5t60 123.5h-81v102h215v-87q-34 -41 -60 -100.5t-26 -139.5q0 -39 5 -74.5t17.5 -63.5t34 -44.5t53.5 -16.5t53.5 16.5t35 44t19 63.5t5.5 75
q0 80 -24.5 139.5t-62.5 100.5v87h217v-102h-85q43 -60 61.5 -124.5t18.5 -127.5z" />
    <glyph glyph-name="uni01B2" unicode="&#x1b2;" 
d="M280 626q58 0 95 -21t59 -62t30.5 -102t8.5 -141q0 -160 -53.5 -236.5t-168.5 -76.5q-62 0 -102.5 16.5t-65 48t-34.5 76.5t-10 101v390h124v-379q0 -41 4 -69t13 -45t24.5 -24.5t39.5 -7.5q34 0 54.5 15t31.5 42.5t14.5 65.5t3.5 83q0 55 -2.5 96t-11 68.5t-25.5 41
t-46 13.5q-9 0 -19 -1.5t-18 -4.5l-6 107q13 3 30 4.5t30 1.5z" />
    <glyph glyph-name="uni01B3" unicode="&#x1b3;" 
d="M296 497q10 27 19.5 51t23.5 41.5t34.5 28t50.5 10.5q29 0 50.5 -6.5t44.5 -25.5l-55 -88q-7 8 -15 10.5t-17 2.5q-14 0 -23.5 -13t-18.5 -35l-94 -236v-237h-123v235q-51 96 -89.5 194t-70.5 190h131q9 -31 20 -67t22.5 -73.5t24.5 -74t27 -68.5z" />
    <glyph glyph-name="uni01B4" unicode="&#x1b4;" 
d="M152 470q7 -29 17 -67t22.5 -79.5t27 -85.5t31.5 -85q20 79 30 132t18 87q14 54 42 79.5t85 25.5q19 0 38 -4t42 -14l-21 -97q-12 6 -24 7t-19 1q-14 0 -25 -10t-17 -34q-12 -48 -22 -89t-20.5 -79.5t-22.5 -77t-29 -80.5q-16 -39 -34 -70.5t-41.5 -53t-54 -33
t-71.5 -11.5q-28 0 -49 5.5t-35 13.5l23 102q17 -8 28 -12t25 -4q32 0 56 21t39 59q-59 115 -96.5 226.5t-71.5 226.5h129z" />
    <glyph glyph-name="uni01B5" unicode="&#x1b5;" 
d="M445 533q-59 -90 -107 -168h106v-98h-164q-26 -44 -48.5 -85t-43.5 -80h266v-102h-408v71q22 44 47.5 92t57.5 104h-96v98h152l90 152h-238v102h386v-86z" />
    <glyph glyph-name="uni01B6" unicode="&#x1b6;" 
d="M426 380q-14 -14 -36.5 -41.5t-49.5 -61.5h81v-79h-140q-38 -51 -67 -96h222v-102h-369v75q18 29 38.5 60.5t41.5 62.5h-63v79h120q18 26 35 48.5t32 42.5h-194v102h349v-90z" />
    <glyph glyph-name="uni01B7" unicode="&#x1b7;" 
d="M168 350q17 17 38.5 39t43 45.5t40.5 45t32 37.5h-272v102h417v-75q-11 -14 -30.5 -37t-42.5 -50t-47.5 -54t-44.5 -48q50 -8 84 -23t55 -37t30.5 -51t9.5 -65q0 -102 -69 -147t-190 -45q-32 0 -61.5 4.5t-55 11.5t-46 15t-33.5 15l39 100q29 -15 68 -27t88 -12
q60 0 97 21.5t37 64.5q0 55 -37.5 74t-105.5 19h-44v77z" />
    <glyph glyph-name="uni01B8" unicode="&#x1b8;" 
d="M354 286h-35q-80 0 -116.5 -24.5t-36.5 -76.5q0 -43 33 -67t92 -24q52 0 94 12t71 28l39 -99q-26 -14 -78.5 -31t-126.5 -17q-57 0 -103 11.5t-79 35.5t-50.5 61t-17.5 88q0 68 40 114t136 63q-20 21 -43.5 46t-46 49t-41 45.5t-29.5 35.5v83h407v-102h-264
q13 -16 32.5 -37.5t41 -45t43 -45.5t38.5 -39v-64z" />
    <glyph glyph-name="uni01B9" unicode="&#x1b9;" 
d="M358 136h-39q-64 0 -102 -23t-38 -76q0 -48 32 -71.5t88 -23.5q35 0 76.5 7.5t70.5 20.5l27 -99q-31 -15 -81.5 -25.5t-101.5 -10.5q-111 0 -173.5 48.5t-62.5 147.5q0 68 38.5 113t126.5 63q-21 23 -42.5 48t-41.5 49t-36.5 45.5t-26.5 37.5v83h369v-102h-216
q12 -16 29 -38.5t35 -45.5t36 -45.5t33 -38.5v-64z" />
    <glyph glyph-name="uni01BA" unicode="&#x1ba;" 
d="M45 -91q0 32 11.5 54t32.5 37t51 25.5t66 19.5q25 6 47.5 11.5t40 12.5t28 17.5t10.5 26.5q0 17 -6.5 30.5t-25 22.5t-52 13.5t-87.5 4.5v69q13 13 30 29t33.5 32t32 30t25.5 24h-226v102h378v-91q-12 -12 -28 -27.5t-33 -32t-34.5 -32.5t-33.5 -31q34 -8 61 -19
t45.5 -27.5t28 -40t9.5 -57.5q0 -39 -14.5 -64.5t-42.5 -43t-69 -30.5t-94 -27q-24 -6 -38 -12t-21 -12t-9 -13t-2 -14q0 -9 3 -23.5t8 -23.5l-100 -19q-8 16 -16.5 34.5t-8.5 44.5z" />
    <glyph glyph-name="uni01BB" unicode="&#x1bb;" 
d="M438 456q0 -31 -14 -60t-36 -58h62v-99h-154q-44 -41 -77 -76t-35 -61h272v-102h-410q-1 5 -1.5 13t-0.5 16.5v15.5v10q0 54 28 99t66 85h-73v99h175q30 29 50 56t20 53q0 40 -23.5 59.5t-60.5 19.5q-25 0 -45.5 -5.5t-38 -13.5t-30.5 -17.5t-23 -18.5l-61 85
q39 37 91 57t112 20q112 0 159.5 -47.5t47.5 -129.5z" />
    <glyph glyph-name="uni01BC" unicode="&#x1bc;" 
d="M461 187q0 -94 -58.5 -147t-176.5 -53q-27 0 -53.5 3.5t-50 9t-41.5 11t-27 10.5l25 105q25 -11 60.5 -21.5t83.5 -10.5q66 0 95 23.5t29 64.5q0 30 -13.5 51.5t-43.5 35t-79 20t-120 6.5q8 64 12.5 116t8.5 106h-85v102h428v-102h-242q-2 -29 -4 -64.5t-5 -64.5
q257 -10 257 -201z" />
    <glyph glyph-name="uni01BD" unicode="&#x1bd;" 
d="M453 147q0 -76 -55 -118t-168 -42q-61 0 -108 9.5t-64 16.5l22 105q9 -3 24 -7t34.5 -7.5t42.5 -6.5t47 -3q50 0 76 11.5t26 40.5q0 17 -6.5 29t-23.5 20t-47 12t-77 4h-90q5 44 9 81.5t7 75.5h-66v102h408v-102h-241q-1 -16 -3 -36t-4 -36h56q95 0 148 -35.5t53 -113.5z
" />
    <glyph glyph-name="uni01BE" unicode="&#x1be;" 
d="M472 130q0 -35 -15.5 -61.5t-44 -44.5t-68 -27.5t-87.5 -9.5q-31 0 -59 5t-50.5 11.5t-39 13.5t-24.5 11l20 103q34 -14 72.5 -26t81.5 -12q37 0 65 6t28 27q0 14 -9.5 23t-24.5 16t-35 13t-41 14q-60 24 -86 62.5t-26 94.5v19h-76v102h76v117l124 21v-138h180v-102h-180
v-18q0 -23 14 -41.5t43 -29.5q34 -12 63.5 -23.5t51.5 -27.5t34.5 -39t12.5 -59z" />
    <glyph glyph-name="uni01BF" unicode="&#x1bf;" 
d="M340 271q0 45 -25 74.5t-70 29.5q-19 0 -33.5 -2.5t-25.5 -4.5v-298q39 16 67.5 34t48 41.5t29 54t9.5 71.5zM467 270q0 -67 -21.5 -116t-59.5 -85t-89.5 -62.5t-110.5 -47.5v-124h-123v608q32 13 77.5 25t105.5 12q107 0 164 -56t57 -154z" />
    <glyph glyph-name="uni01C0" unicode="&#x1c0;" 
d="M189 699h124v-864h-124v864z" />
    <glyph glyph-name="uni01C1" unicode="&#x1c1;" 
d="M92 699h124v-864h-124v864zM285 699h124v-864h-124v864z" />
    <glyph glyph-name="uni01C2" unicode="&#x1c2;" 
d="M189 231v81h-167v96h167v291h124v-291h164v-96h-164v-81h164v-96h-164v-300h-124v300h-167v96h167z" />
    <glyph glyph-name="uni01C3" unicode="&#x1c3;" 
d="M321 455q0 -36 -1.5 -64.5t-4 -55t-6 -52.5t-7.5 -58h-102q-5 32 -8.5 58.5t-6.5 52.5t-4.5 54.5t-1.5 64.5v164h142v-164zM333 71q0 -39 -25.5 -61t-57.5 -22t-57.5 22t-25.5 61q0 38 25.5 60t57.5 22t57.5 -22t25.5 -60z" />
    <glyph glyph-name="uni01C4" unicode="&#x1c4;" 
d="M283 310q0 -94 -13 -155t-35.5 -97t-53.5 -50t-68 -14q-19 0 -45.5 1.5t-49.5 8.5v611q25 5 47.5 8t43.5 3q42 0 74 -15.5t54.5 -52t34 -97t11.5 -151.5zM491 541q-12 -42 -27 -97t-30 -115t-30 -121t-27 -115h114v-93h-203v76q18 72 32 128.5t26.5 107.5l25 102
t28.5 112h-94v93h185v-78zM105 88q5 -1 11 -1q47 0 62.5 58t15.5 165q0 67 -3.5 111t-12 70.5t-23.5 37.5t-38 11q-8 0 -12 -1v-451zM280 769l34 41l86 -63l85 64l37 -43l-122 -105z" />
    <glyph glyph-name="uni01C5" unicode="&#x1c5;" 
d="M283 310q0 -94 -13 -155t-35.5 -97t-53.5 -50t-68 -14q-19 0 -45.5 1.5t-49.5 8.5v611q25 5 47.5 8t43.5 3q42 0 74 -15.5t54.5 -52t34 -97t11.5 -151.5zM491 388q-12 -29 -25.5 -65t-27 -75t-26.5 -79t-24 -76h103v-93h-194v71l27.5 88t24 76t23 70.5t25.5 71.5h-91v93
h185v-82zM105 88q5 -1 11 -1q47 0 62.5 58t15.5 165q0 67 -3.5 111t-12 70.5t-23.5 37.5t-38 11q-8 0 -12 -1v-451zM280 630l33 41l86 -64l85 65l37 -43l-122 -106z" />
    <glyph glyph-name="uni01C6" unicode="&#x1c6;" 
d="M264 14q-31 -14 -56.5 -20.5t-51.5 -6.5q-74 0 -110.5 67t-36.5 183q0 52 7 97t21 77t35.5 50.5t50.5 18.5q25 0 54 -17v211l87 19v-679zM491 388q-12 -29 -25.5 -65t-27 -75t-26.5 -79t-24 -76h103v-93h-194v71l27.5 88t24 76t23 70.5t25.5 71.5h-91v93h185v-82z
M141 387q-14 0 -22.5 -16t-13 -40.5t-6.5 -55.5t-2 -61q0 -26 1.5 -50t7 -43t17 -30t31.5 -11q12 0 23 5v283q-22 19 -36 19zM280 630l33 41l86 -64l85 65l37 -43l-122 -106z" />
    <glyph glyph-name="uni01C7" unicode="&#x1c7;" 
d="M253 0h-235v619h87v-533h148v-86zM296 72q21 0 38.5 2t31 10.5t21 26t7.5 49.5v459h87v-440q0 -50 -7 -86t-27 -59.5t-56 -35t-95 -11.5v85z" />
    <glyph glyph-name="uni01C8" unicode="&#x1c8;" 
d="M305 0h-260v619h87v-533h173v-86zM248 -72q14 -4 28.5 -6.5t28.5 -2.5q38 0 54 22.5t16 72.5v456h88v-445q0 -56 -10.5 -93t-31 -60t-50 -32.5t-66.5 -9.5q-16 0 -37.5 4t-34.5 9zM483 594q0 -31 -20 -49.5t-48 -18.5q-26 0 -46.5 18.5t-20.5 49.5q0 32 20.5 50.5
t46.5 18.5q28 0 48 -18.5t20 -50.5z" />
    <glyph glyph-name="uni01C9" unicode="&#x1c9;" 
d="M230 -72q14 -4 28.5 -6.5t28.5 -2.5q38 0 54 22.5t16 72.5v456h88v-445q0 -56 -10.5 -93t-31 -60t-50 -32.5t-66.5 -9.5q-16 0 -37.5 4t-34.5 9zM465 594q0 -31 -20 -49.5t-48 -18.5q-26 0 -46.5 18.5t-20.5 49.5q0 32 20.5 50.5t46.5 18.5q28 0 48 -18.5t20 -50.5z
M243 -9q-58 1 -94.5 14t-57.5 35t-28.5 51t-7.5 63v524l88 15v-512q0 -33 6.5 -53t21 -31.5t36 -16t51.5 -6.5z" />
    <glyph glyph-name="uni01CA" unicode="&#x1ca;" 
d="M199 0q-15 58 -26.5 103.5t-22 90t-21.5 91.5t-24 108v-393h-87v619h75l94 -363v363h87v-619h-75zM308 72q18 0 34 3t27.5 12.5t18 26.5t6.5 46v459h87v-440q0 -49 -6.5 -84.5t-25 -59t-52.5 -35.5t-89 -13v85z" />
    <glyph glyph-name="uni01CB" unicode="&#x1cb;" 
d="M199 0q-15 58 -26.5 103.5t-22 90t-21.5 91.5t-24 108v-393h-87v619h75l94 -363v363h87v-619h-75zM230 -72q14 -4 28.5 -6.5t28.5 -2.5q38 0 54 22.5t16 72.5v456h88v-445q0 -56 -10.5 -93t-31 -60t-50 -32.5t-66.5 -9.5q-16 0 -37.5 4t-34.5 9zM465 594q0 -31 -20 -49.5
t-48 -18.5q-26 0 -46.5 18.5t-20.5 49.5q0 32 20.5 50.5t46.5 18.5q28 0 48 -18.5t20 -50.5z" />
    <glyph glyph-name="uni01CC" unicode="&#x1cc;" 
d="M18 455q26 9 63.5 17t82.5 8q40 0 67.5 -10t44 -31t24 -55t7.5 -82v-302h-87v294q0 33 -4.5 53t-12.5 31t-20 14.5t-27 3.5t-30.5 -4t-20.5 -6v-386h-87v455zM248 -72q14 -4 28.5 -6.5t28.5 -2.5q38 0 54 22.5t16 72.5v456h88v-445q0 -56 -10.5 -93t-31 -60t-50 -32.5
t-66.5 -9.5q-16 0 -37.5 4t-34.5 9zM483 594q0 -31 -20 -49.5t-48 -18.5q-26 0 -46.5 18.5t-20.5 49.5q0 32 20.5 50.5t46.5 18.5q28 0 48 -18.5t20 -50.5z" />
    <glyph glyph-name="uni01CD" unicode="&#x1cd;" 
d="M359 0l-29 143h-165l-28 -143h-128q44 183 89 333.5t87 285.5h134q44 -136 87.5 -288.5t84.5 -330.5h-132zM249 499q-10 -35 -18.5 -66.5t-16 -62t-14 -61.5t-12.5 -64h121q-6 33 -12 64t-13.5 61.5t-16 62t-18.5 66.5zM112 771l49 59l89 -69l89 69l51 -59l-140 -122z
" />
    <glyph glyph-name="uni01CE" unicode="&#x1ce;" 
d="M251 88q20 0 39 0.5t33 2.5v108q-12 2 -29 3.5t-31 1.5q-19 0 -37 -2.5t-31.5 -8.5t-21.5 -17t-8 -29q0 -32 24 -45.5t62 -13.5zM240 482q58 0 96.5 -13.5t61.5 -38t33 -60t10 -79.5v-280q-27 -6 -80 -14t-119 -8q-45 0 -81.5 8t-62.5 26.5t-40 48t-14 72.5q0 41 16 69
t43 45t62 24.5t73 7.5q48 0 85 -8v15q0 35 -22 58.5t-76 23.5q-35 0 -67.5 -5t-52.5 -12l-17 99q23 8 65 14.5t87 6.5zM112 632l49 59l89 -69l89 69l51 -59l-140 -122z" />
    <glyph glyph-name="uni01CF" unicode="&#x1cf;" 
d="M54 0v102h135v415h-135v102h393v-102h-134v-415h134v-102h-393zM112 771l49 59l89 -69l89 69l51 -59l-140 -122z" />
    <glyph glyph-name="uni01D0" unicode="&#x1d0;" 
d="M467 20q-38 -18 -71.5 -24.5t-61.5 -6.5q-48 0 -80.5 14t-52 40.5t-27.5 64.5t-8 87v173h-130v102h253v-291q0 -42 15.5 -62.5t51.5 -20.5q17 0 41 4.5t54 18.5zM95 632l49 59l89 -69l89 69l51 -59l-140 -122z" />
    <glyph glyph-name="uni01D1" unicode="&#x1d1;" 
d="M152 310q0 -45 3.5 -84.5t14 -68.5t29.5 -46t51 -17q31 0 50.5 17t30 46.5t14 68.5t3.5 84t-3.5 84.5t-14 68.5t-29.5 46t-51 17t-51 -17t-29.5 -46.5t-14 -68.5t-3.5 -84zM27 310q0 160 59 241.5t164 81.5q109 0 166 -81.5t57 -241.5t-58 -241.5t-164 -81.5
q-109 0 -166.5 81.5t-57.5 241.5zM112 771l49 59l89 -69l89 69l51 -59l-140 -122z" />
    <glyph glyph-name="uni01D2" unicode="&#x1d2;" 
d="M472 236q0 -56 -16 -101.5t-45 -78.5t-69.5 -51t-90.5 -18t-90.5 18t-70 51t-45.5 78.5t-16 101.5q0 55 16.5 100.5t46 78t70.5 50t89 17.5q49 0 89.5 -17.5t70 -50t45.5 -78t16 -100.5zM154 235q0 -63 22.5 -102t72.5 -39q48 0 72.5 39t24.5 102t-22.5 101.5t-72.5 38.5
q-48 0 -72.5 -38.5t-24.5 -101.5zM112 632l49 59l89 -69l89 69l51 -59l-140 -122z" />
    <glyph glyph-name="uni01D3" unicode="&#x1d3;" 
d="M248 -13q-60 0 -100.5 16.5t-64.5 47.5t-34 75t-10 98v395h124v-387q0 -39 4 -65.5t13.5 -42.5t26.5 -23t43 -7t43 7t27 23.5t14 43t4 65.5v386h123v-395q0 -54 -10 -98t-35 -75t-66 -47.5t-102 -16.5zM112 771l49 59l89 -69l89 69l51 -59l-140 -122z" />
    <glyph glyph-name="uni01D4" unicode="&#x1d4;" 
d="M438 16q-34 -9 -82.5 -18t-105.5 -9q-58 0 -95 16t-58.5 45.5t-29.5 69.5t-8 88v262h123v-246q0 -65 15.5 -96.5t60.5 -31.5q28 0 56 5v369h124v-454zM112 632l49 59l89 -69l89 69l51 -59l-140 -122z" />
    <glyph glyph-name="uni01D5" unicode="&#x1d5;" 
d="M248 -13q-60 0 -100.5 16.5t-64.5 47.5t-34 75t-10 98v355h124v-347q0 -39 4 -65.5t13.5 -42.5t26.5 -23t43 -7t43 7t27 23.5t14 43t4 65.5v346h123v-355q0 -54 -10 -98t-35 -75t-66 -47.5t-102 -16.5zM223 678q0 -26 -17 -41.5t-40 -15.5q-24 0 -40.5 15.5t-16.5 41.5
t16.5 41t40.5 15q23 0 40 -15t17 -41zM391 678q0 -26 -17 -41.5t-40 -15.5t-40 15.5t-17 41.5t17 41t40 15t40 -15t17 -41zM133 830h232v-71h-232v71z" />
    <glyph glyph-name="uni01D6" unicode="&#x1d6;" 
d="M438 16q-34 -9 -82.5 -18t-105.5 -9q-58 0 -95 16t-58.5 45.5t-29.5 69.5t-8 88v262h123v-246q0 -65 15.5 -96.5t60.5 -31.5q28 0 56 5v369h124v-454zM223 580q0 -26 -17 -41.5t-40 -15.5q-24 0 -40.5 15.5t-16.5 41.5t16.5 41t40.5 15q23 0 40 -15t17 -41zM391 580
q0 -26 -17 -41.5t-40 -15.5t-40 15.5t-17 41.5t17 41t40 15t40 -15t17 -41zM133 732h232v-71h-232v71z" />
    <glyph glyph-name="uni01D7" unicode="&#x1d7;" 
d="M248 -13q-60 0 -100.5 16.5t-64.5 47.5t-34 75t-10 98v375h124v-367q0 -39 4 -65.5t13.5 -42.5t26.5 -23t43 -7t43 7t27 23.5t14 43t4 65.5v366h123v-375q0 -54 -10 -98t-35 -75t-66 -47.5t-102 -16.5zM191 700q0 -26 -17 -41t-40 -15q-24 0 -40.5 15t-16.5 41t16.5 41
t40.5 15q23 0 40 -15t17 -41zM423 700q0 -26 -17 -41t-40 -15t-40 15t-17 41t17 41t40 15t40 -15t17 -41zM328 766l-93 -69l-45 53l85 80z" />
    <glyph glyph-name="uni01D8" unicode="&#x1d8;" 
d="M438 16q-34 -9 -82.5 -18t-105.5 -9q-58 0 -95 16t-58.5 45.5t-29.5 69.5t-8 88v262h123v-246q0 -65 15.5 -96.5t60.5 -31.5q28 0 56 5v369h124v-454zM372 729l-120 -137l-56 42l106 152zM188 583q0 -26 -16.5 -41t-40.5 -15t-40.5 15t-16.5 41t16.5 41t40.5 15t40.5 -15
t16.5 -41zM425 583q0 -26 -17 -41t-40 -15t-40 15t-17 41t17 41t40 15t40 -15t17 -41z" />
    <glyph glyph-name="uni01D9" unicode="&#x1d9;" 
d="M248 -13q-60 0 -100.5 16.5t-64.5 47.5t-34 75t-10 98v375h124v-367q0 -39 4 -65.5t13.5 -42.5t26.5 -23t43 -7t43 7t27 23.5t14 43t4 65.5v366h123v-375q0 -54 -10 -98t-35 -75t-66 -47.5t-102 -16.5zM191 700q0 -26 -17 -41t-40 -15q-24 0 -40.5 15t-16.5 41t16.5 41
t40.5 15q23 0 40 -15t17 -41zM423 700q0 -26 -17 -41t-40 -15t-40 15t-17 41t17 41t40 15t40 -15t17 -41zM164 784l37 46l49 -35l47 35l39 -46l-86 -78z" />
    <glyph glyph-name="uni01DA" unicode="&#x1da;" 
d="M438 16q-34 -9 -82.5 -18t-105.5 -9q-58 0 -95 16t-58.5 45.5t-29.5 69.5t-8 88v262h123v-246q0 -65 15.5 -96.5t60.5 -31.5q28 0 56 5v369h124v-454zM188 583q0 -26 -16.5 -41t-40.5 -15t-40.5 15t-16.5 41t16.5 41t40.5 15t40.5 -15t16.5 -41zM425 583q0 -26 -17 -41
t-40 -15t-40 15t-17 41t17 41t40 15t40 -15t17 -41zM119 716l44 52l85 -65l87 65l45 -52l-132 -114z" />
    <glyph glyph-name="uni01DB" unicode="&#x1db;" 
d="M248 -13q-60 0 -100.5 16.5t-64.5 47.5t-34 75t-10 98v375h124v-367q0 -39 4 -65.5t13.5 -42.5t26.5 -23t43 -7t43 7t27 23.5t14 43t4 65.5v366h123v-375q0 -54 -10 -98t-35 -75t-66 -47.5t-102 -16.5zM309 700q0 26 17 41t40 15q24 0 40.5 -15t16.5 -41t-16.5 -41
t-40.5 -15q-23 0 -40 15t-17 41zM77 700q0 26 17 41t40 15t40 -15t17 -41t-17 -41t-40 -15t-40 15t-17 41zM224 830l86 -80l-45 -53l-94 69z" />
    <glyph glyph-name="uni01DC" unicode="&#x1dc;" 
d="M438 16q-34 -9 -82.5 -18t-105.5 -9q-58 0 -95 16t-58.5 45.5t-29.5 69.5t-8 88v262h123v-246q0 -65 15.5 -96.5t60.5 -31.5q28 0 56 5v369h124v-454zM197 786l107 -152l-57 -42l-120 137zM311 583q0 26 17 41t40 15q24 0 40.5 -15t16.5 -41t-16.5 -41t-40.5 -15
q-23 0 -40 15t-17 41zM74 583q0 26 17 41t40 15q24 0 40.5 -15t16.5 -41t-16.5 -41t-40.5 -15q-23 0 -40 15t-17 41z" />
    <glyph glyph-name="uni01DD" unicode="&#x1dd;" 
d="M465 240q0 -62 -19 -109t-49.5 -78.5t-70.5 -47.5t-82 -16q-105 0 -159 61.5t-54 179.5q0 26 3 47h304q0 46 -37.5 72t-97.5 26q-37 0 -71 -7.5t-56 -15.5l-18 104q32 12 68 19t81 7q60 0 107.5 -15.5t81 -46t51.5 -75.5t18 -105zM150 191q0 -18 5 -36t16 -31.5t28.5 -22
t42.5 -8.5q47 0 69.5 29.5t26.5 68.5h-188z" />
    <glyph glyph-name="uni01DE" unicode="&#x1de;" 
d="M359 0l-29 123h-165l-28 -123h-128q22 91 44.5 168t44.5 145.5t44 133t43 132.5h134q22 -68 44 -133.5t43.5 -135t43 -146t41.5 -164.5h-132zM249 459q-10 -35 -18.5 -63.5t-16 -55.5t-14 -54.5t-12.5 -60.5h121q-6 33 -12 60.5t-13.5 54.5t-16 55.5t-18.5 63.5zM223 678
q0 -26 -17 -41.5t-40 -15.5q-24 0 -40.5 15.5t-16.5 41.5t16.5 41t40.5 15q23 0 40 -15t17 -41zM391 678q0 -26 -17 -41.5t-40 -15.5t-40 15.5t-17 41.5t17 41t40 15t40 -15t17 -41zM133 830h232v-71h-232v71z" />
    <glyph glyph-name="uni01DF" unicode="&#x1df;" 
d="M251 88q20 0 39 0.5t33 2.5v108q-12 2 -29 3.5t-31 1.5q-19 0 -37 -2.5t-31.5 -8.5t-21.5 -17t-8 -29q0 -32 24 -45.5t62 -13.5zM240 482q58 0 96.5 -13.5t61.5 -38t33 -60t10 -79.5v-280q-27 -6 -80 -14t-119 -8q-45 0 -81.5 8t-62.5 26.5t-40 48t-14 72.5q0 41 16 69
t43 45t62 24.5t73 7.5q48 0 85 -8v15q0 35 -22 58.5t-76 23.5q-35 0 -67.5 -5t-52.5 -12l-17 99q23 8 65 14.5t87 6.5zM223 580q0 -26 -17 -41.5t-40 -15.5q-24 0 -40.5 15.5t-16.5 41.5t16.5 41t40.5 15q23 0 40 -15t17 -41zM391 580q0 -26 -17 -41.5t-40 -15.5t-40 15.5
t-17 41.5t17 41t40 15t40 -15t17 -41zM133 732h232v-71h-232v71z" />
    <glyph glyph-name="uni01E0" unicode="&#x1e0;" 
d="M359 0l-29 123h-165l-28 -123h-128q22 91 44.5 168t44.5 145.5t44 133t43 132.5h134q22 -68 44 -133.5t43.5 -135t43 -146t41.5 -164.5h-132zM249 459q-10 -35 -18.5 -63.5t-16 -55.5t-14 -54.5t-12.5 -60.5h121q-6 33 -12 60.5t-13.5 54.5t-16 55.5t-18.5 63.5zM307 678
q0 -26 -17 -41t-40 -15t-40 15t-17 41t17 41.5t40 15.5t40 -15.5t17 -41.5zM134 830h232v-71h-232v71z" />
    <glyph glyph-name="uni01E1" unicode="&#x1e1;" 
d="M251 88q20 0 39 0.5t33 2.5v108q-12 2 -29 3.5t-31 1.5q-19 0 -37 -2.5t-31.5 -8.5t-21.5 -17t-8 -29q0 -32 24 -45.5t62 -13.5zM240 482q58 0 96.5 -13.5t61.5 -38t33 -60t10 -79.5v-280q-27 -6 -80 -14t-119 -8q-45 0 -81.5 8t-62.5 26.5t-40 48t-14 72.5q0 41 16 69
t43 45t62 24.5t73 7.5q48 0 85 -8v15q0 35 -22 58.5t-76 23.5q-35 0 -67.5 -5t-52.5 -12l-17 99q23 8 65 14.5t87 6.5zM307 580q0 -26 -17 -41t-40 -15t-40 15t-17 41t17 41.5t40 15.5t40 -15.5t17 -41.5zM134 732h232v-71h-232v71z" />
    <glyph glyph-name="uni01E2" unicode="&#x1e2;" 
d="M255 143h-91l-27 -143h-128q26 106 48 186.5t44 150.5t45 136.5t52 145.5h280v-102h-111v-138h88v-102h-88v-175h124v-102h-236v143zM255 536q-17 -69 -34 -138.5t-35 -152.5h69v291zM179 786h288v-87h-288v87z" />
    <glyph glyph-name="uni01E3" unicode="&#x1e3;" 
d="M163 482q31 0 58.5 -12.5t48.5 -41.5q17 26 38 40t46 14q29 0 53.5 -12t42.5 -39t28 -71t10 -108v-29.5t-2 -27.5h-179q1 -28 8 -47.5t18 -32t25 -18t30 -5.5q18 0 35.5 4.5t31.5 12.5l18 -97q-23 -12 -45.5 -17.5t-52.5 -5.5q-35 0 -60 14t-42 35q-23 -26 -52.5 -37.5
t-58.5 -11.5q-34 0 -60 13.5t-43.5 35.5t-26.5 50t-9 57q0 68 38.5 106.5t98.5 38.5q13 0 26 -1.5t27 -6.5v23q0 44 -15.5 61t-42.5 17q-17 0 -36.5 -5.5t-42.5 -13.5l-17 95q26 11 52 17t52 6zM213 199q-9 3 -18.5 4t-17.5 1q-26 0 -42.5 -13t-16.5 -45q0 -27 14 -43
t41 -16q23 0 49 12q-6 26 -7.5 52t-1.5 48zM354 384q-13 0 -21.5 -9.5t-14 -24.5t-8 -33.5t-2.5 -36.5h88q0 19 -2 38t-6.5 33.5t-12.5 23.5t-21 9zM117 647h288v-87h-288v87z" />
    <glyph glyph-name="uni01E4" unicode="&#x1e4;" 
d="M296 526q-39 0 -66.5 -16t-45 -44.5t-25 -68t-7.5 -87.5q0 -111 31.5 -163.5t91.5 -52.5q8 0 18 1t18 3v91h-72v90h72v66h123v-66h45v-90h-45v-174q-20 -8 -64 -18t-105 -10q-109 0 -173.5 81t-64.5 242q0 79 19.5 139.5t53.5 101.5t80.5 61.5t99.5 20.5q34 0 60.5 -5.5
t46 -12.5t32 -15t19.5 -12l-33 -98q-20 14 -48.5 25t-60.5 11z" />
    <glyph glyph-name="uni01E5" unicode="&#x1e5;" 
d="M420 300h53v-80h-53v-163q0 -115 -53 -170t-172 -55q-42 0 -80 9t-73 21l23 104q26 -11 56.5 -20.5t74.5 -9.5q30 0 49.5 7.5t30.5 20.5t15.5 30.5t4.5 37.5v19q-23 -10 -43 -15t-43 -5q-87 0 -132 58t-45 161q0 116 61.5 173t166.5 57q74 0 159 -25v-155zM158 250
q0 -58 18.5 -88.5t58.5 -30.5q18 0 33.5 5t27.5 13v71h-71v80h71v75q-12 3 -20.5 4t-19.5 1q-98 0 -98 -130z" />
    <glyph glyph-name="Gcaron" unicode="&#x1e6;" 
d="M312 526q-44 0 -74 -16t-49.5 -44.5t-28 -68t-8.5 -87.5q0 -111 35 -163.5t103 -52.5q11 0 24 1t24 3v226h123v-309q-22 -8 -68.5 -18t-112.5 -10q-58 0 -104.5 20.5t-79.5 61t-51 101t-18 140.5q0 79 21 139.5t57 101.5t85 61.5t105 20.5q36 0 64.5 -5.5t49.5 -12.5
t34.5 -15t20.5 -12l-32 -98q-22 14 -54 25t-66 11zM148 771l49 59l89 -69l89 69l51 -59l-140 -122z" />
    <glyph glyph-name="gcaron" unicode="&#x1e7;" 
d="M158 250q0 -58 21 -88.5t66 -30.5q20 0 37.5 5t31.5 13v226q-14 3 -25 4t-23 1q-108 0 -108 -130zM438 57q0 -115 -55.5 -170t-178.5 -55q-44 0 -84.5 9t-77.5 21l23 104q29 -11 61 -20.5t80 -9.5q32 0 53 7.5t33 20.5t17 30.5t5 37.5v19q-26 -10 -47.5 -15t-46.5 -5
q-92 0 -139.5 58t-47.5 161q0 116 64 173t174 57q77 0 167 -25v-398zM121 632l49 59l89 -69l89 69l51 -59l-140 -122z" />
    <glyph glyph-name="uni01E8" unicode="&#x1e8;" 
d="M350 0q-11 35 -31.5 75.5t-45.5 79t-52.5 72t-52.5 56.5v-283h-123v619h123v-257q22 28 46 62t45.5 68t39.5 67t30 60h139q-14 -27 -33.5 -61.5t-44.5 -72t-53.5 -76.5t-59.5 -75q31 -30 63 -69t60.5 -83.5t51.5 -91t37 -90.5h-139zM112 771l49 59l89 -69l89 69l51 -59
l-140 -122z" />
    <glyph glyph-name="uni01E9" unicode="&#x1e9;" 
d="M187 284q18 21 36.5 44.5t36 48.5t33.5 48.5t28 44.5h148q-18 -23 -41 -50t-47.5 -55t-49 -54t-44.5 -48q25 -24 54 -57.5t57 -69.5t51.5 -72t37.5 -64h-141q-12 25 -31.5 56.5t-41.5 62t-44.5 58t-41.5 45.5v-222h-124v613l124 21v-350zM187 677l-132 96l38 56l94 -54
l92 54l38 -56z" />
    <glyph glyph-name="uni01EA" unicode="&#x1ea;" 
d="M346 -156q-14 -5 -39.5 -9.5t-53.5 -4.5q-48 0 -69 18.5t-21 45.5q0 23 13.5 48.5t36.5 46.5q-91 14 -138.5 94.5t-47.5 226.5q0 160 59 241.5t164 81.5q109 0 166 -81.5t57 -241.5q0 -91 -15.5 -145t-40 -88t-55 -56t-59.5 -47q-10 -8 -23 -23t-13 -32q0 -10 5.5 -17
t21.5 -7q8 0 19 1t26 6zM152 310q0 -45 3.5 -84.5t14 -68.5t29.5 -46t51 -17q31 0 50.5 17t30 46.5t14 68.5t3.5 84t-3.5 84.5t-14 68.5t-29.5 46t-51 17t-51 -17t-29.5 -46.5t-14 -68.5t-3.5 -84z" />
    <glyph glyph-name="uni01EB" unicode="&#x1eb;" 
d="M317 -26q-10 -9 -23 -23.5t-13 -31.5q0 -10 5.5 -17t21.5 -7q8 0 19 1t26 6l7 -58q-14 -5 -39.5 -9.5t-53.5 -4.5q-48 0 -69 18.5t-21 45.5q0 23 13.5 48.5t36.5 46.5q-45 4 -81.5 23.5t-62.5 52t-40 75.5t-14 96q0 55 16.5 100.5t46 78t70.5 50t89 17.5q49 0 89.5 -17.5
t70 -50t45.5 -78t16 -100.5q0 -56 -13 -93.5t-35 -66t-49.5 -51.5t-57.5 -51zM154 235q0 -63 22.5 -102t72.5 -39q48 0 72.5 39t24.5 102t-22.5 101.5t-72.5 38.5q-48 0 -72.5 -38.5t-24.5 -101.5z" />
    <glyph glyph-name="uni01EC" unicode="&#x1ec;" 
d="M346 -156q-14 -5 -39.5 -9.5t-53.5 -4.5q-48 0 -69 18.5t-21 45.5q0 23 13.5 48.5t36.5 46.5q-91 14 -138.5 94.5t-47.5 226.5q0 160 59 241.5t164 81.5q109 0 166 -81.5t57 -241.5q0 -91 -15.5 -145t-40 -88t-55 -56t-59.5 -47q-10 -8 -23 -23t-13 -32q0 -10 5.5 -17
t21.5 -7q8 0 19 1t26 6zM152 310q0 -45 3.5 -84.5t14 -68.5t29.5 -46t51 -17q31 0 50.5 17t30 46.5t14 68.5t3.5 84t-3.5 84.5t-14 68.5t-29.5 46t-51 17t-51 -17t-29.5 -46.5t-14 -68.5t-3.5 -84zM108 786h288v-87h-288v87z" />
    <glyph glyph-name="uni01ED" unicode="&#x1ed;" 
d="M108 647h288v-87h-288v87zM317 -26q-10 -9 -23 -23.5t-13 -31.5q0 -10 5.5 -17t21.5 -7q8 0 19 1t26 6l7 -58q-14 -5 -39.5 -9.5t-53.5 -4.5q-48 0 -69 18.5t-21 45.5q0 23 13.5 48.5t36.5 46.5q-45 4 -81.5 23.5t-62.5 52t-40 75.5t-14 96q0 55 16.5 100.5t46 78
t70.5 50t89 17.5q49 0 89.5 -17.5t70 -50t45.5 -78t16 -100.5q0 -56 -13 -93.5t-35 -66t-49.5 -51.5t-57.5 -51zM154 235q0 -63 22.5 -102t72.5 -39q48 0 72.5 39t24.5 102t-22.5 101.5t-72.5 38.5q-48 0 -72.5 -38.5t-24.5 -101.5z" />
    <glyph glyph-name="uni01EE" unicode="&#x1ee;" 
d="M168 350q17 17 38.5 39t43 45.5t40.5 45t32 37.5h-272v102h417v-75q-11 -14 -30.5 -37t-42.5 -50t-47.5 -54t-44.5 -48q50 -8 84 -23t55 -37t30.5 -51t9.5 -65q0 -102 -69 -147t-190 -45q-32 0 -61.5 4.5t-55 11.5t-46 15t-33.5 15l39 100q29 -15 68 -27t88 -12
q60 0 97 21.5t37 64.5q0 55 -37.5 74t-105.5 19h-44v77zM112 771l49 59l89 -69l89 69l51 -59l-140 -122z" />
    <glyph glyph-name="uni01EF" unicode="&#x1ef;" 
d="M146 205q15 16 34 37.5t38.5 44t37.5 43.5t31 38h-233v102h378v-75q-11 -15 -28 -36.5t-37.5 -46.5t-42 -51.5t-40.5 -50.5q33 -8 62 -22.5t50 -37t33.5 -52.5t12.5 -67q0 -99 -63 -147.5t-175 -48.5q-21 0 -45 3t-47.5 7.5t-44.5 11t-36 14.5l30 97q29 -13 69 -20.5
t75 -7.5q112 0 112 97q0 53 -33.5 76.5t-97.5 23.5h-40v68zM112 632l49 59l89 -69l89 69l51 -59l-140 -122z" />
    <glyph glyph-name="uni01F0" unicode="&#x1f0;" 
d="M400 31q0 -57 -14 -95.5t-38.5 -62t-58 -33.5t-72.5 -10q-48 0 -89 12t-79 31l38 104q25 -14 60.5 -26.5t64.5 -12.5q31 0 48 18.5t17 68.5v342h-190v102h313v-438zM112 632l49 59l89 -69l89 69l51 -59l-140 -122z" />
    <glyph glyph-name="uni01F1" unicode="&#x1f1;" 
d="M283 310q0 -94 -13 -155t-35.5 -97t-53.5 -50t-68 -14q-19 0 -45.5 1.5t-49.5 8.5v611q25 5 47.5 8t43.5 3q42 0 74 -15.5t54.5 -52t34 -97t11.5 -151.5zM491 541q-12 -42 -27 -97t-30 -115t-30 -121t-27 -115h114v-93h-203v76q18 72 32 128.5t26.5 107.5l25 102
t28.5 112h-94v93h185v-78zM105 88q5 -1 11 -1q47 0 62.5 58t15.5 165q0 67 -3.5 111t-12 70.5t-23.5 37.5t-38 11q-8 0 -12 -1v-451z" />
    <glyph glyph-name="uni01F2" unicode="&#x1f2;" 
d="M283 310q0 -94 -13 -155t-35.5 -97t-53.5 -50t-68 -14q-19 0 -45.5 1.5t-49.5 8.5v611q25 5 47.5 8t43.5 3q42 0 74 -15.5t54.5 -52t34 -97t11.5 -151.5zM491 388q-12 -29 -25.5 -65t-27 -75t-26.5 -79t-24 -76h103v-93h-194v71l27.5 88t24 76t23 70.5t25.5 71.5h-91v93
h185v-82zM105 88q5 -1 11 -1q47 0 62.5 58t15.5 165q0 67 -3.5 111t-12 70.5t-23.5 37.5t-38 11q-8 0 -12 -1v-451z" />
    <glyph glyph-name="uni01F3" unicode="&#x1f3;" 
d="M264 14q-31 -14 -56.5 -20.5t-51.5 -6.5q-74 0 -110.5 67t-36.5 183q0 52 7 97t21 77t35.5 50.5t50.5 18.5q25 0 54 -17v211l87 19v-679zM491 388q-12 -29 -25.5 -65t-27 -75t-26.5 -79t-24 -76h103v-93h-194v71l27.5 88t24 76t23 70.5t25.5 71.5h-91v93h185v-82z
M141 387q-14 0 -22.5 -16t-13 -40.5t-6.5 -55.5t-2 -61q0 -26 1.5 -50t7 -43t17 -30t31.5 -11q12 0 23 5v283q-22 19 -36 19z" />
    <glyph glyph-name="uni01F4" unicode="&#x1f4;" 
d="M312 526q-44 0 -74 -16t-49.5 -44.5t-28 -68t-8.5 -87.5q0 -111 35 -163.5t103 -52.5q11 0 24 1t24 3v226h123v-309q-22 -8 -68.5 -18t-112.5 -10q-58 0 -104.5 20.5t-79.5 61t-51 101t-18 140.5q0 79 21 139.5t57 101.5t85 61.5t105 20.5q36 0 64.5 -5.5t49.5 -12.5
t34.5 -15t20.5 -12l-32 -98q-22 14 -54 25t-66 11zM380 736l-174 -84l-45 67l158 111z" />
    <glyph glyph-name="uni01F5" unicode="&#x1f5;" 
d="M158 250q0 -58 21 -88.5t66 -30.5q20 0 37.5 5t31.5 13v226q-14 3 -25 4t-23 1q-108 0 -108 -130zM438 57q0 -115 -55.5 -170t-178.5 -55q-44 0 -84.5 9t-77.5 21l23 104q29 -11 61 -20.5t80 -9.5q32 0 53 7.5t33 20.5t17 30.5t5 37.5v19q-26 -10 -47.5 -15t-46.5 -5
q-92 0 -139.5 58t-47.5 161q0 116 64 173t174 57q77 0 167 -25v-398zM371 597l-174 -84l-45 67l158 111z" />
    <glyph glyph-name="uni01F6" unicode="&#x1f6;" 
d="M340 -13q-45 0 -71 16.5t-39.5 47.5t-17 75t-3.5 98v49h-82v-273h-97v619h97v-244h82v244h96v-387q0 -45 1 -75t5 -48t12 -25.5t22 -7.5t21.5 7.5t11 26t4 48.5t0.5 75v244h97v-253q0 -54 -4.5 -98t-19 -75t-42 -47.5t-73.5 -16.5z" />
    <glyph glyph-name="uni01F7" unicode="&#x1f7;" 
d="M177 -165h-123v757q35 14 83 24t105 10q121 0 177 -58.5t56 -173.5q0 -74 -21.5 -134.5t-60.5 -108.5t-94 -85.5t-122 -65.5v-165zM177 116q38 21 69.5 45t54.5 56.5t36 76t13 103.5q0 55 -28.5 88.5t-78.5 33.5q-22 0 -38.5 -3t-27.5 -6v-394z" />
    <glyph glyph-name="uni01F8" unicode="&#x1f8;" 
d="M355 0q-42 103 -91.5 205.5t-106.5 205.5v-411h-111v619h99q28 -44 56 -95.5t54.5 -102.5t49 -99t38.5 -84v381h111v-619h-99zM196 830l158 -111l-45 -67l-174 84z" />
    <glyph glyph-name="uni01F9" unicode="&#x1f9;" 
d="M63 455q33 9 81.5 17t105.5 8q56 0 93 -15.5t58.5 -44t30.5 -68t9 -87.5v-265h-123v249q0 66 -15 95t-61 29q-14 0 -27.5 -1t-28.5 -3v-369h-123v455zM178 691l158 -111l-45 -67l-174 84z" />
    <glyph glyph-name="Aringacute" unicode="&#x1fa;" 
d="M359 0l-29 133h-165l-28 -133h-128q24 86 45.5 159.5t41.5 140t39 129.5t39 127q-15 19 -15 52q0 21 7.5 37.5t20 28t29 17t33.5 5.5q18 0 34 -5.5t29 -17t20.5 -28t7.5 -37.5q0 -27 -12 -48q21 -65 40 -129t38.5 -132t40.5 -141.5t44 -157.5h-132zM249 469
q-10 -35 -18 -63.5t-15 -55.5t-13.5 -54.5t-14.5 -60.5h121q-8 33 -14.5 60.5t-13 54.5t-14.5 55.5t-18 63.5zM284 608q0 18 -10.5 27t-24.5 9q-13 0 -24 -9t-11 -27q0 -19 11 -28t24 -9q14 0 24.5 9t10.5 28zM338 765l-152 -57l-24 47l145 75z" />
    <glyph glyph-name="aringacute" unicode="&#x1fb;" 
d="M251 88q20 0 39 0.5t33 2.5v108q-12 2 -29 3.5t-31 1.5q-19 0 -37 -2.5t-31.5 -8.5t-21.5 -17t-8 -29q0 -32 24 -45.5t62 -13.5zM240 482q58 0 96.5 -13.5t61.5 -38t33 -60t10 -79.5v-280q-27 -6 -80 -14t-119 -8q-45 0 -81.5 8t-62.5 26.5t-40 48t-14 72.5q0 41 16 69
t43 45t62 24.5t73 7.5q48 0 85 -8v15q0 35 -22 58.5t-76 23.5q-35 0 -67.5 -5t-52.5 -12l-17 99q23 8 65 14.5t87 6.5zM338 765l-152 -57l-24 47l145 75zM342 607q0 -21 -7.5 -37.5t-20.5 -28t-29 -17t-34 -5.5t-34 5.5t-28.5 17t-20 28t-7.5 37.5t7.5 37.5t20 28t28.5 17
t34 5.5t34 -5.5t29 -17t20.5 -28t7.5 -37.5zM286 607q0 18 -10.5 27.5t-24.5 9.5q-13 0 -24 -9.5t-11 -27.5t11 -27.5t24 -9.5q14 0 24.5 9.5t10.5 27.5z" />
    <glyph glyph-name="AEacute" unicode="&#x1fc;" 
d="M255 143h-91l-27 -143h-128q26 106 48 186.5t44 150.5t45 136.5t52 145.5h280v-102h-111v-138h88v-102h-88v-175h124v-102h-236v143zM255 536q-17 -69 -34 -138.5t-35 -152.5h69v291zM442 736l-174 -84l-45 67l158 111z" />
    <glyph glyph-name="aeacute" unicode="&#x1fd;" 
d="M163 482q31 0 58.5 -12.5t48.5 -41.5q17 26 38 40t46 14q29 0 53.5 -12t42.5 -39t28 -71t10 -108v-29.5t-2 -27.5h-179q1 -28 8 -47.5t18 -32t25 -18t30 -5.5q18 0 35.5 4.5t31.5 12.5l18 -97q-23 -12 -45.5 -17.5t-52.5 -5.5q-35 0 -60 14t-42 35q-23 -26 -52.5 -37.5
t-58.5 -11.5q-34 0 -60 13.5t-43.5 35.5t-26.5 50t-9 57q0 68 38.5 106.5t98.5 38.5q13 0 26 -1.5t27 -6.5v23q0 44 -15.5 61t-42.5 17q-17 0 -36.5 -5.5t-42.5 -13.5l-17 95q26 11 52 17t52 6zM213 199q-9 3 -18.5 4t-17.5 1q-26 0 -42.5 -13t-16.5 -45q0 -27 14 -43
t41 -16q23 0 49 12q-6 26 -7.5 52t-1.5 48zM354 384q-13 0 -21.5 -9.5t-14 -24.5t-8 -33.5t-2.5 -36.5h88q0 19 -2 38t-6.5 33.5t-12.5 23.5t-21 9zM391 597l-174 -84l-45 67l158 111z" />
    <glyph glyph-name="Oslashacute" unicode="&#x1fe;" 
d="M27 308q0 160 59 241.5t164 81.5q55 0 94 -19l23 47l80 -40l-34 -67q60 -83 60 -244q0 -160 -58 -241.5t-164 -81.5q-57 0 -101 23l-23 -48l-79 40l34 71q-55 82 -55 237zM348 308q0 26 -1.5 50.5t-3.5 46.5l-145 -296q22 -17 52 -17q31 0 50.5 17t30 46.5t14 68.5
t3.5 84zM152 308q0 -48 3 -87l141 290q-19 13 -46 13q-32 0 -51 -17t-29.5 -46.5t-14 -68.5t-3.5 -84zM371 736l-174 -84l-45 67l158 111z" />
    <glyph glyph-name="oslashacute" unicode="&#x1ff;" 
d="M371 597l-174 -84l-45 67l158 111zM472 234q0 -56 -16 -101.5t-45 -78.5t-69.5 -51t-90.5 -18q-32 0 -60 7.5t-53 20.5l-38 -51l-62 47l41 57q-24 32 -37 74.5t-13 93.5q0 55 16.5 100.5t46 78t70.5 50t89 17.5q62 0 112 -29l37 51l63 -47l-42 -57q24 -32 37.5 -73
t13.5 -91zM154 233q0 -16 1 -30.5t4 -28.5l137 188q-19 11 -45 11q-48 0 -72.5 -38.5t-24.5 -101.5zM346 233q0 16 -1 29.5t-4 26.5l-137 -185q19 -12 45 -12q48 0 72.5 39t24.5 102z" />
    <glyph glyph-name="uni0200" unicode="&#x200;" 
d="M359 0l-29 143h-165l-28 -143h-128q44 183 89 333.5t87 285.5h134q44 -136 87.5 -288.5t84.5 -330.5h-132zM249 499q-10 -35 -18.5 -66.5t-16 -62t-14 -61.5t-12.5 -64h121q-6 33 -12 64t-13.5 61.5t-16 62t-18.5 66.5zM299 829l108 -136l-54 -43l-122 112zM128 829
l108 -136l-54 -43l-122 112z" />
    <glyph glyph-name="uni0201" unicode="&#x201;" 
d="M251 88q20 0 39 0.5t33 2.5v108q-12 2 -29 3.5t-31 1.5q-19 0 -37 -2.5t-31.5 -8.5t-21.5 -17t-8 -29q0 -32 24 -45.5t62 -13.5zM240 482q58 0 96.5 -13.5t61.5 -38t33 -60t10 -79.5v-280q-27 -6 -80 -14t-119 -8q-45 0 -81.5 8t-62.5 26.5t-40 48t-14 72.5q0 41 16 69
t43 45t62 24.5t73 7.5q48 0 85 -8v15q0 35 -22 58.5t-76 23.5q-35 0 -67.5 -5t-52.5 -12l-17 99q23 8 65 14.5t87 6.5zM309 690l108 -136l-54 -43l-122 112zM138 690l108 -136l-54 -43l-122 112z" />
    <glyph glyph-name="uni0202" unicode="&#x202;" 
d="M359 0l-29 143h-165l-28 -143h-128q44 183 89 333.5t87 285.5h134q44 -136 87.5 -288.5t84.5 -330.5h-132zM249 499q-10 -35 -18.5 -66.5t-16 -62t-14 -61.5t-12.5 -64h121q-6 33 -12 64t-13.5 61.5t-16 62t-18.5 66.5zM250 814q31 0 57.5 -9.5t46 -28t30.5 -44.5t11 -59
v-7h-90q-3 38 -18 50.5t-37 12.5t-37 -12.5t-17 -50.5h-91v7q0 33 11 59t30.5 44.5t46 28t57.5 9.5z" />
    <glyph glyph-name="uni0203" unicode="&#x203;" 
d="M251 88q20 0 39 0.5t33 2.5v108q-12 2 -29 3.5t-31 1.5q-19 0 -37 -2.5t-31.5 -8.5t-21.5 -17t-8 -29q0 -32 24 -45.5t62 -13.5zM240 482q58 0 96.5 -13.5t61.5 -38t33 -60t10 -79.5v-280q-27 -6 -80 -14t-119 -8q-45 0 -81.5 8t-62.5 26.5t-40 48t-14 72.5q0 41 16 69
t43 45t62 24.5t73 7.5q48 0 85 -8v15q0 35 -22 58.5t-76 23.5q-35 0 -67.5 -5t-52.5 -12l-17 99q23 8 65 14.5t87 6.5zM250 675q31 0 57.5 -9.5t46 -28t30.5 -44.5t11 -59v-7h-90q-3 38 -18 50.5t-37 12.5t-37 -12.5t-17 -50.5h-91v7q0 33 11 59t30.5 44.5t46 28t57.5 9.5z
" />
    <glyph glyph-name="uni0204" unicode="&#x204;" 
d="M63 0v619h375v-102h-252v-139h219v-102h-219v-174h274v-102h-397zM299 829l108 -136l-54 -43l-122 112zM128 829l108 -136l-54 -43l-122 112z" />
    <glyph glyph-name="uni0205" unicode="&#x205;" 
d="M31 231q0 62 19 109t50 78.5t71 47.5t82 16q104 0 158 -61.5t54 -179.5q0 -12 -0.5 -25t-1.5 -21h-305q0 -46 38 -72.5t98 -26.5q37 0 70.5 8t56.5 16l17 -105q-32 -11 -68 -18.5t-81 -7.5q-60 0 -107.5 15.5t-81 46t-51.5 75.5t-18 105zM346 280q0 19 -5 36.5t-16 31.5
t-28 22.5t-42 8.5q-24 0 -41.5 -8t-29 -22t-18 -32t-8.5 -37h188zM309 690l108 -136l-54 -43l-122 112zM138 690l108 -136l-54 -43l-122 112z" />
    <glyph glyph-name="uni0206" unicode="&#x206;" 
d="M63 0v619h375v-102h-252v-139h219v-102h-219v-174h274v-102h-397zM259 814q31 0 57.5 -9.5t46 -28t30.5 -44.5t11 -59v-7h-90q-3 38 -18 50.5t-37 12.5t-37 -12.5t-17 -50.5h-91v7q0 33 11 59t30.5 44.5t46 28t57.5 9.5z" />
    <glyph glyph-name="uni0207" unicode="&#x207;" 
d="M31 231q0 62 19 109t50 78.5t71 47.5t82 16q104 0 158 -61.5t54 -179.5q0 -12 -0.5 -25t-1.5 -21h-305q0 -46 38 -72.5t98 -26.5q37 0 70.5 8t56.5 16l17 -105q-32 -11 -68 -18.5t-81 -7.5q-60 0 -107.5 15.5t-81 46t-51.5 75.5t-18 105zM346 280q0 19 -5 36.5t-16 31.5
t-28 22.5t-42 8.5q-24 0 -41.5 -8t-29 -22t-18 -32t-8.5 -37h188zM250 675q31 0 57.5 -9.5t46 -28t30.5 -44.5t11 -59v-7h-90q-3 38 -18 50.5t-37 12.5t-37 -12.5t-17 -50.5h-91v7q0 33 11 59t30.5 44.5t46 28t57.5 9.5z" />
    <glyph glyph-name="uni0208" unicode="&#x208;" 
d="M54 0v102h135v415h-135v102h393v-102h-134v-415h134v-102h-393zM299 829l108 -136l-54 -43l-122 112zM128 829l108 -136l-54 -43l-122 112z" />
    <glyph glyph-name="uni0209" unicode="&#x209;" 
d="M467 20q-38 -18 -71.5 -24.5t-61.5 -6.5q-48 0 -80.5 14t-52 40.5t-27.5 64.5t-8 87v173h-130v102h253v-291q0 -42 15.5 -62.5t51.5 -20.5q17 0 41 4.5t54 18.5zM279 690l108 -136l-54 -43l-122 112zM108 690l108 -136l-54 -43l-122 112z" />
    <glyph glyph-name="uni020A" unicode="&#x20a;" 
d="M54 0v102h135v415h-135v102h393v-102h-134v-415h134v-102h-393zM250 814q31 0 57.5 -9.5t46 -28t30.5 -44.5t11 -59v-7h-90q-3 38 -18 50.5t-37 12.5t-37 -12.5t-17 -50.5h-91v7q0 33 11 59t30.5 44.5t46 28t57.5 9.5z" />
    <glyph glyph-name="uni020B" unicode="&#x20b;" 
d="M467 20q-38 -18 -71.5 -24.5t-61.5 -6.5q-48 0 -80.5 14t-52 40.5t-27.5 64.5t-8 87v173h-130v102h253v-291q0 -42 15.5 -62.5t51.5 -20.5q17 0 41 4.5t54 18.5zM215 675q31 0 57.5 -9.5t46 -28t30.5 -44.5t11 -59v-7h-90q-3 38 -18 50.5t-37 12.5t-37 -12.5t-17 -50.5
h-91v7q0 33 11 59t30.5 44.5t46 28t57.5 9.5z" />
    <glyph glyph-name="uni020C" unicode="&#x20c;" 
d="M152 310q0 -45 3.5 -84.5t14 -68.5t29.5 -46t51 -17q31 0 50.5 17t30 46.5t14 68.5t3.5 84t-3.5 84.5t-14 68.5t-29.5 46t-51 17t-51 -17t-29.5 -46.5t-14 -68.5t-3.5 -84zM27 310q0 160 59 241.5t164 81.5q109 0 166 -81.5t57 -241.5t-58 -241.5t-164 -81.5
q-109 0 -166.5 81.5t-57.5 241.5zM301 829l108 -136l-54 -43l-122 112zM130 829l108 -136l-54 -43l-122 112z" />
    <glyph glyph-name="uni020D" unicode="&#x20d;" 
d="M472 236q0 -56 -16 -101.5t-45 -78.5t-69.5 -51t-90.5 -18t-90.5 18t-70 51t-45.5 78.5t-16 101.5q0 55 16.5 100.5t46 78t70.5 50t89 17.5q49 0 89.5 -17.5t70 -50t45.5 -78t16 -100.5zM154 235q0 -63 22.5 -102t72.5 -39q48 0 72.5 39t24.5 102t-22.5 101.5t-72.5 38.5
q-48 0 -72.5 -38.5t-24.5 -101.5zM301 690l108 -136l-54 -43l-122 112zM130 690l108 -136l-54 -43l-122 112z" />
    <glyph glyph-name="uni020E" unicode="&#x20e;" 
d="M152 310q0 -45 3.5 -84.5t14 -68.5t29.5 -46t51 -17q31 0 50.5 17t30 46.5t14 68.5t3.5 84t-3.5 84.5t-14 68.5t-29.5 46t-51 17t-51 -17t-29.5 -46.5t-14 -68.5t-3.5 -84zM27 310q0 160 59 241.5t164 81.5q109 0 166 -81.5t57 -241.5t-58 -241.5t-164 -81.5
q-109 0 -166.5 81.5t-57.5 241.5zM250 814q31 0 57.5 -9.5t46 -28t30.5 -44.5t11 -59v-7h-90q-3 38 -18 50.5t-37 12.5t-37 -12.5t-17 -50.5h-91v7q0 33 11 59t30.5 44.5t46 28t57.5 9.5z" />
    <glyph glyph-name="uni020F" unicode="&#x20f;" 
d="M472 236q0 -56 -16 -101.5t-45 -78.5t-69.5 -51t-90.5 -18t-90.5 18t-70 51t-45.5 78.5t-16 101.5q0 55 16.5 100.5t46 78t70.5 50t89 17.5q49 0 89.5 -17.5t70 -50t45.5 -78t16 -100.5zM154 235q0 -63 22.5 -102t72.5 -39q48 0 72.5 39t24.5 102t-22.5 101.5t-72.5 38.5
q-48 0 -72.5 -38.5t-24.5 -101.5zM250 675q31 0 57.5 -9.5t46 -28t30.5 -44.5t11 -59v-7h-90q-3 38 -18 50.5t-37 12.5t-37 -12.5t-17 -50.5h-91v7q0 33 11 59t30.5 44.5t46 28t57.5 9.5z" />
    <glyph glyph-name="uni0210" unicode="&#x210;" 
d="M214 626q53 0 96 -12t74 -37t47.5 -63.5t16.5 -90.5q0 -54 -22 -98t-73 -67q17 -26 36 -57.5t37 -66t34.5 -69t28.5 -65.5h-129q-23 60 -53.5 115.5t-65.5 112.5h-64v-228h-123v610q18 4 39.5 7.5t43.5 5t42 2.5t35 1zM323 424q0 49 -30 72t-79 23q-7 0 -17 -0.5
t-20 -2.5v-186h27q63 0 91 24.5t28 69.5zM283 829l108 -136l-54 -43l-122 112zM112 829l108 -136l-54 -43l-122 112z" />
    <glyph glyph-name="uni0211" unicode="&#x211;" 
d="M437 345q-12 3 -28.5 6t-33.5 5.5t-33 3.5t-27 1q-26 0 -51 -2.5t-51 -9.5v-349h-124v439q49 18 100.5 29t120.5 11q10 0 28.5 -1t39.5 -3.5t42.5 -6t38.5 -9.5zM318 690l108 -136l-54 -43l-122 112zM147 690l108 -136l-54 -43l-122 112z" />
    <glyph glyph-name="uni0212" unicode="&#x212;" 
d="M214 626q53 0 96 -12t74 -37t47.5 -63.5t16.5 -90.5q0 -54 -22 -98t-73 -67q17 -26 36 -57.5t37 -66t34.5 -69t28.5 -65.5h-129q-23 60 -53.5 115.5t-65.5 112.5h-64v-228h-123v610q18 4 39.5 7.5t43.5 5t42 2.5t35 1zM323 424q0 49 -30 72t-79 23q-7 0 -17 -0.5
t-20 -2.5v-186h27q63 0 91 24.5t28 69.5zM233 814q31 0 57.5 -9.5t46 -28t30.5 -44.5t11 -59v-7h-90q-3 38 -18 50.5t-37 12.5t-37 -12.5t-17 -50.5h-91v7q0 33 11 59t30.5 44.5t46 28t57.5 9.5z" />
    <glyph glyph-name="uni0213" unicode="&#x213;" 
d="M437 345q-12 3 -28.5 6t-33.5 5.5t-33 3.5t-27 1q-26 0 -51 -2.5t-51 -9.5v-349h-124v439q49 18 100.5 29t120.5 11q10 0 28.5 -1t39.5 -3.5t42.5 -6t38.5 -9.5zM277 675q31 0 57.5 -9.5t46 -28t30.5 -44.5t11 -59v-7h-90q-3 38 -18 50.5t-37 12.5t-37 -12.5t-17 -50.5
h-91v7q0 33 11 59t30.5 44.5t46 28t57.5 9.5z" />
    <glyph glyph-name="uni0214" unicode="&#x214;" 
d="M248 -13q-60 0 -100.5 16.5t-64.5 47.5t-34 75t-10 98v395h124v-387q0 -39 4 -65.5t13.5 -42.5t26.5 -23t43 -7t43 7t27 23.5t14 43t4 65.5v386h123v-395q0 -54 -10 -98t-35 -75t-66 -47.5t-102 -16.5zM301 829l108 -136l-54 -43l-122 112zM130 829l108 -136l-54 -43
l-122 112z" />
    <glyph glyph-name="uni0215" unicode="&#x215;" 
d="M438 16q-34 -9 -82.5 -18t-105.5 -9q-58 0 -95 16t-58.5 45.5t-29.5 69.5t-8 88v262h123v-246q0 -65 15.5 -96.5t60.5 -31.5q28 0 56 5v369h124v-454zM301 690l108 -136l-54 -43l-122 112zM130 690l108 -136l-54 -43l-122 112z" />
    <glyph glyph-name="uni0216" unicode="&#x216;" 
d="M248 -13q-60 0 -100.5 16.5t-64.5 47.5t-34 75t-10 98v395h124v-387q0 -39 4 -65.5t13.5 -42.5t26.5 -23t43 -7t43 7t27 23.5t14 43t4 65.5v386h123v-395q0 -54 -10 -98t-35 -75t-66 -47.5t-102 -16.5zM250 814q31 0 57.5 -9.5t46 -28t30.5 -44.5t11 -59v-7h-90
q-3 38 -18 50.5t-37 12.5t-37 -12.5t-17 -50.5h-91v7q0 33 11 59t30.5 44.5t46 28t57.5 9.5z" />
    <glyph glyph-name="uni0217" unicode="&#x217;" 
d="M438 16q-34 -9 -82.5 -18t-105.5 -9q-58 0 -95 16t-58.5 45.5t-29.5 69.5t-8 88v262h123v-246q0 -65 15.5 -96.5t60.5 -31.5q28 0 56 5v369h124v-454zM250 675q31 0 57.5 -9.5t46 -28t30.5 -44.5t11 -59v-7h-90q-3 38 -18 50.5t-37 12.5t-37 -12.5t-17 -50.5h-91v7
q0 33 11 59t30.5 44.5t46 28t57.5 9.5z" />
    <glyph glyph-name="Scommaaccent" unicode="&#x218;" 
d="M232 90q31 0 51.5 6.5t32.5 18t16.5 26t4.5 29.5q0 19 -11 34t-28 26.5t-38 21t-42 17.5q-28 10 -58 23t-54.5 33t-40.5 49.5t-16 73.5q0 87 56.5 136t155.5 49q57 0 99.5 -13t71.5 -29l-36 -95q-25 14 -55.5 24t-70.5 10q-98 0 -98 -71q0 -18 10 -31.5t25.5 -24
t35 -18.5t38.5 -15q29 -11 60.5 -24.5t58 -36t43.5 -56t17 -84.5q0 -87 -56.5 -134.5t-171.5 -47.5q-77 0 -123 16.5t-69 30.5l36 100q27 -16 64.5 -30t91.5 -14zM203 -45h95q3 -17 3 -31q0 -48 -30.5 -71t-86.5 -23q-14 0 -31.5 2.5t-23.5 4.5v59q17 0 30.5 1t23.5 6.5
t15 16t5 28.5v7z" />
    <glyph glyph-name="scommaaccent" unicode="&#x219;" 
d="M228 93q45 0 69 6.5t24 26.5q0 13 -7.5 22t-21 15.5t-31 12.5t-36.5 12q-27 8 -55 18.5t-51 26.5t-38 40.5t-15 61.5q0 30 11.5 56.5t36 47t62.5 32t91 11.5q46 0 85.5 -7t68.5 -20l-19 -104q-17 5 -53 16.5t-81 11.5q-47 0 -63.5 -11.5t-16.5 -24.5q0 -11 7.5 -19.5
t20 -15.5t29 -13.5t35.5 -12.5q27 -9 56 -20t52.5 -27.5t38.5 -42t15 -62.5q0 -29 -11 -55t-36.5 -45t-66.5 -30t-101 -11q-61 0 -104 14t-69 25l19 103q35 -14 74.5 -26t80.5 -12zM203 -45h95q3 -17 3 -31q0 -48 -30.5 -71t-86.5 -23q-14 0 -31.5 2.5t-23.5 4.5v59
q17 0 30.5 1t23.5 6.5t15 16t5 28.5v7z" />
    <glyph glyph-name="uni021A" unicode="&#x21a;" 
d="M475 619v-102h-163v-517h-124v517h-163v102h450zM212 -45h95q3 -17 3 -31q0 -48 -30.5 -71t-86.5 -23q-14 0 -31.5 2.5t-23.5 4.5v59q17 0 30.5 1t23.5 6.5t15 16t5 28.5v7z" />
    <glyph glyph-name="uni021B" unicode="&#x21b;" 
d="M143 368h-107v102h107v118l123 20v-138h197v-102h-197v-190q0 -26 5 -42t14 -25t22 -12t29 -3q17 0 31.5 1t28 3.5t28 7.5t31.5 13l17 -106q-34 -14 -73.5 -20t-76.5 -6q-43 0 -76 7t-56 27t-35 56.5t-12 95.5v193zM274 -45h95q3 -17 3 -31q0 -48 -30.5 -71t-86.5 -23
q-14 0 -31.5 2.5t-23.5 4.5v59q17 0 30.5 1t23.5 6.5t15 16t5 28.5v7z" />
    <glyph glyph-name="uni021C" unicode="&#x21c;" 
d="M119 -59q48 0 89 8.5t71.5 26.5t47.5 45.5t17 66.5q0 68 -45 96.5t-121 28.5h-58v107h46q32 0 60 5.5t48.5 18t32.5 32.5t12 49q0 49 -33 75t-79 26q-35 0 -69.5 -7.5t-61.5 -21.5l-42 97q38 19 80 29t94 10q49 0 91 -11.5t73 -36.5t49 -63t18 -92q0 -46 -23 -86t-69 -68
q60 -28 88.5 -77t28.5 -105q0 -73 -29.5 -123t-79 -80.5t-114.5 -43.5t-137 -13q-11 0 -29.5 0.5t-39.5 3.5l9 107q17 -2 40.5 -3t34.5 -1z" />
    <glyph glyph-name="uni021D" unicode="&#x21d;" 
d="M215 482q46 0 84.5 -9t67 -28.5t44.5 -49.5t16 -72q0 -35 -20.5 -68t-68.5 -59q51 -18 79 -56t28 -89q0 -60 -28 -101t-77 -66.5t-115 -37t-142 -12.5l-8 103q45 2 87.5 7.5t76.5 18t54.5 34.5t20.5 56q0 44 -35 62t-86 18h-23v99q67 0 98 21.5t31 59.5q0 26 -18.5 45.5
t-56.5 19.5q-63 0 -115 -21l-27 100q22 8 56.5 16.5t76.5 8.5z" />
    <glyph glyph-name="uni021E" unicode="&#x21e;" 
d="M455 619v-619h-123v273h-164v-273h-123v619h123v-244h164v244h123zM112 771l49 59l89 -69l89 69l51 -59l-140 -122z" />
    <glyph glyph-name="uni021F" unicode="&#x21f;" 
d="M63 0v613l123 21v-168q15 5 36 9.5t37 4.5q52 0 87 -15.5t56 -44t30 -68t9 -87.5v-265h-123v249q0 66 -15 95t-57 29q-17 0 -33.5 -4t-26.5 -7v-362h-123zM187 677l-132 96l38 56l94 -54l92 54l38 -56z" />
    <glyph glyph-name="uni0220" unicode="&#x220;" 
d="M45 605q37 11 89.5 19.5t114.5 8.5q61 0 101 -17.5t63.5 -47.5t32.5 -71.5t9 -89.5v-572h-123v567q0 33 -3.5 56.5t-13.5 38.5t-28 22t-46 7q-33 0 -73 -6v-520h-123v605z" />
    <glyph glyph-name="uni0221" unicode="&#x221;" 
d="M368 118q22 5 38 5q29 0 50.5 -12t35.5 -31.5t21 -44.5t7 -51q0 -37 -10 -65t-26.5 -46.5t-38 -28t-43.5 -9.5q-39 0 -70 23.5t-44 74.5l-83 -89l-59 56l100 111q-39 -14 -69 -14q-39 0 -68.5 17.5t-50 49t-31 74.5t-10.5 94q0 115 40 181.5t117 66.5q20 0 43.5 -5
t45.5 -16v216l105 19v-576zM195 379q-18 0 -31.5 -12t-23 -32t-14 -45.5t-4.5 -52.5q0 -33 3.5 -60.5t14 -47t29.5 -30t50 -10.5q9 0 20 0.5t24 3.5v267q-18 8 -36 13.5t-32 5.5zM368 -19q0 -35 11.5 -49t25.5 -14q19 0 27.5 17t8.5 47q0 28 -8.5 45t-27.5 17q-13 0 -37 -13
v-50z" />
    <glyph glyph-name="uni0222" unicode="&#x222;" 
d="M250 -13q-104 0 -163.5 49.5t-59.5 142.5q0 64 29.5 102t76.5 62q-22 13 -35 29.5t-20 35t-9 37t-2 35.5q0 41 3.5 71.5t14.5 67.5h117q-5 -22 -7.5 -38.5t-4 -31.5t-2 -29t-0.5 -32q0 -44 14.5 -72t47.5 -28t47.5 28t14.5 72q0 18 -0.5 32t-2 29t-4.5 31.5l-7 38.5h117
q9 -37 13.5 -67.5t4.5 -71.5q0 -17 -2 -35.5t-9 -37t-20 -35t-35 -29.5q47 -24 76.5 -62t29.5 -102q0 -93 -59.5 -142.5t-163.5 -49.5zM152 188q0 -23 8.5 -40.5t22 -29.5t31.5 -18t36 -6t36 6t31.5 18t22 29.5t8.5 40.5q0 24 -8.5 41.5t-22 29t-31.5 17.5t-36 6t-36 -6
t-31.5 -18t-22 -29.5t-8.5 -40.5z" />
    <glyph glyph-name="uni0223" unicode="&#x223;" 
d="M249 437q31 0 48 27t17 81q0 26 -1.5 66t-7.5 82h125q7 -35 11 -71.5t4 -74.5q0 -57 -17.5 -93t-63.5 -61q56 -27 82 -79t26 -109q0 -49 -16 -89.5t-45 -69t-70 -44t-92 -15.5t-92 16.5t-70 45.5t-44.5 69t-15.5 87q0 57 25.5 109t81.5 79q-46 25 -63 61t-17 93
q0 75 15 146h125q-6 -42 -8 -82t-2 -66q0 -54 17 -81t48 -27zM249 94q45 0 70.5 31.5t25.5 85.5q0 57 -28 88.5t-68 31.5t-67.5 -31.5t-27.5 -88.5q0 -54 25 -85.5t70 -31.5z" />
    <glyph glyph-name="uni0224" unicode="&#x224;" 
d="M445 533q-43 -66 -79 -124t-67 -110.5t-58.5 -101t-52.5 -95.5h266v-87q0 -47 -7 -81t-24.5 -56.5t-47 -33.5t-73.5 -11q-13 0 -34.5 2t-43.5 10l18 86q14 -5 27 -6t31 -1q51 0 51 58v18h-305v71q22 43 47 90.5t56 101.5t67.5 117t80.5 137h-238v102h386v-86z" />
    <glyph glyph-name="uni0225" unicode="&#x225;" 
d="M426 380q-14 -16 -40 -47.5t-56.5 -70.5t-61 -81.5t-54.5 -78.5h222v-122q0 -145 -142 -145q-11 0 -34.5 2t-44.5 9l17 87q13 -5 23.5 -6t26.5 -1q23 0 37.5 10t14.5 34v30h-267v75q23 38 50 78t54 78.5t53 73.5t47 63h-194v102h349v-90z" />
    <glyph glyph-name="uni0226" unicode="&#x226;" 
d="M359 0l-29 143h-165l-28 -143h-128q44 183 89 333.5t87 285.5h134q44 -136 87.5 -288.5t84.5 -330.5h-132zM249 499q-10 -35 -18.5 -66.5t-16 -62t-14 -61.5t-12.5 -64h121q-6 33 -12 64t-13.5 61.5t-16 62t-18.5 66.5zM250 675q-29 0 -50 18.5t-21 50.5t21 51t50 19
t50 -19t21 -51t-21 -50.5t-50 -18.5z" />
    <glyph glyph-name="uni0227" unicode="&#x227;" 
d="M251 88q20 0 39 0.5t33 2.5v108q-12 2 -29 3.5t-31 1.5q-19 0 -37 -2.5t-31.5 -8.5t-21.5 -17t-8 -29q0 -32 24 -45.5t62 -13.5zM240 482q58 0 96.5 -13.5t61.5 -38t33 -60t10 -79.5v-280q-27 -6 -80 -14t-119 -8q-45 0 -81.5 8t-62.5 26.5t-40 48t-14 72.5q0 41 16 69
t43 45t62 24.5t73 7.5q48 0 85 -8v15q0 35 -22 58.5t-76 23.5q-35 0 -67.5 -5t-52.5 -12l-17 99q23 8 65 14.5t87 6.5zM250 536q-29 0 -50 18.5t-21 50.5t21 51t50 19t50 -19t21 -51t-21 -50.5t-50 -18.5z" />
    <glyph glyph-name="uni0228" unicode="&#x228;" 
d="M299 -24q33 -10 46 -29.5t13 -37.5q0 -23 -10.5 -38t-27 -24t-38.5 -13t-44 -4q-45 0 -80 11l13 63q6 -2 23 -5.5t33 -3.5q41 0 41 25q0 19 -36 31l-20 6q3 11 7.5 22.5t9.5 20.5h-166v619h375v-102h-252v-139h219v-102h-219v-174h274v-102h-151q-5 -8 -10 -24z" />
    <glyph glyph-name="uni0229" unicode="&#x229;" 
d="M300 -24q33 -10 46 -29.5t13 -37.5q0 -23 -10.5 -38t-27 -24t-38.5 -13t-44 -4q-45 0 -80 11l13 63q6 -2 23 -5.5t33 -3.5q41 0 41 25q0 19 -36 31l-20 6q3 10 6.5 20t8.5 18q-93 14 -145 73.5t-52 162.5q0 62 19 109t50 78.5t71 47.5t82 16q104 0 158 -61.5t54 -179.5
q0 -12 -0.5 -25t-1.5 -21h-305q0 -46 38 -72.5t98 -26.5q37 0 70.5 8t56.5 16l17 -105q-29 -11 -62 -17.5t-71 -8.5zM346 280q0 19 -5 36.5t-16 31.5t-28 22.5t-42 8.5q-24 0 -41.5 -8t-29 -22t-18 -32t-8.5 -37h188z" />
    <glyph glyph-name="uni022A" unicode="&#x22a;" 
d="M152 290q0 -41 3.5 -77t14 -62.5t29.5 -41.5t51 -15q31 0 50.5 15.5t30 42t14 62t3.5 76.5t-3.5 77t-14 62.5t-29.5 41.5t-51 15t-51 -15.5t-29.5 -42t-14 -62t-3.5 -76.5zM27 290q0 152 59 227.5t164 75.5q109 0 166 -75.5t57 -227.5t-58 -227.5t-164 -75.5
q-109 0 -166.5 75.5t-57.5 227.5zM223 678q0 -26 -17 -41.5t-40 -15.5q-24 0 -40.5 15.5t-16.5 41.5t16.5 41t40.5 15q23 0 40 -15t17 -41zM391 678q0 -26 -17 -41.5t-40 -15.5t-40 15.5t-17 41.5t17 41t40 15t40 -15t17 -41zM133 830h232v-71h-232v71z" />
    <glyph glyph-name="uni022B" unicode="&#x22b;" 
d="M472 236q0 -56 -16 -101.5t-45 -78.5t-69.5 -51t-90.5 -18t-90.5 18t-70 51t-45.5 78.5t-16 101.5q0 55 16.5 100.5t46 78t70.5 50t89 17.5q49 0 89.5 -17.5t70 -50t45.5 -78t16 -100.5zM154 235q0 -63 22.5 -102t72.5 -39q48 0 72.5 39t24.5 102t-22.5 101.5t-72.5 38.5
q-48 0 -72.5 -38.5t-24.5 -101.5zM223 580q0 -26 -17 -41.5t-40 -15.5q-24 0 -40.5 15.5t-16.5 41.5t16.5 41t40.5 15q23 0 40 -15t17 -41zM391 580q0 -26 -17 -41.5t-40 -15.5t-40 15.5t-17 41.5t17 41t40 15t40 -15t17 -41zM133 732h232v-71h-232v71z" />
    <glyph glyph-name="uni022C" unicode="&#x22c;" 
d="M152 290q0 -41 3.5 -77t14 -62.5t29.5 -41.5t51 -15q31 0 50.5 15.5t30 42t14 62t3.5 76.5t-3.5 77t-14 62.5t-29.5 41.5t-51 15t-51 -15.5t-29.5 -42t-14 -62t-3.5 -76.5zM27 290q0 152 59 227.5t164 75.5q109 0 166 -75.5t57 -227.5t-58 -227.5t-164 -75.5
q-109 0 -166.5 75.5t-57.5 227.5zM389 708q-5 -12 -13 -25.5t-19 -25t-26 -19.5t-33 -8q-13 0 -25 4t-23.5 9t-23.5 9t-24 4q-16 0 -25 -9.5t-17 -23.5l-49 39q4 12 12 25t20 23t27 16.5t33 6.5q13 0 25 -4t23 -9.5t22.5 -9.5t24.5 -4q16 0 25.5 9.5t17.5 23.5zM134 830h232
v-71h-232v71z" />
    <glyph glyph-name="uni022D" unicode="&#x22d;" 
d="M472 236q0 -56 -16 -101.5t-45 -78.5t-69.5 -51t-90.5 -18t-90.5 18t-70 51t-45.5 78.5t-16 101.5q0 55 16.5 100.5t46 78t70.5 50t89 17.5q49 0 89.5 -17.5t70 -50t45.5 -78t16 -100.5zM154 235q0 -63 22.5 -102t72.5 -39q48 0 72.5 39t24.5 102t-22.5 101.5t-72.5 38.5
q-48 0 -72.5 -38.5t-24.5 -101.5zM389 610q-5 -12 -13 -25.5t-19 -25t-26 -19.5t-33 -8q-13 0 -25 4t-23.5 9t-23.5 9t-24 4q-16 0 -25 -9.5t-17 -23.5l-49 39q4 12 12 25t20 23t27 16.5t33 6.5q13 0 25 -4t23 -9.5t22.5 -9.5t24.5 -4q16 0 25.5 9.5t17.5 23.5zM134 732h232
v-71h-232v71z" />
    <glyph glyph-name="uni022E" unicode="&#x22e;" 
d="M152 310q0 -45 3.5 -84.5t14 -68.5t29.5 -46t51 -17q31 0 50.5 17t30 46.5t14 68.5t3.5 84t-3.5 84.5t-14 68.5t-29.5 46t-51 17t-51 -17t-29.5 -46.5t-14 -68.5t-3.5 -84zM27 310q0 160 59 241.5t164 81.5q109 0 166 -81.5t57 -241.5t-58 -241.5t-164 -81.5
q-109 0 -166.5 81.5t-57.5 241.5zM250 675q-29 0 -50 18.5t-21 50.5t21 51t50 19t50 -19t21 -51t-21 -50.5t-50 -18.5z" />
    <glyph glyph-name="uni022F" unicode="&#x22f;" 
d="M472 236q0 -56 -16 -101.5t-45 -78.5t-69.5 -51t-90.5 -18t-90.5 18t-70 51t-45.5 78.5t-16 101.5q0 55 16.5 100.5t46 78t70.5 50t89 17.5q49 0 89.5 -17.5t70 -50t45.5 -78t16 -100.5zM154 235q0 -63 22.5 -102t72.5 -39q48 0 72.5 39t24.5 102t-22.5 101.5t-72.5 38.5
q-48 0 -72.5 -38.5t-24.5 -101.5zM250 536q-29 0 -50 18.5t-21 50.5t21 51t50 19t50 -19t21 -51t-21 -50.5t-50 -18.5z" />
    <glyph glyph-name="uni0230" unicode="&#x230;" 
d="M152 290q0 -41 3.5 -77t14 -62.5t29.5 -41.5t51 -15q31 0 50.5 15.5t30 42t14 62t3.5 76.5t-3.5 77t-14 62.5t-29.5 41.5t-51 15t-51 -15.5t-29.5 -42t-14 -62t-3.5 -76.5zM27 290q0 152 59 227.5t164 75.5q109 0 166 -75.5t57 -227.5t-58 -227.5t-164 -75.5
q-109 0 -166.5 75.5t-57.5 227.5zM307 678q0 -26 -17 -41t-40 -15t-40 15t-17 41t17 41.5t40 15.5t40 -15.5t17 -41.5zM134 830h232v-71h-232v71z" />
    <glyph glyph-name="uni0231" unicode="&#x231;" 
d="M472 236q0 -56 -16 -101.5t-45 -78.5t-69.5 -51t-90.5 -18t-90.5 18t-70 51t-45.5 78.5t-16 101.5q0 55 16.5 100.5t46 78t70.5 50t89 17.5q49 0 89.5 -17.5t70 -50t45.5 -78t16 -100.5zM154 235q0 -63 22.5 -102t72.5 -39q48 0 72.5 39t24.5 102t-22.5 101.5t-72.5 38.5
q-48 0 -72.5 -38.5t-24.5 -101.5zM307 580q0 -26 -17 -41t-40 -15t-40 15t-17 41t17 41.5t40 15.5t40 -15.5t17 -41.5zM134 732h232v-71h-232v71z" />
    <glyph glyph-name="uni0232" unicode="&#x232;" 
d="M254 336q11 23 25.5 58t29 74t28 79t24.5 72h127q-19 -51 -38 -99t-40 -95t-45 -93.5t-52 -95.5v-236h-124v235q-55 97 -96.5 189.5t-79.5 194.5h132q23 -72 51 -146.5t58 -136.5zM108 786h288v-87h-288v87z" />
    <glyph glyph-name="uni0233" unicode="&#x233;" 
d="M472 470q-19 -66 -36.5 -129.5t-36.5 -124t-40.5 -118.5t-46.5 -113q-19 -40 -37.5 -69t-41 -47.5t-50 -27.5t-64.5 -9q-31 0 -56.5 5t-42.5 13l23 103q20 -9 35.5 -12.5t33.5 -3.5q36 0 58 24t35 57q-44 88 -88 201.5t-80 250.5h128q9 -37 20.5 -79t24.5 -84t27.5 -82.5
t29.5 -75.5q10 35 21 75.5t21 82t19.5 83.5t17.5 80h126zM108 647h288v-87h-288v87z" />
    <glyph glyph-name="uni0234" unicode="&#x234;" 
d="M59 -92l107 118v565h-130v102h253v-570q20 9 35 12t28 3q27 0 51.5 -8.5t42.5 -26.5t29 -46.5t11 -67.5q0 -78 -42.5 -116t-113.5 -38q-24 0 -44.5 7.5t-37 20t-28.5 28t-20 31.5l-73 -78zM289 -2q0 -14 2 -27t7.5 -23.5t15 -17t25.5 -6.5q23 0 36.5 17t13.5 43
q0 29 -13.5 45.5t-36.5 16.5q-8 0 -24 -5.5t-26 -13.5v-29z" />
    <glyph glyph-name="uni0235" unicode="&#x235;" 
d="M368 118q22 5 38 5q29 0 50.5 -12t35.5 -31.5t21 -44.5t7 -51q0 -37 -10 -65t-26.5 -46.5t-38 -28t-43.5 -9.5q-39 0 -70 24t-44 75l-83 -90l-59 56l117 129v228q0 66 -18 94t-53 28q-10 0 -29.5 -2.5t-30.5 -5.5v-371h-105v455q31 9 75.5 17t97.5 8q51 0 84 -15.5
t51.5 -44t25.5 -68t7 -87.5v-147zM368 -19q0 -35 11.5 -49t25.5 -14q19 0 27.5 17t8.5 47q0 28 -8.5 45t-27.5 17q-13 0 -37 -13v-50z" />
    <glyph glyph-name="uni0236" unicode="&#x236;" 
d="M266 123q17 8 30 11.5t25 3.5q27 0 52.5 -8.5t45.5 -26.5t32 -46.5t12 -67.5q0 -78 -42.5 -116t-113.5 -38q-48 0 -84 24t-52 57l-67 -72l-68 64l107 118v342h-107v102h107v118l123 20v-138h197v-102h-197v-245zM266 -2q0 -14 2 -27t7.5 -23.5t15 -17t25.5 -6.5
q23 0 36.5 17t13.5 43q0 29 -13.5 45.5t-36.5 16.5q-8 0 -24 -5.5t-26 -13.5v-29z" />
    <glyph glyph-name="dotlessj" unicode="&#x237;" 
d="M400 31q0 -57 -14 -95.5t-38.5 -62t-58 -33.5t-72.5 -10q-48 0 -89 12t-79 31l38 104q25 -14 60.5 -26.5t64.5 -12.5q31 0 48 18.5t17 68.5v342h-190v102h313v-438z" />
    <glyph glyph-name="uni0238" unicode="&#x238;" 
d="M250 10q-19 -11 -38 -17t-39 -6q-38 0 -66 19t-46.5 52.5t-27.5 79.5t-9 99q0 52 8 97t24 77t39 50.5t52 18.5q25 0 54 -17v209l96 21v-230q29 17 56 17q29 0 52 -18t38.5 -50.5t23.5 -77t8 -96.5q0 -53 -9 -99t-27 -80t-46 -53t-67 -19q-18 0 -38 6t-38 17zM325 84
q26 0 39 41t13 121q0 27 -2.5 52t-8 44.5t-14 31t-20.5 11.5q-15 0 -35 -19v-278q5 -2 12 -3t16 -1zM165 385q-11 0 -18.5 -11.5t-13 -30.5t-8 -44t-2.5 -51q0 -164 51 -164q8 0 15 1t12 3v278q-20 19 -36 19z" />
    <glyph glyph-name="uni0239" unicode="&#x239;" 
d="M249 460q19 10 38 16t39 6q39 0 67 -19t46 -52.5t27 -79t9 -98.5t-8.5 -97.5t-24 -76.5t-38.5 -50.5t-52 -18.5q-13 0 -26.5 4t-27.5 11v-170h-96v171q-30 -16 -56 -16q-29 0 -52 18t-38.5 50.5t-23.5 76.5t-8 96q0 54 9 99.5t27.5 79.5t46.5 53t66 19q18 0 38 -6t38 -16
zM174 386q-26 0 -39 -41t-13 -121q0 -27 3 -52t8.5 -44.5t14 -31t19.5 -11.5q15 0 35 19v277q-10 5 -28 5zM334 85q11 0 19 11.5t13 30.5t7.5 43.5t2.5 50.5q0 165 -51 165q-15 0 -27 -5v-277q22 -19 36 -19z" />
    <glyph glyph-name="uni023A" unicode="&#x23a;" 
d="M201 143h-36l-28 -143h-128q44 183 89 333.5t87 285.5h123l20 84l56 -9l-38 -164q38 -118 74.5 -249.5t70.5 -280.5h-125l-30 143h-78l-52 -230l-54 10zM252 513q-20 -71 -36 -136t-28 -132h36l46 203q-5 17 -9 32.5t-9 32.5zM317 245q-4 20 -8 41t-9 42l-19 -83h36z" />
    <glyph glyph-name="uni023B" unicode="&#x23b;" 
d="M296 -13q-17 0 -32.5 1t-30.5 5l-27 -81l-79 23l28 86q-63 38 -95.5 110.5t-32.5 178.5q0 77 21 137t58.5 101.5t89 63t112.5 21.5q12 0 24 -1t23 -2l25 75l81 -23l-24 -74q22 -8 37.5 -15.5t21.5 -12.5l-36 -98q-14 9 -28 16t-28 12l-136 -413q18 -3 40 -3q48 0 79.5 11
t50.5 22l31 -97q-26 -16 -70.5 -29.5t-102.5 -13.5zM152 313q0 -57 10 -100t33 -71l126 383q-5 1 -15 1q-29 0 -56.5 -10.5t-49 -35t-35 -65.5t-13.5 -102z" />
    <glyph glyph-name="uni023C" unicode="&#x23c;" 
d="M39 235q0 51 16 96t50 78.5t86 53t123 19.5h12l21 65l72 -20l-19 -56q16 -5 31 -10t32 -11l-27 -99q-14 5 -30.5 10.5t-37.5 9.5l-4 -10l-85 -261q11 -2 24 -3t27 -1q31 0 65 4.5t60 12.5l16 -101q-26 -10 -64.5 -16.5t-89.5 -6.5q-20 0 -37.5 2t-34.5 5l-1 -3l-23 -72
l-70 20l23 73q-71 30 -103 88t-32 133zM164 235q0 -35 11 -62.5t36 -45.5l79 246q-35 -4 -59 -15.5t-39 -29.5t-21.5 -42t-6.5 -51z" />
    <glyph glyph-name="uni023D" unicode="&#x23d;" 
d="M460 0h-362v282h-80v98h80v239h123v-239h131v-98h-131v-180h239v-102z" />
    <glyph glyph-name="uni023E" unicode="&#x23e;" 
d="M404 619l51 80l68 -45l-243 -380v-274h-123v82l-94 -145l-67 45l161 252v283h-132v102h379zM280 426l58 91h-58v-91z" />
    <glyph glyph-name="uni023F" unicode="&#x23f;" 
d="M228 93q45 0 69 6.5t24 26.5q0 13 -7.5 22t-21 15.5t-31 12.5t-36.5 12q-27 8 -55 18.5t-51 26.5t-38 40.5t-15 61.5q0 30 11.5 56.5t36 47t62.5 32t91 11.5q46 0 85.5 -7t68.5 -20l-19 -104q-17 5 -53 16.5t-81 11.5q-47 0 -63.5 -11.5t-16.5 -24.5q0 -11 7.5 -19.5
t20 -15.5t29 -13.5t35.5 -12.5q27 -9 56 -20t52.5 -27.5t38.5 -42t15 -62.5q0 -29 -11 -53t-36.5 -41t-66.5 -26.5t-101 -9.5h-21q25 -21 44 -34t34 -20.5t27.5 -10t26.5 -2.5q13 0 29 1.5t37 3.5l11 -92q-25 -7 -52.5 -9t-40.5 -2q-35 0 -62.5 10.5t-50 27t-42 37.5
t-39.5 42t-42 41t-50 34l35 92q17 -7 38 -12t42.5 -8t41.5 -4.5t35 -1.5z" />
    <glyph glyph-name="uni0240" unicode="&#x240;" 
d="M426 380q-14 -15 -42 -49.5t-61.5 -78t-67.5 -91.5t-59 -88q33 -12 59 -34.5t49.5 -44t47 -38t51.5 -16.5q30 0 59 6l11 -100q-22 -7 -46.5 -9t-35.5 -2q-33 0 -59 12t-48.5 30.5t-43.5 40t-44.5 40t-52 30.5t-64.5 12h-12v75q23 38 50 78t54 78.5t53 73.5t47 63h-194
v102h349v-90z" />
    <glyph glyph-name="uni0241" unicode="&#x241;" 
d="M273 0h-124v196q0 58 26 93.5t61 56.5q25 15 44 27.5t31 24.5t18 24.5t6 29.5q0 41 -27.5 56t-65.5 15q-20 0 -41 -3t-40.5 -8.5t-36.5 -11.5t-29 -12l-40 98q44 23 93 34.5t97 11.5q53 0 93 -14.5t67 -38.5t41 -55t14 -65q0 -44 -20.5 -85.5t-64.5 -67.5
q-20 -12 -38 -25t-32.5 -29t-23 -35.5t-8.5 -43.5v-173z" />
    <glyph glyph-name="uni0242" unicode="&#x242;" 
d="M273 0h-124v113q0 26 7 46.5t19 37t27.5 29.5t33.5 24q15 10 30.5 18t27.5 16.5t20 18.5t8 24q0 23 -18.5 35t-60.5 12q-35 0 -73.5 -10.5t-70.5 -27.5l-39 98q10 5 29.5 13.5t44.5 16t53 13t57 5.5q99 0 151 -37t52 -105q0 -26 -6 -45.5t-16 -34t-23 -25.5t-27 -20
q-20 -12 -38 -23t-32.5 -24t-23 -29t-8.5 -37v-102z" />
    <glyph glyph-name="uni0243" unicode="&#x243;" 
d="M469 187q0 -56 -17.5 -93.5t-48.5 -60t-72 -32t-89 -9.5q-38 0 -79.5 4.5t-82.5 13.5v141h-62v79h62v381q33 6 72.5 10.5t77.5 4.5q65 0 106 -14.5t64 -38t31.5 -52.5t8.5 -58q0 -44 -21.5 -78t-57.5 -54q63 -23 85.5 -62t22.5 -82zM204 271v-41h66v-79h-66v-48
q11 -2 23.5 -3t24.5 -1q18 0 35 3.5t30.5 13t22 27t8.5 44.5q0 45 -24 64.5t-65 19.5h-55zM241 373q38 0 58.5 20.5t20.5 56.5q0 22 -6 35.5t-15.5 21t-22.5 10t-27 2.5q-11 0 -23 -1t-22 -3v-142h37z" />
    <glyph glyph-name="uni0244" unicode="&#x244;" 
d="M246 -13q-54 0 -89.5 16.5t-56.5 47.5t-30 75t-9 98v68h-43v98h43v229h123v-229h129v229h123v-229h46v-98h-46v-68q0 -54 -9 -98t-31 -75t-58.5 -47.5t-91.5 -16.5zM248 94q38 0 51.5 30.5t13.5 108.5v59h-129v-60q0 -78 13 -108t51 -30z" />
    <glyph glyph-name="uni0245" unicode="&#x245;" 
d="M359 0q-31 146 -54 268.5t-56 230.5q-17 -59 -31 -116.5t-27 -118.5t-26 -126t-28 -138h-128q44 183 89 333.5t87 285.5h134q44 -136 87.5 -288.5t84.5 -330.5h-132z" />
    <glyph glyph-name="uni0246" unicode="&#x246;" 
d="M239 0l-34 -90l-76 27l25 63h-100v619h334l28 74l78 -26l-111 -289h49v-102h-87l-66 -174h181v-102h-221zM177 378h119l53 139h-172v-139zM177 102h15l66 174h-81v-174z" />
    <glyph glyph-name="uni0247" unicode="&#x247;" 
d="M22 231q0 62 19 109t50.5 78.5t71.5 47.5t82 16q28 0 48 -3l22 69l71 -22l-22 -64q54 -26 82.5 -81t28.5 -140q0 -11 -1 -23.5t-2 -23.5h-194l-28 -86q22 -6 54 -6q37 0 70 6.5t56 16.5l17 -108q-21 -11 -65.5 -20.5t-95.5 -9.5q-21 0 -38.5 2t-34.5 6l-25 -75l-68 23
l22 70q-61 29 -90.5 87t-29.5 131zM227 276l32 98q-3 0 -6 0.5t-7 0.5q-23 0 -40 -8.5t-28.5 -22.5t-18 -32t-9.5 -36h77zM358 276q-2 20 -8.5 39.5t-20.5 35.5l-24 -75h53zM153 194q2 -18 8 -34t19 -27l20 61h-47z" />
    <glyph glyph-name="uni0248" unicode="&#x248;" 
d="M410 376h72v-98h-72v-71q0 -45 -11 -85t-35.5 -70t-63.5 -47.5t-96 -17.5t-95.5 16t-66.5 39l47 98q23 -16 49.5 -31t55.5 -15q42 0 67.5 25.5t25.5 94.5v64h-119v98h119v141h-196v102h319v-243z" />
    <glyph glyph-name="uni0249" unicode="&#x249;" 
d="M400 31q0 -57 -14 -95.5t-38.5 -62t-58 -33.5t-72.5 -10q-48 0 -89 12t-79 31l38 104q25 -14 60.5 -26.5t64.5 -12.5q31 0 48 18.5t17 68.5v175h-190v83h190v85h-190v102h313v-187h79v-83h-79v-169zM385 605q0 -36 -23 -57t-55 -21t-54.5 21t-22.5 57q0 37 22.5 58
t54.5 21t55 -21t23 -58z" />
    <glyph glyph-name="uni024A" unicode="&#x24a;" 
d="M27 310q0 160 54 241.5t151 81.5q100 0 153 -81.5t53 -241.5v-294q0 -45 8 -62t25 -17q9 0 18 1t20 6l13 -100q-19 -8 -36 -9.5t-28 -1.5q-41 0 -67 11.5t-40.5 33.5t-20 53.5t-5.5 72.5v14q-20 -17 -43 -24t-49 -7q-100 0 -153 81.5t-53 241.5zM152 310q0 -45 3 -84.5
t11.5 -68.5t24 -46t41.5 -17t42 17t24.5 46.5t11.5 68.5t3 84t-3 84.5t-11.5 68.5t-24.5 46t-42 17t-41.5 -17t-24 -46.5t-11.5 -68.5t-3 -84z" />
    <glyph glyph-name="uni024B" unicode="&#x24b;" 
d="M31 235q0 54 14 99.5t41.5 77.5t67.5 50t92 18q45 0 94 -7t81 -18v-446q0 -29 6 -46.5t26 -17.5t38 6l19 -103q-10 -4 -22 -6.5t-24 -4t-22 -2t-16 -0.5q-63 0 -96 34.5t-33 115.5v28q-21 -11 -44.5 -17.5t-45.5 -6.5q-44 0 -76.5 17.5t-55 49.5t-33.5 77.5t-11 101.5z
M156 231q0 -65 19 -100.5t57 -35.5q19 0 36 5t29 13v258q-8 1 -22 2.5t-28 1.5q-45 0 -68 -40.5t-23 -103.5z" />
    <glyph glyph-name="uni024C" unicode="&#x24c;" 
d="M242 626q93 0 149.5 -49.5t56.5 -153.5q0 -54 -22 -98t-73 -67q16 -26 33.5 -57.5t34.5 -66t32 -69t27 -65.5h-129q-23 60 -49 115.5t-61 112.5h-28v-228h-123v228h-72v102h72v280q17 4 37.5 7.5t41 5t40 2.5t33.5 1zM323 424q0 49 -22.5 72t-58.5 23q-13 0 -29 -3v-186
h19q48 0 69.5 24.5t21.5 69.5z" />
    <glyph glyph-name="uni024D" unicode="&#x24d;" 
d="M437 347q-12 3 -28 5.5t-33.5 4.5t-33.5 3t-27 1q-27 0 -55.5 -2.5t-57.5 -10.5v-92h171v-83h-171v-173h-123v173h-61v83h61v183q49 18 105.5 29t125.5 11q10 0 29.5 -0.5t41.5 -2.5t43 -5t35 -7z" />
    <glyph glyph-name="uni024E" unicode="&#x24e;" 
d="M405 424q-19 -45 -42 -93.5t-50 -94.5v-236h-124v235q-26 46 -48.5 95t-41.5 94h-90v88h53l-41 107h133q8 -26 16 -53.5t17 -53.5h132q8 28 16.5 56t16.5 51h127l-40 -107h52v-88h-86zM254 327q8 16 18 43t18 54h-76q9 -24 19 -50.5t21 -46.5z" />
    <glyph glyph-name="uni024F" unicode="&#x24f;" 
d="M463 470l-38 -146h66v-78h-86q-20 -67 -43.5 -134.5t-49.5 -126.5q-19 -40 -37.5 -69t-41 -47.5t-50 -27.5t-64.5 -9q-31 0 -56.5 5t-42.5 13l23 103q20 -9 35.5 -12.5t33.5 -3.5q36 0 58 24t35 57q-24 48 -49.5 106t-48.5 122h-98v78h70q-11 35 -21.5 71.5t-20.5 74.5
h128q8 -34 17.5 -71t21.5 -75h105q8 36 14.5 73t14.5 73h125zM267 149q6 22 13 47.5t12 49.5h-63q9 -25 19 -50.5t19 -46.5z" />
    <glyph glyph-name="uni0292" unicode="&#x292;" 
d="M146 205q15 16 34 37.5t38.5 44t37.5 43.5t31 38h-233v102h378v-75q-11 -15 -28 -36.5t-37.5 -46.5t-42 -51.5t-40.5 -50.5q33 -8 62 -22.5t50 -37t33.5 -52.5t12.5 -67q0 -99 -63 -147.5t-175 -48.5q-21 0 -45 3t-47.5 7.5t-44.5 11t-36 14.5l30 97q29 -13 69 -20.5
t75 -7.5q112 0 112 97q0 53 -33.5 76.5t-97.5 23.5h-40v68z" />
    <glyph glyph-name="apostrophe" unicode="&#x2bc;" 
d="M323 693v-19t-1 -19q-2 -28 -6.5 -51t-12 -43.5t-17.5 -39.5t-23 -39l-87 24q19 41 26.5 75t7.5 72q0 11 -0.5 21.5t-2.5 18.5h116z" />
    <glyph glyph-name="circumflex" unicode="&#x2c6;" 
d="M390 569l-49 -59l-89 69l-89 -69l-51 59l140 122z" />
    <glyph glyph-name="caron" unicode="&#x2c7;" 
d="M112 632l49 59l89 -69l89 69l51 -59l-140 -122z" />
    <glyph glyph-name="uni02C9" unicode="&#x2c9;" 
d="M106 647h288v-91h-288v91z" />
    <glyph glyph-name="breve" unicode="&#x2d8;" 
d="M250 534q-31 0 -57.5 9.5t-46 28t-30.5 44.5t-11 59v7h91q2 -38 17 -50.5t37 -12.5t37 12.5t18 50.5h90v-7q0 -33 -11 -59t-30.5 -44.5t-46 -28t-57.5 -9.5z" />
    <glyph glyph-name="dotaccent" unicode="&#x2d9;" 
d="M250 536q-29 0 -50 18.5t-21 50.5t21 51t50 19t50 -19t21 -51t-21 -50.5t-50 -18.5z" />
    <glyph glyph-name="ring" unicode="&#x2da;" 
d="M355 604q0 -50 -31.5 -76t-74.5 -26q-20 0 -39 6.5t-33.5 19.5t-23 32t-8.5 44t8.5 44.5t23 32.5t33.5 19.5t39 6.5q43 0 74.5 -26t31.5 -77zM290 604q0 21 -12 31.5t-29 10.5q-15 0 -27.5 -10.5t-12.5 -31.5q0 -20 12.5 -31t27.5 -11q17 0 29 11t12 31z" />
    <glyph glyph-name="ogonek" unicode="&#x2db;" 
d="M346 -156q-14 -5 -39.5 -9.5t-53.5 -4.5q-48 0 -69 18.5t-21 45.5q0 30 22.5 63.5t58.5 55.5h104q-7 -5 -20.5 -16t-27 -24.5t-23.5 -27.5t-10 -26q0 -10 5.5 -17t21.5 -7q8 0 19 1t26 6z" />
    <glyph glyph-name="tilde" unicode="&#x2dc;" 
d="M414 633q-5 -14 -14.5 -29.5t-23 -29.5t-30.5 -23t-37 -9q-16 0 -29.5 5t-27 10.5t-27 10.5t-28.5 5q-17 0 -28.5 -11.5t-19.5 -26.5l-59 39q5 14 14.5 30t23 30t30.5 23t38 9q16 0 29.5 -5t27 -10.5t26.5 -10.5t28 -5q17 0 29 11t19 26z" />
    <glyph glyph-name="hungarumlaut" unicode="&#x2dd;" 
d="M258 622l-144 -112l-47 49l121 133zM438 622l-144 -112l-47 49l122 132z" />
    <glyph glyph-name="breve_inverted" unicode="&#x311;" 
d="M250 675q31 0 57.5 -9.5t46 -28t30.5 -44.5t11 -59v-7h-90q-3 38 -18 50.5t-37 12.5t-37 -12.5t-17 -50.5h-91v7q0 33 11 59t30.5 44.5t46 28t57.5 9.5z" />
    <glyph glyph-name="tonos" unicode="&#x384;" 
d="M348 667l-129 -147l-68 50l113 161z" />
    <glyph glyph-name="dieresistonos" unicode="&#x385;" 
d="M171 605q0 -31 -20 -48.5t-47 -17.5t-46.5 17.5t-19.5 48.5q0 32 19.5 49t46.5 17t47 -17t20 -49zM462 605q0 -31 -20 -48.5t-46 -17.5q-27 0 -46.5 17.5t-19.5 48.5q0 32 19.5 49t46.5 17q26 0 46 -17t20 -49zM338 690l-97 -178l-62 29l78 189z" />
    <glyph glyph-name="Alphatonos" unicode="&#x386;" 
d="M359 0l-29 143h-165l-28 -143h-128q44 183 89 333.5t87 285.5h134q44 -136 87.5 -288.5t84.5 -330.5h-132zM249 499q-10 -35 -18.5 -66.5t-16 -62t-14 -61.5t-12.5 -64h121q-6 33 -12 64t-13.5 61.5t-16 62t-18.5 66.5zM134 610l-71 -192l-87 22l49 200z" />
    <glyph glyph-name="Epsilontonos" unicode="&#x388;" 
d="M25 610l-71 -192l-87 22l49 200zM63 0v619h375v-102h-252v-139h219v-102h-219v-174h274v-102h-397z" />
    <glyph glyph-name="Etatonos" unicode="&#x389;" 
d="M455 619v-619h-123v273h-164v-273h-123v619h123v-244h164v244h123zM8 610l-71 -192l-87 22l49 200z" />
    <glyph glyph-name="Iotatonos" unicode="&#x38a;" 
d="M54 0v102h135v415h-135v102h393v-102h-134v-415h134v-102h-393zM11 610l-71 -192l-87 22l49 200z" />
    <glyph glyph-name="Omicrontonos" unicode="&#x38c;" 
d="M152 310q0 -45 3.5 -84.5t14 -68.5t29.5 -46t51 -17q31 0 50.5 17t30 46.5t14 68.5t3.5 84t-3.5 84.5t-14 68.5t-29.5 46t-51 17t-51 -17t-29.5 -46.5t-14 -68.5t-3.5 -84zM27 310q0 160 59 241.5t164 81.5q109 0 166 -81.5t57 -241.5t-58 -241.5t-164 -81.5
q-109 0 -166.5 81.5t-57.5 241.5zM30 610l-71 -192l-87 22l49 200z" />
    <glyph glyph-name="Upsilontonos" unicode="&#x38e;" 
d="M254 336q11 23 25.5 58t29 74t28 79t24.5 72h127q-19 -51 -38 -99t-40 -95t-45 -93.5t-52 -95.5v-236h-124v235q-55 97 -96.5 189.5t-79.5 194.5h132q23 -72 51 -146.5t58 -136.5zM-8 610l-71 -192l-87 22l49 200z" />
    <glyph glyph-name="Omegatonos" unicode="&#x38f;" 
d="M14 354q0 75 20.5 128t53.5 86.5t75.5 49t87.5 15.5q44 0 86.5 -15.5t76 -49t54 -86.5t20.5 -128q0 -66 -18 -129t-60 -123h81v-102h-215v87q34 41 60.5 100.5t26.5 139.5q0 39 -5.5 74.5t-18 63.5t-34 44.5t-53.5 16.5t-53.5 -16.5t-35 -44.5t-19 -63.5t-5.5 -74.5
q0 -80 24.5 -139.5t62.5 -100.5v-87h-217v102h84q-42 60 -60.5 124.5t-18.5 127.5zM30 610l-71 -192l-87 22l49 200z" />
    <glyph glyph-name="iotadieresistonos" unicode="&#x390;" 
d="M467 20q-38 -18 -71.5 -24.5t-61.5 -6.5q-48 0 -80.5 14t-52 40.5t-27.5 64.5t-8 87v173h-130v102h253v-282q0 -42 15.5 -61.5t51.5 -19.5q17 0 40 4t53 18zM171 605q0 -31 -20 -48.5t-47 -17.5t-46.5 17.5t-19.5 48.5q0 32 19.5 49t46.5 17t47 -17t20 -49zM462 605
q0 -31 -20 -48.5t-46 -17.5q-27 0 -46.5 17.5t-19.5 48.5q0 32 19.5 49t46.5 17q26 0 46 -17t20 -49zM338 690l-97 -178l-62 29l78 189z" />
    <glyph glyph-name="Alpha" unicode="&#x391;" 
d="M359 0l-29 143h-165l-28 -143h-128q44 183 89 333.5t87 285.5h134q44 -136 87.5 -288.5t84.5 -330.5h-132zM249 499q-10 -35 -18.5 -66.5t-16 -62t-14 -61.5t-12.5 -64h121q-6 33 -12 64t-13.5 61.5t-16 62t-18.5 66.5z" />
    <glyph glyph-name="Beta" unicode="&#x392;" 
d="M469 187q0 -56 -19 -93.5t-51.5 -60t-77 -32t-95.5 -9.5q-41 0 -85 4.5t-87 13.5v601q35 6 77 10.5t83 4.5q70 0 114 -14.5t69 -38t34 -52.5t9 -58q0 -44 -21.5 -78t-57.5 -54q63 -23 85.5 -62t22.5 -82zM177 271v-168q13 -2 28.5 -3t30.5 -1q21 0 41 3.5t35.5 13
t25.5 27t10 44.5q0 45 -28.5 64.5t-76.5 19.5h-66zM225 373q47 0 71 20.5t24 56.5q0 22 -7 35.5t-19 21t-28 10t-33 2.5q-14 0 -29 -1t-27 -3v-142h48z" />
    <glyph glyph-name="Gamma" unicode="&#x393;" 
d="M125 102v517h359v-102h-236v-415h134v-102h-346v102h89z" />
    <glyph glyph-name="uni0394" unicode="&#x394;" 
d="M9 0q44 183 89 333.5t87 285.5h134q44 -136 87.5 -288.5t84.5 -330.5h-482zM249 499q-26 -90 -48 -187.5t-45 -209.5h182q-23 113 -43 211t-46 186z" />
    <glyph glyph-name="Epsilon" unicode="&#x395;" 
d="M63 0v619h375v-102h-252v-139h219v-102h-219v-174h274v-102h-397z" />
    <glyph glyph-name="Zeta" unicode="&#x396;" 
d="M445 533q-43 -66 -79 -124t-67 -110.5t-58.5 -101t-52.5 -95.5h266v-102h-408v71q22 43 47 90.5t56 101.5t67.5 117t80.5 137h-238v102h386v-86z" />
    <glyph glyph-name="Eta" unicode="&#x397;" 
d="M455 619v-619h-123v273h-164v-273h-123v619h123v-244h164v244h123z" />
    <glyph glyph-name="Theta" unicode="&#x398;" 
d="M179 357h143v-93h-143v93zM138 310q0 -104 24 -160t88 -56q63 0 87.5 56.5t24.5 159.5t-24 159.5t-88 56.5q-63 0 -87.5 -56.5t-24.5 -159.5zM22 310q0 86 16 147t46 100t72 57.5t94 18.5q54 0 96.5 -18.5t72 -57.5t44.5 -100t15 -147t-16 -147.5t-45 -100.5t-71.5 -57
t-94.5 -18q-54 0 -96.5 18t-72 57t-45 100.5t-15.5 147.5z" />
    <glyph glyph-name="Iota" unicode="&#x399;" 
d="M54 0v102h135v415h-135v102h393v-102h-134v-415h134v-102h-393z" />
    <glyph glyph-name="Kappa" unicode="&#x39a;" 
d="M350 0q-11 35 -31.5 75.5t-45.5 79t-52.5 72t-52.5 56.5v-283h-123v619h123v-257q22 28 46 62t45.5 68t39.5 67t30 60h139q-14 -27 -33.5 -61.5t-44.5 -72t-53.5 -76.5t-59.5 -75q31 -30 63 -69t60.5 -83.5t51.5 -91t37 -90.5h-139z" />
    <glyph glyph-name="Lambda" unicode="&#x39b;" 
d="M359 0q-31 146 -54 268.5t-56 230.5q-17 -59 -31 -116.5t-27 -118.5t-26 -126t-28 -138h-128q44 183 89 333.5t87 285.5h134q44 -136 87.5 -288.5t84.5 -330.5h-132z" />
    <glyph glyph-name="Mu" unicode="&#x39c;" 
d="M161 619q7 -21 17.5 -54t22.5 -71t24 -77t23 -72q12 37 25 76.5t25 76t22 68.5t18 53h102q7 -81 13.5 -158t11 -152.5t7.5 -152t5 -156.5h-113l6 481l-76 -262h-90l-73 262l5 -481h-113q3 76 6.5 158t7.5 163t9.5 157t12.5 141h102z" />
    <glyph glyph-name="Nu" unicode="&#x39d;" 
d="M355 0q-42 103 -91.5 205.5t-106.5 205.5v-411h-111v619h99q28 -44 56 -95.5t54.5 -102.5t49 -99t38.5 -84v381h111v-619h-99z" />
    <glyph glyph-name="Xi" unicode="&#x39e;" 
d="M32 619h436v-104h-436v104zM71 275v104h359v-104h-359zM32 104h436v-104h-436v104z" />
    <glyph glyph-name="Omicron" unicode="&#x39f;" 
d="M152 310q0 -45 3.5 -84.5t14 -68.5t29.5 -46t51 -17q31 0 50.5 17t30 46.5t14 68.5t3.5 84t-3.5 84.5t-14 68.5t-29.5 46t-51 17t-51 -17t-29.5 -46.5t-14 -68.5t-3.5 -84zM27 310q0 160 59 241.5t164 81.5q109 0 166 -81.5t57 -241.5t-58 -241.5t-164 -81.5
q-109 0 -166.5 81.5t-57.5 241.5z" />
    <glyph glyph-name="Pi" unicode="&#x3a0;" 
d="M455 619v-619h-123v517h-164v-517h-123v619h410z" />
    <glyph glyph-name="Rho" unicode="&#x3a1;" 
d="M224 626q118 0 183 -48.5t65 -158.5q0 -111 -65.5 -160.5t-185.5 -49.5h-44v-209h-123v611q18 4 40.5 7t45.5 4.5t45 2.5t39 1zM238 519q-11 0 -30.5 -0.5t-30.5 -2.5v-200h50q59 0 89 23.5t30 80.5q0 54 -29.5 76.5t-78.5 22.5z" />
    <glyph glyph-name="Sigma" unicode="&#x3a3;" 
d="M232 313q-20 28 -46 59.5l-52 63t-50.5 59.5t-42.5 49v75h428v-102h-264q19 -23 40 -49.5t42.5 -53.5t41.5 -53t37 -48q-14 -16 -39 -44t-52.5 -59t-54 -60.5t-41.5 -47.5h291v-102h-442v81q21 25 46.5 54.5t53 60.5t54.5 61t50 56z" />
    <glyph glyph-name="Tau" unicode="&#x3a4;" 
d="M475 619v-102h-163v-517h-124v517h-163v102h450z" />
    <glyph glyph-name="Upsilon" unicode="&#x3a5;" 
d="M254 336q11 23 25.5 58t29 74t28 79t24.5 72h127q-19 -51 -38 -99t-40 -95t-45 -93.5t-52 -95.5v-236h-124v235q-55 97 -96.5 189.5t-79.5 194.5h132q23 -72 51 -146.5t58 -136.5z" />
    <glyph glyph-name="Phi" unicode="&#x3a6;" 
d="M25 332q0 235 177 262v65h96v-65q176 -29 176 -262q0 -235 -176 -261v-71h-96v70q-177 27 -177 262zM123 331q0 -64 16.5 -110.5t62.5 -62.5v347q-45 -17 -62 -63t-17 -111zM376 335q0 64 -16.5 109t-61.5 61v-346q44 17 61 64t17 112z" />
    <glyph glyph-name="Chi" unicode="&#x3a7;" 
d="M356 0q-19 51 -46.5 113t-57.5 124q-29 -59 -58 -122.5t-50 -114.5h-133q10 27 29.5 65t43 82t49.5 90.5t50 89.5l-162 292h133l98 -198l103 198h124l-158 -289q27 -43 53 -90t48.5 -91.5t39.5 -83t27 -65.5h-133z" />
    <glyph glyph-name="Psi" unicode="&#x3a8;" 
d="M298 240q17 0 32 6t26 22.5t17 47t6 78.5v225h96v-214q0 -131 -46 -191t-131 -67v-147h-96v147q-85 7 -131 67t-46 191v214h96v-225q0 -48 6 -78.5t17 -47t26 -22.5t32 -6v235h96v-235z" />
    <glyph glyph-name="Omega" unicode="&#x3a9;" 
d="M14 354q0 75 20.5 128t53.5 86.5t75.5 49t87.5 15.5q44 0 86.5 -15.5t76 -49t54 -86.5t20.5 -128q0 -66 -18 -129t-60 -123h81v-102h-215v87q34 41 60.5 100.5t26.5 139.5q0 39 -5.5 74.5t-18 63.5t-34 44.5t-53.5 16.5t-53.5 -16.5t-35 -44.5t-19 -63.5t-5.5 -74.5
q0 -80 24.5 -139.5t62.5 -100.5v-87h-217v102h84q-42 60 -60.5 124.5t-18.5 127.5z" />
    <glyph glyph-name="Iotadieresis" unicode="&#x3aa;" 
d="M54 0v102h135v415h-135v102h393v-102h-134v-415h134v-102h-393zM152 677q-28 0 -48.5 17.5t-20.5 49.5t20.5 50t48.5 18q27 0 48 -18t21 -50t-21 -49.5t-48 -17.5zM351 677q-28 0 -48.5 17.5t-20.5 49.5t20.5 50t48.5 18t48.5 -18t20.5 -50t-20.5 -49.5t-48.5 -17.5z" />
    <glyph glyph-name="Upsilondieresis" unicode="&#x3ab;" 
d="M254 336q11 23 25.5 58t29 74t28 79t24.5 72h127q-19 -51 -38 -99t-40 -95t-45 -93.5t-52 -95.5v-236h-124v235q-55 97 -96.5 189.5t-79.5 194.5h132q23 -72 51 -146.5t58 -136.5zM152 677q-28 0 -48.5 17.5t-20.5 49.5t20.5 50t48.5 18q27 0 48 -18t21 -50t-21 -49.5
t-48 -17.5zM351 677q-28 0 -48.5 17.5t-20.5 49.5t20.5 50t48.5 18t48.5 -18t20.5 -50t-20.5 -49.5t-48.5 -17.5z" />
    <glyph glyph-name="alphatonos" unicode="&#x3ac;" 
d="M467 -10q-42 0 -66.5 11.5t-43.5 33.5q-34 -23 -67.5 -34t-64.5 -11q-39 0 -73 15t-58.5 44t-39 72.5t-14.5 99.5q0 131 63 195t171 64q36 0 76 -6t84 -20v-286q0 -45 11 -59t39 -17zM166 228q0 -68 21.5 -101.5t59.5 -33.5q32 0 69 22q-2 16 -3.5 36.5t-1.5 38.5v181
q-12 3 -22.5 4t-20.5 1q-29 0 -48.5 -11t-31.5 -30.5t-17 -46.5t-5 -60zM370 667l-129 -147l-68 50l113 161z" />
    <glyph glyph-name="epsilontonos" unicode="&#x3ad;" 
d="M412 355q-23 6 -61 13t-80 7q-22 0 -36.5 -4.5t-23.5 -11.5t-12.5 -15.5t-3.5 -16.5q0 -17 14.5 -30.5t51.5 -13.5h106v-93h-105q-15 0 -30 -2t-26.5 -7.5t-18.5 -15t-7 -24.5q0 -21 23 -33.5t67 -12.5q52 0 93.5 9.5t61.5 16.5l29 -101q-37 -15 -87 -24t-100 -9
q-41 0 -78 7.5t-64.5 24.5t-44 44.5t-16.5 67.5q0 43 19 70.5t58 44.5q-29 17 -45.5 41t-16.5 59q0 38 16 64t42.5 42t61.5 23t73 7q51 0 90 -7t73 -19zM379 667l-129 -147l-68 50l113 161z" />
    <glyph glyph-name="etatonos" unicode="&#x3ae;" 
d="M63 455q33 9 81.5 17t105.5 8q56 0 93 -15.5t58.5 -44t30.5 -68t9 -87.5v-430h-123v414q0 66 -15 95t-61 29q-14 0 -27.5 -1t-28.5 -3v-369h-123v455zM370 667l-129 -147l-68 50l113 161z" />
    <glyph glyph-name="iotatonos" unicode="&#x3af;" 
d="M467 20q-38 -18 -71.5 -24.5t-61.5 -6.5q-48 0 -80.5 14t-52 40.5t-27.5 64.5t-8 87v173h-130v102h253v-282q0 -42 15.5 -61.5t51.5 -19.5q17 0 40 4t53 18zM345 667l-129 -147l-68 50l113 161z" />
    <glyph glyph-name="upsilondieresistonos" unicode="&#x3b0;" 
d="M249 -13q-104 0 -151 52t-47 164v267h124v-252q0 -62 15.5 -89t58.5 -27t58 27t15 89v252h125v-267q0 -112 -46.5 -164t-151.5 -52zM171 605q0 -31 -20 -48.5t-47 -17.5t-46.5 17.5t-19.5 48.5q0 32 19.5 49t46.5 17t47 -17t20 -49zM462 605q0 -31 -20 -48.5t-46 -17.5
q-27 0 -46.5 17.5t-19.5 48.5q0 32 19.5 49t46.5 17q26 0 46 -17t20 -49zM338 690l-97 -178l-62 29l78 189z" />
    <glyph glyph-name="alpha" unicode="&#x3b1;" 
d="M467 -10q-42 0 -66.5 11.5t-43.5 33.5q-34 -23 -67.5 -34t-64.5 -11q-39 0 -73 15t-58.5 44t-39 72.5t-14.5 99.5q0 131 63 195t171 64q36 0 76 -6t84 -20v-286q0 -45 11 -59t39 -17zM166 228q0 -68 21.5 -101.5t59.5 -33.5q32 0 69 22q-2 16 -3.5 36.5t-1.5 38.5v181
q-12 3 -22.5 4t-20.5 1q-29 0 -48.5 -11t-31.5 -30.5t-17 -46.5t-5 -60z" />
    <glyph glyph-name="beta" unicode="&#x3b2;" 
d="M430 523q0 -43 -17.5 -80t-59.5 -60q68 -27 95 -73t27 -106q0 -61 -17.5 -102t-46 -66t-64.5 -35.5t-73 -10.5q-30 0 -52 5t-45 15v-176h-123v646q0 56 15.5 96.5t42 66.5t62 38t76.5 12q34 0 66.5 -11t58 -32.5t40.5 -53.5t15 -73zM177 118q34 -22 74 -22q24 0 42.5 8.5
t31 23.5t18.5 34.5t6 41.5q0 45 -25 77t-77 32h-23v98h11q18 0 31.5 8t23 21.5t14 30t4.5 34.5q0 31 -15.5 56t-48.5 25q-32 0 -49.5 -25t-17.5 -82v-361z" />
    <glyph glyph-name="gamma" unicode="&#x3b3;" 
d="M193 -165q-9 87 -31 177t-48.5 174t-53.5 157t-46 127h129q34 -96 59 -175t45 -152q35 73 65 158.5t49 168.5h127q-34 -134 -85.5 -251.5t-111.5 -222.5q8 -48 13 -84.5t7 -76.5h-118z" />
    <glyph glyph-name="delta" unicode="&#x3b4;" 
d="M31 218q0 22 5.5 50t20.5 57t41.5 56.5t69.5 48.5q-29 23 -47 51.5t-18 69.5q0 29 10.5 55t31.5 45.5t53 30.5t75 11q53 0 89 -11t70 -26l-26 -92q-24 12 -55.5 22.5t-69.5 10.5q-9 0 -18.5 -1t-18 -5t-13.5 -12t-5 -21q0 -12 5.5 -23.5t19 -25t36 -30.5t55.5 -39
q59 -39 94 -90.5t35 -123.5q0 -55 -15.5 -99.5t-44 -75.5t-69 -47.5t-89.5 -16.5q-50 0 -90.5 15.5t-70 45t-45.5 72.5t-16 98zM345 228q0 26 -8.5 47t-22 38.5t-31.5 32.5t-37 29q-28 -13 -45.5 -31t-27 -38t-13 -40t-3.5 -38q0 -68 26.5 -101.5t68.5 -33.5t67.5 33
t25.5 102z" />
    <glyph glyph-name="epsilon" unicode="&#x3b5;" 
d="M412 355q-23 6 -61 13t-80 7q-22 0 -36.5 -4.5t-23.5 -11.5t-12.5 -15.5t-3.5 -16.5q0 -17 14.5 -30.5t51.5 -13.5h106v-93h-105q-15 0 -30 -2t-26.5 -7.5t-18.5 -15t-7 -24.5q0 -21 23 -33.5t67 -12.5q52 0 93.5 9.5t61.5 16.5l29 -101q-37 -15 -87 -24t-100 -9
q-41 0 -78 7.5t-64.5 24.5t-44 44.5t-16.5 67.5q0 43 19 70.5t58 44.5q-29 17 -45.5 41t-16.5 59q0 38 16 64t42.5 42t61.5 23t73 7q51 0 90 -7t73 -19z" />
    <glyph glyph-name="zeta" unicode="&#x3b6;" 
d="M465 -37q0 -37 -13.5 -69t-35.5 -64l-103 37q14 26 21.5 44t7.5 35q0 24 -28 38.5t-84 28.5q-42 12 -75 27.5t-55.5 39.5t-34 58t-11.5 81q0 56 23.5 109t57.5 100.5t72 87t67 69.5h-195v102h365v-81q-29 -26 -73.5 -65t-87 -87.5t-73 -106t-30.5 -118.5
q0 -52 26.5 -77.5t87.5 -43.5q45 -14 77 -27.5t53 -30t31 -38t10 -49.5z" />
    <glyph glyph-name="eta" unicode="&#x3b7;" 
d="M63 455q33 9 81.5 17t105.5 8q56 0 93 -15.5t58.5 -44t30.5 -68t9 -87.5v-430h-123v414q0 66 -15 95t-61 29q-14 0 -27.5 -1t-28.5 -3v-369h-123v455z" />
    <glyph glyph-name="theta" unicode="&#x3b8;" 
d="M468 341q0 -179 -58 -266.5t-160 -87.5t-160.5 87.5t-58.5 266.5q0 178 58.5 265t160.5 87t160 -87t58 -265zM250 93q24 0 41.5 14t28.5 39.5t17 61t7 78.5h-190q1 -43 7 -78.5t18 -61t29.5 -39.5t41.5 -14zM250 588q-48 0 -71 -52.5t-25 -139.5h190q-2 87 -24 139.5
t-70 52.5z" />
    <glyph glyph-name="iota" unicode="&#x3b9;" 
d="M467 20q-38 -18 -71.5 -24.5t-61.5 -6.5q-48 0 -80.5 14t-52 40.5t-27.5 64.5t-8 87v173h-130v102h253v-282q0 -42 15.5 -61.5t51.5 -19.5q17 0 40 4t53 18z" />
    <glyph glyph-name="kappa" unicode="&#x3ba;" 
d="M187 284q18 21 36.5 44.5t36 48.5t33.5 48.5t28 44.5h148q-18 -23 -41 -50t-47.5 -55t-49 -54t-44.5 -48q25 -24 54 -57.5t57 -69.5t51.5 -72t37.5 -64h-141q-12 25 -31.5 56.5t-41.5 62t-44.5 58t-41.5 45.5v-222h-124v464h124v-180z" />
    <glyph glyph-name="lambda" unicode="&#x3bb;" 
d="M19 0q17 64 39.5 126.5t47 121t49.5 110.5t49 96q-16 42 -29 68t-25 41t-24.5 20t-27.5 5q-13 0 -21.5 -1t-19.5 -6l-22 99q20 7 39 10t43 3q64 0 102.5 -30.5t67.5 -91.5q31 -66 59 -142.5t52.5 -152.5t44 -147.5t34.5 -128.5h-142q-8 36 -18 76.5t-20.5 81t-21.5 79.5
t-21 72q-14 -36 -28.5 -76.5t-28 -82t-24.5 -80.5t-18 -70h-136z" />
    <glyph glyph-name="uni03BC" unicode="&#x3bc;" 
d="M182 470v-256q0 -35 5 -57.5t14.5 -36t24 -19t33.5 -5.5q14 0 28.5 1.5t26.5 3.5v369h124v-454q-32 -9 -79 -18t-98 -9q-16 0 -40 4.5t-45 10.5q2 -21 4 -40.5t2 -45.5v-83h-123v635h123z" />
    <glyph glyph-name="nu" unicode="&#x3bd;" 
d="M194 0q-45 89 -91.5 208.5t-88.5 261.5h129q9 -38 21.5 -81t26.5 -86.5t28.5 -84.5t27.5 -75q13 34 29 75t31.5 84.5t30 86.5t23.5 81h125q-42 -142 -93 -261.5t-96 -208.5h-103z" />
    <glyph glyph-name="xi" unicode="&#x3be;" 
d="M314 -131q14 26 22 43t8 34q0 26 -32.5 40t-86.5 27q-90 23 -131 70t-41 121q0 66 33.5 106t83.5 60q-46 26 -64.5 63.5t-18.5 84.5q0 79 55 127t158 48q54 0 94 -8.5t60 -16.5l-25 -96q-29 11 -58 15.5t-58 4.5q-31 0 -51.5 -7.5t-32.5 -20.5t-16.5 -29t-4.5 -33
q0 -22 9 -38t23.5 -26.5t33.5 -15.5t40 -5h106v-102h-100q-24 0 -49.5 -3t-45.5 -13t-33 -30t-13 -53q0 -24 7.5 -41.5t21.5 -29.5t34 -21t46 -16q44 -12 77.5 -23.5t56 -27.5t33.5 -38t11 -56q0 -37 -13.5 -69t-35.5 -64z" />
    <glyph glyph-name="omicron" unicode="&#x3bf;" 
d="M472 236q0 -56 -16 -101.5t-45 -78.5t-69.5 -51t-90.5 -18t-90.5 18t-70 51t-45.5 78.5t-16 101.5q0 55 16.5 100.5t46 78t70.5 50t89 17.5q49 0 89.5 -17.5t70 -50t45.5 -78t16 -100.5zM154 235q0 -63 22.5 -102t72.5 -39q48 0 72.5 39t24.5 102t-22.5 101.5t-72.5 38.5
q-48 0 -72.5 -38.5t-24.5 -101.5z" />
    <glyph glyph-name="pi" unicode="&#x3c0;" 
d="M438 470v-470h-124v368h-128v-368h-123v470h375z" />
    <glyph glyph-name="rho" unicode="&#x3c1;" 
d="M277 -9q-30 0 -52 6t-39 16v-178h-123v427q0 99 50 158.5t147 59.5q109 0 159 -65t50 -180q0 -54 -12.5 -99t-36.5 -77.5t-60 -50t-83 -17.5zM186 112q11 -8 27.5 -12.5t38.5 -4.5q43 0 67 36.5t24 108.5q0 69 -18.5 102.5t-60.5 33.5q-32 0 -55 -25t-23 -84v-155z" />
    <glyph glyph-name="sigma1" unicode="&#x3c2;" 
d="M235 13q-43 10 -78 26.5t-60 42.5t-38.5 63.5t-13.5 91.5q0 52 18.5 97t53 78t84.5 51.5t113 18.5q43 0 78.5 -6.5t69.5 -19.5l-30 -97q-22 8 -48 13t-59 5q-72 0 -113 -35t-41 -102q0 -59 30 -89t97 -45q48 -12 80 -25t51.5 -29.5t28 -38t8.5 -50.5q0 -37 -13.5 -69
t-35.5 -64l-103 39q14 26 21.5 43t7.5 34q0 22 -24 37t-84 30z" />
    <glyph glyph-name="sigma" unicode="&#x3c3;" 
d="M403 368q23 -35 36 -74.5t13 -80.5q0 -43 -13 -84t-39 -72.5t-66.5 -50.5t-95.5 -19q-47 0 -85.5 17.5t-66 49.5t-42.5 77t-15 100q0 58 16.5 102.5t47 75t74 46t96.5 15.5h228v-102h-88zM238 93q24 0 40.5 10.5t27 28t15.5 41t5 49.5q0 43 -13 83t-35 63h-15
q-28 0 -48.5 -12t-34 -32t-20 -46.5t-6.5 -54.5q0 -25 5.5 -48.5t16 -41.5t26.5 -29t36 -11z" />
    <glyph glyph-name="tau" unicode="&#x3c4;" 
d="M139 368h-103v102h420v-102h-193v-180q0 -52 20.5 -72t52.5 -20q19 0 35 1.5t30.5 5t29.5 8.5t32 13l17 -105q-34 -15 -74 -22.5t-84 -7.5q-41 0 -74.5 9.5t-57.5 32.5t-37.5 62.5t-13.5 98.5v176z" />
    <glyph glyph-name="upsilon" unicode="&#x3c5;" 
d="M249 -13q-104 0 -151 52t-47 164v267h124v-252q0 -62 15.5 -89t58.5 -27t58 27t15 89v252h125v-267q0 -112 -46.5 -164t-151.5 -52z" />
    </font>
</defs>
</svg>
